osu file format v13

[General]
AudioFilename: Death Moon.mp3
AudioLeadIn: 2
PreviewTime: 57606
Countdown: 0
SampleSet: None
StackLeniency: 0.7
Mode: 3
LetterboxInBreaks: 0
SpecialStyle: 0
WidescreenStoryboard: 0

[Editor]
DistanceSpacing: 0.8
BeatDivisor: 1
GridSize: 8
TimelineZoom: 1

[Metadata]
Title:4K Challenge Pack
TitleUnicode:4K Challenge Pack
Artist:xeona
ArtistUnicode:xeona
Creator:Anoex
Version:SHK.o2SE---Death Moon
Source:
Tags:
BeatmapID:470548
BeatmapSetID:198334

[Difficulty]
HPDrainRate:6
CircleSize:4
OverallDifficulty:7
ApproachRate:10
SliderMultiplier:1.4
SliderTickRate:1

[Events]
//Background and Video events
0,0,"Death Moon.jpg",0,0
//Break Periods
//Storyboard Layer 0 (Background)
//Storyboard Layer 1 (Fail)
//Storyboard Layer 2 (Pass)
//Storyboard Layer 3 (Foreground)
//Storyboard Sound Samples
//Background Colour Transformations
3,100,163,162,255

[TimingPoints]
6043,375,4,2,0,15,1,0
6605.5,187.5,4,2,0,15,1,0
7543,375,4,2,0,15,1,0
9605.5,187.5,4,2,0,15,1,0
10543,375,4,2,0,15,1,0
12043,187.5,4,2,0,15,1,0
13168,375,4,2,0,15,1,0
52543,400,4,2,0,15,1,0
53343,413.7931,4,2,0,15,1,0
54170.59,428.5714,4,2,0,15,1,0
54599.17,444.4445,4,2,0,15,1,0
55043.61,461.5385,4,2,0,15,1,0
55274.38,480,4,2,0,15,1,0
55514.38,500,4,2,0,15,1,0
56514.38,375,4,2,0,15,1,0
57639.38,93.75,4,2,0,15,1,0
60639.38,187.5,4,2,0,15,1,0
62139.38,375,4,2,0,15,1,0

[HitObjects]
64,192,6043,5,0,0:0:0:0:
192,192,6043,1,0,0:0:0:0:
320,192,6043,1,0,0:0:0:0:
448,192,6043,1,0,0:0:0:0:
64,192,6136,1,0,0:0:0:0:
192,192,6136,1,0,0:0:0:0:
320,192,6136,1,0,0:0:0:0:
448,192,6136,1,0,0:0:0:0:
64,192,6230,1,0,0:0:0:0:
192,192,6230,1,0,0:0:0:0:
320,192,6230,1,0,0:0:0:0:
448,192,6230,1,0,0:0:0:0:
64,192,6418,1,0,0:0:0:0:
192,192,6418,1,0,0:0:0:0:
320,192,6418,1,0,0:0:0:0:
448,192,6418,1,0,0:0:0:0:
192,192,6605,1,0,0:0:0:0:
320,192,6605,1,0,0:0:0:0:
64,0,6605,128,0,7343:1:0:0:0:
448,0,6605,128,0,7343:1:0:0:0:
192,0,6687,128,0,6781:1:0:0:0:
320,192,6781,1,0,0:0:0:0:
320,0,6875,128,0,6968:1:0:0:0:
192,0,6968,128,0,7062:1:0:0:0:
320,0,7062,128,0,7156:1:0:0:0:
192,192,7156,1,0,0:0:0:0:
192,0,7250,128,0,7343:1:0:0:0:
320,0,7343,128,0,7437:1:0:0:0:
192,192,7437,1,0,0:0:0:0:
64,192,7531,1,0,0:0:0:0:
192,192,7531,1,0,0:0:0:0:
320,192,7531,1,0,0:0:0:0:
448,192,7531,1,0,0:0:0:0:
64,0,7636,128,0,7730:1:0:0:0:
192,0,7636,128,0,7730:1:0:0:0:
320,0,7636,128,0,7730:1:0:0:0:
448,0,7636,128,0,7730:1:0:0:0:
64,192,7918,1,0,0:0:0:0:
192,192,7918,1,0,0:0:0:0:
320,192,7918,1,0,0:0:0:0:
448,192,7918,1,0,0:0:0:0:
64,0,8011,128,0,8105:1:0:0:0:
192,0,8011,128,0,8105:1:0:0:0:
320,0,8011,128,0,8105:1:0:0:0:
448,0,8011,128,0,8105:1:0:0:0:
64,192,8293,1,0,0:0:0:0:
192,192,8293,1,0,0:0:0:0:
320,192,8293,1,0,0:0:0:0:
448,192,8293,1,0,0:0:0:0:
64,0,8386,128,0,8480:1:0:0:0:
192,0,8386,128,0,8480:1:0:0:0:
320,0,8386,128,0,8480:1:0:0:0:
448,0,8386,128,0,8480:1:0:0:0:
64,192,8668,1,0,0:0:0:0:
192,192,8668,1,0,0:0:0:0:
320,192,8668,1,0,0:0:0:0:
448,192,8668,1,0,0:0:0:0:
64,0,8761,128,0,8855:1:0:0:0:
192,0,8761,128,0,8855:1:0:0:0:
320,0,8761,128,0,8855:1:0:0:0:
448,0,8761,128,0,8855:1:0:0:0:
64,192,9043,1,0,0:0:0:0:
192,192,9043,1,0,0:0:0:0:
320,192,9043,1,0,0:0:0:0:
448,192,9043,1,0,0:0:0:0:
64,192,9136,1,0,0:0:0:0:
192,192,9136,1,0,0:0:0:0:
320,192,9136,1,0,0:0:0:0:
448,192,9136,1,0,0:0:0:0:
64,192,9230,1,0,0:0:0:0:
192,192,9230,1,0,0:0:0:0:
320,192,9230,1,0,0:0:0:0:
448,192,9230,1,0,0:0:0:0:
64,192,9418,1,0,0:0:0:0:
192,192,9418,1,0,0:0:0:0:
320,192,9418,1,0,0:0:0:0:
448,192,9418,1,0,0:0:0:0:
320,192,9605,1,0,0:0:0:0:
448,192,9605,1,0,0:0:0:0:
64,0,9605,128,0,10343:1:0:0:0:
192,0,9605,128,0,10343:1:0:0:0:
448,0,9687,128,0,9781:1:0:0:0:
320,192,9781,1,0,0:0:0:0:
320,0,9875,128,0,9968:1:0:0:0:
448,0,9968,128,0,10062:1:0:0:0:
320,0,10062,128,0,10156:1:0:0:0:
448,0,10156,128,0,10250:1:0:0:0:
320,192,10250,1,0,0:0:0:0:
320,0,10343,128,0,10437:1:0:0:0:
64,192,10531,1,0,0:0:0:0:
192,192,10531,1,0,0:0:0:0:
320,192,10531,1,0,0:0:0:0:
448,192,10531,1,0,0:0:0:0:
64,0,10636,128,0,10730:1:0:0:0:
192,0,10636,128,0,10730:1:0:0:0:
320,0,10636,128,0,10730:1:0:0:0:
448,0,10636,128,0,10730:1:0:0:0:
64,192,10918,1,0,0:0:0:0:
192,192,10918,1,0,0:0:0:0:
320,192,10918,1,0,0:0:0:0:
448,192,10918,1,0,0:0:0:0:
64,0,11011,128,0,11105:1:0:0:0:
192,0,11011,128,0,11105:1:0:0:0:
320,0,11011,128,0,11105:1:0:0:0:
448,0,11011,128,0,11105:1:0:0:0:
64,192,11293,1,0,0:0:0:0:
192,192,11293,1,0,0:0:0:0:
320,192,11293,1,0,0:0:0:0:
448,192,11293,1,0,0:0:0:0:
64,0,11386,128,0,11480:1:0:0:0:
192,0,11386,128,0,11480:1:0:0:0:
320,0,11386,128,0,11480:1:0:0:0:
448,0,11386,128,0,11480:1:0:0:0:
64,192,11668,1,0,0:0:0:0:
192,192,11668,1,0,0:0:0:0:
320,192,11668,1,0,0:0:0:0:
448,192,11668,1,0,0:0:0:0:
64,0,11761,128,0,11855:1:0:0:0:
192,0,11761,128,0,11855:1:0:0:0:
320,0,11761,128,0,11855:1:0:0:0:
448,0,11761,128,0,11855:1:0:0:0:
192,192,12043,1,0,0:0:0:0:
320,192,12043,1,0,0:0:0:0:
64,0,12043,128,0,12968:1:0:0:0:
448,0,12043,128,0,12968:1:0:0:0:
192,0,12125,128,0,12312:1:0:0:0:
320,0,12125,128,0,12312:1:0:0:0:
192,192,12406,1,0,0:0:0:0:
320,192,12406,1,0,0:0:0:0:
192,0,12500,128,0,12687:1:0:0:0:
320,0,12500,128,0,12687:1:0:0:0:
192,192,12781,1,0,0:0:0:0:
320,192,12781,1,0,0:0:0:0:
192,0,12875,128,0,13062:1:0:0:0:
320,0,12875,128,0,13062:1:0:0:0:
64,192,13156,1,0,0:0:0:0:
192,192,13156,1,0,0:0:0:0:
320,192,13156,1,0,0:0:0:0:
448,192,13156,1,0,0:0:0:0:
64,0,13261,128,0,13355:1:0:0:0:
192,0,13261,128,0,13355:1:0:0:0:
320,0,13261,128,0,13355:1:0:0:0:
448,0,13261,128,0,13355:1:0:0:0:
64,192,13543,1,0,0:0:0:0:
192,192,13543,1,0,0:0:0:0:
320,192,13543,1,0,0:0:0:0:
448,0,13543,128,0,14105:1:0:0:0:
192,192,13636,1,0,0:0:0:0:
64,192,13730,1,0,0:0:0:0:
320,192,13824,1,0,0:0:0:0:
64,192,13918,1,0,0:0:0:0:
320,192,14011,1,0,0:0:0:0:
64,192,14105,1,0,0:0:0:0:
192,192,14105,1,0,0:0:0:0:
192,192,14199,1,0,0:0:0:0:
320,192,14199,1,0,0:0:0:0:
320,192,14293,1,0,0:0:0:0:
448,0,14293,128,0,14855:1:0:0:0:
64,192,14386,1,0,0:0:0:0:
192,192,14480,1,0,0:0:0:0:
320,192,14574,1,0,0:0:0:0:
64,192,14668,1,0,0:0:0:0:
320,192,14761,1,0,0:0:0:0:
64,192,14855,1,0,0:0:0:0:
192,192,14855,1,0,0:0:0:0:
192,192,14949,1,0,0:0:0:0:
320,192,14949,1,0,0:0:0:0:
448,192,15043,1,0,0:0:0:0:
64,0,15043,128,0,15605:1:0:0:0:
192,192,15136,1,0,0:0:0:0:
448,192,15230,1,0,0:0:0:0:
320,192,15324,1,0,0:0:0:0:
192,192,15418,1,0,0:0:0:0:
448,192,15511,1,0,0:0:0:0:
320,192,15605,1,0,0:0:0:0:
448,192,15605,1,0,0:0:0:0:
64,192,15699,1,0,0:0:0:0:
192,192,15699,1,0,0:0:0:0:
192,192,15793,1,0,0:0:0:0:
320,0,15793,128,0,16355:1:0:0:0:
448,192,15886,1,0,0:0:0:0:
64,192,15980,1,0,0:0:0:0:
192,192,16074,1,0,0:0:0:0:
448,192,16168,1,0,0:0:0:0:
192,192,16261,1,0,0:0:0:0:
64,192,16355,1,0,0:0:0:0:
448,192,16355,1,0,0:0:0:0:
64,192,16449,1,0,0:0:0:0:
192,192,16449,1,0,0:0:0:0:
192,192,16543,1,0,0:0:0:0:
448,0,16543,128,0,17105:1:0:0:0:
320,192,16636,1,0,0:0:0:0:
64,192,16730,1,0,0:0:0:0:
192,192,16824,1,0,0:0:0:0:
320,192,16918,1,0,0:0:0:0:
64,192,17011,1,0,0:0:0:0:
192,192,17105,1,0,0:0:0:0:
320,192,17105,1,0,0:0:0:0:
192,192,17199,1,0,0:0:0:0:
448,192,17199,1,0,0:0:0:0:
320,192,17293,1,0,0:0:0:0:
64,0,17293,128,0,17855:1:0:0:0:
192,192,17386,1,0,0:0:0:0:
448,192,17480,1,0,0:0:0:0:
192,192,17574,1,0,0:0:0:0:
320,192,17668,1,0,0:0:0:0:
448,192,17761,1,0,0:0:0:0:
192,192,17855,1,0,0:0:0:0:
448,192,17855,1,0,0:0:0:0:
192,192,17949,1,0,0:0:0:0:
320,192,17949,1,0,0:0:0:0:
64,192,18043,1,0,0:0:0:0:
448,0,18043,128,0,19168:1:0:0:0:
320,192,18136,1,0,0:0:0:0:
64,192,18230,1,0,0:0:0:0:
192,192,18324,1,0,0:0:0:0:
192,192,18418,1,0,0:0:0:0:
64,192,18511,1,0,0:0:0:0:
320,192,18605,1,0,0:0:0:0:
64,192,18699,1,0,0:0:0:0:
192,192,18793,1,0,0:0:0:0:
320,192,18886,1,0,0:0:0:0:
64,192,18980,1,0,0:0:0:0:
192,192,19074,1,0,0:0:0:0:
64,0,19168,128,0,19355:1:0:0:0:
320,0,19168,128,0,19355:1:0:0:0:
192,192,19261,1,0,0:0:0:0:
448,192,19355,1,0,0:0:0:0:
448,192,19449,1,0,0:0:0:0:
192,192,19543,1,0,0:0:0:0:
64,0,19543,128,0,20105:1:0:0:0:
320,192,19636,1,0,0:0:0:0:
448,192,19730,1,0,0:0:0:0:
192,192,19824,1,0,0:0:0:0:
448,192,19918,1,0,0:0:0:0:
192,192,20011,1,0,0:0:0:0:
192,192,20105,1,0,0:0:0:0:
320,192,20105,1,0,0:0:0:0:
320,192,20199,1,0,0:0:0:0:
448,192,20199,1,0,0:0:0:0:
448,192,20293,1,0,0:0:0:0:
192,0,20293,128,0,20855:1:0:0:0:
64,192,20386,1,0,0:0:0:0:
320,192,20480,1,0,0:0:0:0:
64,192,20574,1,0,0:0:0:0:
448,192,20668,1,0,0:0:0:0:
64,192,20761,1,0,0:0:0:0:
320,192,20855,1,0,0:0:0:0:
448,192,20855,1,0,0:0:0:0:
64,192,20949,1,0,0:0:0:0:
320,192,20949,1,0,0:0:0:0:
64,192,21043,1,0,0:0:0:0:
448,0,21043,128,0,21605:1:0:0:0:
192,192,21136,1,0,0:0:0:0:
320,192,21230,1,0,0:0:0:0:
64,192,21324,1,0,0:0:0:0:
192,192,21418,1,0,0:0:0:0:
320,192,21511,1,0,0:0:0:0:
192,192,21605,1,0,0:0:0:0:
320,192,21605,1,0,0:0:0:0:
192,192,21699,1,0,0:0:0:0:
448,192,21699,1,0,0:0:0:0:
448,192,21793,1,0,0:0:0:0:
64,0,21793,128,0,22355:1:0:0:0:
192,192,21886,1,0,0:0:0:0:
320,192,21980,1,0,0:0:0:0:
448,192,22074,1,0,0:0:0:0:
448,192,22168,1,0,0:0:0:0:
320,192,22261,1,0,0:0:0:0:
192,192,22355,1,0,0:0:0:0:
448,192,22355,1,0,0:0:0:0:
192,192,22449,1,0,0:0:0:0:
320,192,22449,1,0,0:0:0:0:
320,192,22543,1,0,0:0:0:0:
448,0,22543,128,0,23105:1:0:0:0:
64,192,22636,1,0,0:0:0:0:
192,192,22730,1,0,0:0:0:0:
320,192,22824,1,0,0:0:0:0:
64,192,22918,1,0,0:0:0:0:
192,192,23011,1,0,0:0:0:0:
64,192,23105,1,0,0:0:0:0:
320,192,23105,1,0,0:0:0:0:
320,192,23199,1,0,0:0:0:0:
448,192,23199,1,0,0:0:0:0:
448,192,23293,1,0,0:0:0:0:
192,0,23293,128,0,23855:1:0:0:0:
64,192,23386,1,0,0:0:0:0:
320,192,23480,1,0,0:0:0:0:
64,192,23574,1,0,0:0:0:0:
448,192,23668,1,0,0:0:0:0:
320,192,23761,1,0,0:0:0:0:
64,192,23855,1,0,0:0:0:0:
448,192,23855,1,0,0:0:0:0:
192,192,23949,1,0,0:0:0:0:
320,192,23949,1,0,0:0:0:0:
320,192,24043,1,0,0:0:0:0:
448,0,24043,128,0,24605:1:0:0:0:
64,192,24136,1,0,0:0:0:0:
192,192,24230,1,0,0:0:0:0:
192,192,24324,1,0,0:0:0:0:
320,192,24418,1,0,0:0:0:0:
64,192,24511,1,0,0:0:0:0:
64,192,24605,1,0,0:0:0:0:
192,192,24605,1,0,0:0:0:0:
192,192,24699,1,0,0:0:0:0:
320,192,24699,1,0,0:0:0:0:
448,192,24793,1,0,0:0:0:0:
64,0,24793,128,0,25355:1:0:0:0:
320,192,24886,1,0,0:0:0:0:
192,192,24980,1,0,0:0:0:0:
448,192,25074,1,0,0:0:0:0:
448,192,25168,1,0,0:0:0:0:
192,192,25261,1,0,0:0:0:0:
192,192,25355,1,0,0:0:0:0:
320,192,25355,1,0,0:0:0:0:
448,192,25449,1,0,0:0:0:0:
64,192,25543,1,0,0:0:0:0:
192,192,25543,1,0,0:0:0:0:
64,192,25636,1,0,0:0:0:0:
64,192,25730,1,0,0:0:0:0:
320,192,25730,1,0,0:0:0:0:
64,192,25918,1,0,0:0:0:0:
448,192,25918,1,0,0:0:0:0:
448,192,26011,1,0,0:0:0:0:
320,192,26105,1,0,0:0:0:0:
448,192,26105,1,0,0:0:0:0:
64,192,26293,1,0,0:0:0:0:
192,192,26293,1,0,0:0:0:0:
192,192,26386,1,0,0:0:0:0:
192,192,26480,1,0,0:0:0:0:
448,192,26480,1,0,0:0:0:0:
192,192,26668,1,0,0:0:0:0:
320,192,26668,1,0,0:0:0:0:
320,192,26761,1,0,0:0:0:0:
320,192,26855,1,0,0:0:0:0:
448,192,26855,1,0,0:0:0:0:
64,192,27043,1,0,0:0:0:0:
192,192,27043,1,0,0:0:0:0:
64,192,27136,1,0,0:0:0:0:
64,192,27230,1,0,0:0:0:0:
320,192,27230,1,0,0:0:0:0:
192,192,27418,1,0,0:0:0:0:
448,192,27418,1,0,0:0:0:0:
192,192,27511,1,0,0:0:0:0:
64,192,27605,1,0,0:0:0:0:
192,192,27605,1,0,0:0:0:0:
320,192,27793,1,0,0:0:0:0:
448,192,27793,1,0,0:0:0:0:
320,192,27886,1,0,0:0:0:0:
192,192,27980,1,0,0:0:0:0:
320,192,27980,1,0,0:0:0:0:
64,192,28168,1,0,0:0:0:0:
448,192,28168,1,0,0:0:0:0:
448,192,28261,1,0,0:0:0:0:
320,192,28355,1,0,0:0:0:0:
448,192,28355,1,0,0:0:0:0:
64,192,28543,1,0,0:0:0:0:
192,192,28543,1,0,0:0:0:0:
192,192,28636,1,0,0:0:0:0:
192,192,28730,1,0,0:0:0:0:
448,192,28730,1,0,0:0:0:0:
192,192,28918,1,0,0:0:0:0:
320,192,28918,1,0,0:0:0:0:
320,192,29011,1,0,0:0:0:0:
320,192,29105,1,0,0:0:0:0:
448,192,29105,1,0,0:0:0:0:
64,192,29293,1,0,0:0:0:0:
192,192,29293,1,0,0:0:0:0:
64,192,29386,1,0,0:0:0:0:
64,192,29480,1,0,0:0:0:0:
320,192,29480,1,0,0:0:0:0:
192,192,29668,1,0,0:0:0:0:
448,192,29668,1,0,0:0:0:0:
448,192,29761,1,0,0:0:0:0:
64,192,29855,1,0,0:0:0:0:
448,192,29855,1,0,0:0:0:0:
192,192,30043,1,0,0:0:0:0:
320,192,30043,1,0,0:0:0:0:
448,192,30089,1,0,0:0:0:0:
64,192,30136,1,0,0:0:0:0:
320,192,30183,1,0,0:0:0:0:
192,192,30230,1,0,0:0:0:0:
448,192,30230,1,0,0:0:0:0:
64,192,30277,1,0,0:0:0:0:
320,192,30324,1,0,0:0:0:0:
448,192,30371,1,0,0:0:0:0:
64,192,30418,1,0,0:0:0:0:
192,192,30418,1,0,0:0:0:0:
320,192,30464,1,0,0:0:0:0:
448,192,30511,1,0,0:0:0:0:
64,192,30558,1,0,0:0:0:0:
192,192,30605,1,0,0:0:0:0:
320,192,30605,1,0,0:0:0:0:
448,192,30652,1,0,0:0:0:0:
64,192,30699,1,0,0:0:0:0:
320,192,30746,1,0,0:0:0:0:
192,192,30793,1,0,0:0:0:0:
448,192,30793,1,0,0:0:0:0:
64,192,30839,1,0,0:0:0:0:
320,192,30886,1,0,0:0:0:0:
448,192,30933,1,0,0:0:0:0:
64,192,30980,1,0,0:0:0:0:
192,192,30980,1,0,0:0:0:0:
320,192,31027,1,0,0:0:0:0:
448,192,31074,1,0,0:0:0:0:
64,192,31121,1,0,0:0:0:0:
192,192,31168,1,0,0:0:0:0:
320,192,31168,1,0,0:0:0:0:
448,192,31214,1,0,0:0:0:0:
64,192,31261,1,0,0:0:0:0:
320,192,31308,1,0,0:0:0:0:
192,192,31355,1,0,0:0:0:0:
448,192,31355,1,0,0:0:0:0:
64,192,31402,1,0,0:0:0:0:
320,192,31449,1,0,0:0:0:0:
448,192,31496,1,0,0:0:0:0:
64,192,31543,1,0,0:0:0:0:
192,192,31543,1,0,0:0:0:0:
448,192,31730,1,0,0:0:0:0:
192,192,31824,1,0,0:0:0:0:
192,192,31918,1,0,0:0:0:0:
320,192,31918,1,0,0:0:0:0:
448,192,31918,1,0,0:0:0:0:
64,192,32105,1,0,0:0:0:0:
320,192,32199,1,0,0:0:0:0:
64,192,32293,1,0,0:0:0:0:
192,192,32293,1,0,0:0:0:0:
320,192,32293,1,0,0:0:0:0:
448,192,32480,1,0,0:0:0:0:
192,192,32574,1,0,0:0:0:0:
64,192,32668,1,0,0:0:0:0:
192,192,32668,1,0,0:0:0:0:
448,192,32668,1,0,0:0:0:0:
64,192,32855,1,0,0:0:0:0:
320,192,32949,1,0,0:0:0:0:
64,192,33043,1,0,0:0:0:0:
320,192,33043,1,0,0:0:0:0:
448,192,33043,1,0,0:0:0:0:
192,192,33230,1,0,0:0:0:0:
320,192,33324,1,0,0:0:0:0:
192,192,33418,1,0,0:0:0:0:
320,192,33418,1,0,0:0:0:0:
448,192,33418,1,0,0:0:0:0:
320,192,33605,1,0,0:0:0:0:
192,192,33699,1,0,0:0:0:0:
64,192,33793,1,0,0:0:0:0:
192,192,33793,1,0,0:0:0:0:
320,192,33793,1,0,0:0:0:0:
64,192,33980,1,0,0:0:0:0:
320,192,34074,1,0,0:0:0:0:
64,192,34168,1,0,0:0:0:0:
320,192,34168,1,0,0:0:0:0:
448,192,34168,1,0,0:0:0:0:
448,192,34355,1,0,0:0:0:0:
192,192,34449,1,0,0:0:0:0:
64,192,34543,1,0,0:0:0:0:
192,192,34543,1,0,0:0:0:0:
448,192,34543,1,0,0:0:0:0:
64,192,34730,1,0,0:0:0:0:
192,192,34824,1,0,0:0:0:0:
64,192,34918,1,0,0:0:0:0:
192,192,34918,1,0,0:0:0:0:
448,192,34918,1,0,0:0:0:0:
320,192,35105,1,0,0:0:0:0:
448,192,35199,1,0,0:0:0:0:
192,192,35293,1,0,0:0:0:0:
320,192,35293,1,0,0:0:0:0:
448,192,35293,1,0,0:0:0:0:
192,192,35480,1,0,0:0:0:0:
64,192,35574,1,0,0:0:0:0:
64,192,35668,1,0,0:0:0:0:
192,192,35668,1,0,0:0:0:0:
320,192,35668,1,0,0:0:0:0:
320,192,35855,1,0,0:0:0:0:
448,192,35855,1,0,0:0:0:0:
64,192,35949,1,0,0:0:0:0:
64,192,36043,1,0,0:0:0:0:
192,192,36043,1,0,0:0:0:0:
320,192,36089,1,0,0:0:0:0:
448,192,36136,1,0,0:0:0:0:
192,192,36183,1,0,0:0:0:0:
64,192,36230,1,0,0:0:0:0:
320,192,36230,1,0,0:0:0:0:
448,192,36277,1,0,0:0:0:0:
192,192,36324,1,0,0:0:0:0:
320,192,36371,1,0,0:0:0:0:
64,192,36418,1,0,0:0:0:0:
448,192,36418,1,0,0:0:0:0:
192,192,36464,1,0,0:0:0:0:
320,192,36511,1,0,0:0:0:0:
448,192,36558,1,0,0:0:0:0:
64,192,36605,1,0,0:0:0:0:
192,192,36605,1,0,0:0:0:0:
320,192,36652,1,0,0:0:0:0:
448,192,36699,1,0,0:0:0:0:
192,192,36746,1,0,0:0:0:0:
64,192,36793,1,0,0:0:0:0:
320,192,36793,1,0,0:0:0:0:
448,192,36839,1,0,0:0:0:0:
192,192,36886,1,0,0:0:0:0:
320,192,36933,1,0,0:0:0:0:
64,192,36980,1,0,0:0:0:0:
448,192,36980,1,0,0:0:0:0:
192,192,37027,1,0,0:0:0:0:
320,192,37074,1,0,0:0:0:0:
448,192,37121,1,0,0:0:0:0:
64,192,37168,1,0,0:0:0:0:
192,192,37168,1,0,0:0:0:0:
320,192,37214,1,0,0:0:0:0:
448,192,37261,1,0,0:0:0:0:
192,192,37308,1,0,0:0:0:0:
64,192,37355,1,0,0:0:0:0:
320,192,37355,1,0,0:0:0:0:
448,192,37402,1,0,0:0:0:0:
192,192,37449,1,0,0:0:0:0:
320,192,37496,1,0,0:0:0:0:
448,192,37543,1,0,0:0:0:0:
64,0,37543,128,0,37918:1:0:0:0:
192,192,37636,1,0,0:0:0:0:
320,192,37730,1,0,0:0:0:0:
448,192,37824,1,0,0:0:0:0:
448,192,37918,1,0,0:0:0:0:
192,0,37918,128,0,38293:1:0:0:0:
320,192,38011,1,0,0:0:0:0:
64,192,38105,1,0,0:0:0:0:
320,192,38199,1,0,0:0:0:0:
64,192,38293,1,0,0:0:0:0:
448,0,38293,128,0,38668:1:0:0:0:
192,192,38386,1,0,0:0:0:0:
320,192,38480,1,0,0:0:0:0:
192,192,38574,1,0,0:0:0:0:
320,192,38668,1,0,0:0:0:0:
64,0,38668,128,0,39043:1:0:0:0:
448,192,38761,1,0,0:0:0:0:
192,192,38855,1,0,0:0:0:0:
192,192,38949,1,0,0:0:0:0:
448,192,39043,1,0,0:0:0:0:
320,0,39043,128,0,39418:1:0:0:0:
64,192,39136,1,0,0:0:0:0:
448,192,39230,1,0,0:0:0:0:
192,192,39324,1,0,0:0:0:0:
64,192,39418,1,0,0:0:0:0:
192,0,39418,128,0,39793:1:0:0:0:
448,192,39511,1,0,0:0:0:0:
64,192,39605,1,0,0:0:0:0:
320,192,39699,1,0,0:0:0:0:
320,192,39793,1,0,0:0:0:0:
448,0,39793,128,0,40168:1:0:0:0:
64,192,39886,1,0,0:0:0:0:
320,192,39980,1,0,0:0:0:0:
192,192,40074,1,0,0:0:0:0:
320,192,40168,1,0,0:0:0:0:
64,0,40168,128,0,40543:1:0:0:0:
448,192,40261,1,0,0:0:0:0:
192,192,40355,1,0,0:0:0:0:
448,192,40449,1,0,0:0:0:0:
192,192,40543,1,0,0:0:0:0:
320,0,40543,128,0,40918:1:0:0:0:
64,192,40636,1,0,0:0:0:0:
64,192,40730,1,0,0:0:0:0:
448,192,40824,1,0,0:0:0:0:
64,192,40918,1,0,0:0:0:0:
192,0,40918,128,0,41293:1:0:0:0:
320,192,41011,1,0,0:0:0:0:
448,192,41105,1,0,0:0:0:0:
320,192,41199,1,0,0:0:0:0:
64,192,41293,1,0,0:0:0:0:
448,0,41293,128,0,41668:1:0:0:0:
192,192,41386,1,0,0:0:0:0:
320,192,41480,1,0,0:0:0:0:
192,192,41574,1,0,0:0:0:0:
320,192,41668,1,0,0:0:0:0:
64,0,41668,128,0,42043:1:0:0:0:
448,192,41761,1,0,0:0:0:0:
192,192,41855,1,0,0:0:0:0:
448,192,41949,1,0,0:0:0:0:
320,192,42043,1,0,0:0:0:0:
448,192,42043,1,0,0:0:0:0:
192,192,42089,1,0,0:0:0:0:
64,192,42136,1,0,0:0:0:0:
320,192,42183,1,0,0:0:0:0:
192,192,42230,1,0,0:0:0:0:
448,192,42230,1,0,0:0:0:0:
64,192,42277,1,0,0:0:0:0:
320,192,42324,1,0,0:0:0:0:
192,192,42371,1,0,0:0:0:0:
64,192,42418,1,0,0:0:0:0:
448,192,42418,1,0,0:0:0:0:
320,192,42464,1,0,0:0:0:0:
192,192,42511,1,0,0:0:0:0:
64,192,42558,1,0,0:0:0:0:
320,192,42605,1,0,0:0:0:0:
448,192,42605,1,0,0:0:0:0:
192,192,42652,1,0,0:0:0:0:
64,192,42699,1,0,0:0:0:0:
320,192,42746,1,0,0:0:0:0:
192,192,42793,1,0,0:0:0:0:
448,192,42793,1,0,0:0:0:0:
64,192,42839,1,0,0:0:0:0:
320,192,42886,1,0,0:0:0:0:
192,192,42933,1,0,0:0:0:0:
64,192,42980,1,0,0:0:0:0:
448,192,42980,1,0,0:0:0:0:
320,192,43027,1,0,0:0:0:0:
192,192,43074,1,0,0:0:0:0:
64,192,43121,1,0,0:0:0:0:
320,192,43168,1,0,0:0:0:0:
448,192,43168,1,0,0:0:0:0:
192,192,43214,1,0,0:0:0:0:
64,192,43261,1,0,0:0:0:0:
320,192,43308,1,0,0:0:0:0:
192,192,43355,1,0,0:0:0:0:
448,192,43355,1,0,0:0:0:0:
64,192,43402,1,0,0:0:0:0:
320,192,43449,1,0,0:0:0:0:
192,192,43496,1,0,0:0:0:0:
64,192,43543,1,0,0:0:0:0:
448,0,43543,128,0,43918:1:0:0:0:
320,192,43636,1,0,0:0:0:0:
320,192,43730,1,0,0:0:0:0:
64,192,43824,1,0,0:0:0:0:
320,192,43918,1,0,0:0:0:0:
192,0,43918,128,0,44293:1:0:0:0:
448,192,44011,1,0,0:0:0:0:
64,192,44105,1,0,0:0:0:0:
64,192,44199,1,0,0:0:0:0:
448,192,44293,1,0,0:0:0:0:
320,0,44293,128,0,44668:1:0:0:0:
192,192,44386,1,0,0:0:0:0:
448,192,44480,1,0,0:0:0:0:
448,192,44574,1,0,0:0:0:0:
192,192,44668,1,0,0:0:0:0:
64,0,44668,128,0,45043:1:0:0:0:
448,192,44761,1,0,0:0:0:0:
192,192,44855,1,0,0:0:0:0:
320,192,44949,1,0,0:0:0:0:
192,192,45043,1,0,0:0:0:0:
448,0,45043,128,0,45418:1:0:0:0:
320,192,45136,1,0,0:0:0:0:
64,192,45230,1,0,0:0:0:0:
192,192,45324,1,0,0:0:0:0:
64,192,45418,1,0,0:0:0:0:
192,0,45418,128,0,45793:1:0:0:0:
448,192,45511,1,0,0:0:0:0:
320,192,45605,1,0,0:0:0:0:
64,192,45699,1,0,0:0:0:0:
320,192,45793,1,0,0:0:0:0:
448,0,45793,128,0,46168:1:0:0:0:
320,192,45886,1,0,0:0:0:0:
192,192,45980,1,0,0:0:0:0:
192,192,46074,1,0,0:0:0:0:
320,192,46168,1,0,0:0:0:0:
64,0,46168,128,0,46543:1:0:0:0:
192,192,46261,1,0,0:0:0:0:
320,192,46355,1,0,0:0:0:0:
448,192,46449,1,0,0:0:0:0:
448,192,46543,1,0,0:0:0:0:
192,0,46543,128,0,46918:1:0:0:0:
320,192,46636,1,0,0:0:0:0:
448,192,46730,1,0,0:0:0:0:
64,192,46824,1,0,0:0:0:0:
448,192,46918,1,0,0:0:0:0:
320,0,46918,128,0,47293:1:0:0:0:
192,192,47011,1,0,0:0:0:0:
64,192,47105,1,0,0:0:0:0:
192,192,47199,1,0,0:0:0:0:
64,192,47293,1,0,0:0:0:0:
448,0,47293,128,0,47668:1:0:0:0:
320,192,47386,1,0,0:0:0:0:
192,192,47480,1,0,0:0:0:0:
64,192,47574,1,0,0:0:0:0:
64,192,47668,1,0,0:0:0:0:
320,0,47668,128,0,48043:1:0:0:0:
192,192,47761,1,0,0:0:0:0:
448,192,47855,1,0,0:0:0:0:
64,192,47949,1,0,0:0:0:0:
64,192,48043,1,0,0:0:0:0:
192,192,48043,1,0,0:0:0:0:
320,192,48089,1,0,0:0:0:0:
448,192,48136,1,0,0:0:0:0:
192,192,48183,1,0,0:0:0:0:
64,192,48230,1,0,0:0:0:0:
320,192,48230,1,0,0:0:0:0:
448,192,48277,1,0,0:0:0:0:
192,192,48324,1,0,0:0:0:0:
320,192,48371,1,0,0:0:0:0:
64,192,48418,1,0,0:0:0:0:
448,192,48418,1,0,0:0:0:0:
192,192,48464,1,0,0:0:0:0:
320,192,48511,1,0,0:0:0:0:
448,192,48558,1,0,0:0:0:0:
64,192,48605,1,0,0:0:0:0:
192,192,48605,1,0,0:0:0:0:
320,192,48652,1,0,0:0:0:0:
448,192,48699,1,0,0:0:0:0:
192,192,48746,1,0,0:0:0:0:
64,192,48793,1,0,0:0:0:0:
320,192,48793,1,0,0:0:0:0:
448,192,48839,1,0,0:0:0:0:
64,192,48886,1,0,0:0:0:0:
192,192,48886,1,0,0:0:0:0:
320,192,48933,1,0,0:0:0:0:
64,192,48980,1,0,0:0:0:0:
448,192,48980,1,0,0:0:0:0:
192,192,49027,1,0,0:0:0:0:
320,192,49074,1,0,0:0:0:0:
448,192,49121,1,0,0:0:0:0:
64,192,49168,1,0,0:0:0:0:
192,192,49168,1,0,0:0:0:0:
320,192,49214,1,0,0:0:0:0:
64,192,49261,1,0,0:0:0:0:
448,192,49261,1,0,0:0:0:0:
192,192,49308,1,0,0:0:0:0:
64,192,49355,1,0,0:0:0:0:
320,192,49355,1,0,0:0:0:0:
448,192,49402,1,0,0:0:0:0:
192,192,49449,1,0,0:0:0:0:
320,192,49496,1,0,0:0:0:0:
64,192,49543,1,0,0:0:0:0:
192,192,49543,1,0,0:0:0:0:
448,192,49543,1,0,0:0:0:0:
64,192,49636,1,0,0:0:0:0:
448,192,49636,1,0,0:0:0:0:
192,192,49730,1,0,0:0:0:0:
320,192,49730,1,0,0:0:0:0:
320,192,49918,1,0,0:0:0:0:
448,192,49918,1,0,0:0:0:0:
64,192,50011,1,0,0:0:0:0:
448,192,50011,1,0,0:0:0:0:
192,192,50105,1,0,0:0:0:0:
320,192,50105,1,0,0:0:0:0:
64,192,50293,1,0,0:0:0:0:
448,192,50293,1,0,0:0:0:0:
192,192,50386,1,0,0:0:0:0:
320,192,50386,1,0,0:0:0:0:
320,192,50480,1,0,0:0:0:0:
448,192,50480,1,0,0:0:0:0:
192,192,50668,1,0,0:0:0:0:
320,192,50668,1,0,0:0:0:0:
192,192,50761,1,0,0:0:0:0:
448,192,50761,1,0,0:0:0:0:
64,192,50855,1,0,0:0:0:0:
448,192,50855,1,0,0:0:0:0:
64,192,51043,1,0,0:0:0:0:
192,192,51043,1,0,0:0:0:0:
192,192,51136,1,0,0:0:0:0:
320,192,51136,1,0,0:0:0:0:
320,192,51230,1,0,0:0:0:0:
448,192,51230,1,0,0:0:0:0:
64,192,51418,1,0,0:0:0:0:
192,192,51418,1,0,0:0:0:0:
64,192,51511,1,0,0:0:0:0:
448,192,51511,1,0,0:0:0:0:
320,192,51605,1,0,0:0:0:0:
448,192,51605,1,0,0:0:0:0:
192,192,51793,1,0,0:0:0:0:
448,192,51793,1,0,0:0:0:0:
192,192,51886,1,0,0:0:0:0:
320,192,51886,1,0,0:0:0:0:
64,192,51980,1,0,0:0:0:0:
320,192,51980,1,0,0:0:0:0:
192,192,52168,1,0,0:0:0:0:
448,192,52168,1,0,0:0:0:0:
64,192,52261,1,0,0:0:0:0:
192,192,52261,1,0,0:0:0:0:
64,192,52355,1,0,0:0:0:0:
320,192,52355,1,0,0:0:0:0:
64,192,52543,1,0,0:0:0:0:
192,192,52543,1,0,0:0:0:0:
192,192,52643,1,0,0:0:0:0:
320,192,52643,1,0,0:0:0:0:
192,192,52743,1,0,0:0:0:0:
448,192,52743,1,0,0:0:0:0:
320,192,52943,1,0,0:0:0:0:
448,192,52943,1,0,0:0:0:0:
64,192,53043,1,0,0:0:0:0:
448,192,53043,1,0,0:0:0:0:
192,192,53143,1,0,0:0:0:0:
320,192,53143,1,0,0:0:0:0:
64,192,53343,1,0,0:0:0:0:
192,192,53343,1,0,0:0:0:0:
320,192,53446,1,0,0:0:0:0:
448,192,53446,1,0,0:0:0:0:
192,192,53549,1,0,0:0:0:0:
448,192,53549,1,0,0:0:0:0:
64,192,53756,1,0,0:0:0:0:
320,192,53756,1,0,0:0:0:0:
192,192,53860,1,0,0:0:0:0:
448,192,53860,1,0,0:0:0:0:
192,192,53963,1,0,0:0:0:0:
320,192,53963,1,0,0:0:0:0:
64,192,54170,1,0,0:0:0:0:
448,192,54170,1,0,0:0:0:0:
192,192,54277,1,0,0:0:0:0:
320,192,54277,1,0,0:0:0:0:
64,192,54384,1,0,0:0:0:0:
192,192,54384,1,0,0:0:0:0:
192,192,54599,1,0,0:0:0:0:
320,192,54599,1,0,0:0:0:0:
64,192,54710,1,0,0:0:0:0:
192,192,54710,1,0,0:0:0:0:
320,192,54821,1,0,0:0:0:0:
448,192,54821,1,0,0:0:0:0:
192,192,55043,1,0,0:0:0:0:
448,192,55043,1,0,0:0:0:0:
64,192,55158,1,0,0:0:0:0:
448,192,55158,1,0,0:0:0:0:
192,192,55274,1,0,0:0:0:0:
320,192,55274,1,0,0:0:0:0:
64,192,55514,1,0,0:0:0:0:
320,192,55514,1,0,0:0:0:0:
192,192,55639,1,0,0:0:0:0:
448,192,55639,1,0,0:0:0:0:
64,0,55764,128,0,56139:1:0:0:0:
192,0,55764,128,0,56139:1:0:0:0:
320,0,55764,128,0,56139:1:0:0:0:
448,0,55764,128,0,56139:1:0:0:0:
64,192,56514,1,0,0:0:0:0:
192,192,56514,1,0,0:0:0:0:
320,192,56514,1,0,0:0:0:0:
448,192,56514,1,0,0:0:0:0:
64,0,56608,128,0,56701:1:0:0:0:
192,0,56608,128,0,56701:1:0:0:0:
320,0,56608,128,0,56701:1:0:0:0:
448,0,56608,128,0,56701:1:0:0:0:
320,192,57639,1,0,0:0:0:0:
448,192,57639,1,0,0:0:0:0:
64,0,57639,128,0,60586:1:0:0:0:
192,0,57639,128,0,60586:1:0:0:0:
320,0,57727,128,0,57821:1:0:0:0:
448,0,57821,128,0,57914:1:0:0:0:
320,0,57914,128,0,58008:1:0:0:0:
448,192,58008,1,0,0:0:0:0:
448,0,58102,128,0,58196:1:0:0:0:
320,0,58196,128,0,58289:1:0:0:0:
448,192,58289,1,0,0:0:0:0:
448,0,58383,128,0,58477:1:0:0:0:
320,0,58477,128,0,58571:1:0:0:0:
448,0,58571,128,0,58664:1:0:0:0:
320,192,58664,1,0,0:0:0:0:
320,0,58758,128,0,58852:1:0:0:0:
448,0,58852,128,0,58946:1:0:0:0:
320,0,58946,128,0,59039:1:0:0:0:
448,192,59039,1,0,0:0:0:0:
448,0,59133,128,0,59227:1:0:0:0:
320,0,59227,128,0,59321:1:0:0:0:
448,0,59321,128,0,59414:1:0:0:0:
320,0,59414,128,0,59508:1:0:0:0:
448,192,59508,1,0,0:0:0:0:
448,0,59602,128,0,59696:1:0:0:0:
320,0,59696,128,0,59789:1:0:0:0:
448,0,59789,128,0,59883:1:0:0:0:
320,0,59883,128,0,59977:1:0:0:0:
448,192,59977,1,0,0:0:0:0:
448,0,60071,128,0,60164:1:0:0:0:
320,192,60164,1,0,0:0:0:0:
320,0,60258,128,0,60352:1:0:0:0:
448,192,60352,1,0,0:0:0:0:
448,0,60446,128,0,60539:1:0:0:0:
320,192,60539,1,0,0:0:0:0:
64,192,60633,1,0,0:0:0:0:
192,192,60633,1,0,0:0:0:0:
320,192,60633,1,0,0:0:0:0:
448,192,60633,1,0,0:0:0:0:
64,0,60721,128,0,60908:1:0:0:0:
192,0,60721,128,0,60908:1:0:0:0:
320,0,60721,128,0,60908:1:0:0:0:
448,0,60721,128,0,60908:1:0:0:0:
64,192,61002,1,0,0:0:0:0:
192,192,61002,1,0,0:0:0:0:
320,192,61002,1,0,0:0:0:0:
448,192,61002,1,0,0:0:0:0:
64,0,61096,128,0,61283:1:0:0:0:
192,0,61096,128,0,61283:1:0:0:0:
320,0,61096,128,0,61283:1:0:0:0:
448,0,61096,128,0,61283:1:0:0:0:
64,192,61377,1,0,0:0:0:0:
192,192,61377,1,0,0:0:0:0:
320,192,61377,1,0,0:0:0:0:
448,192,61377,1,0,0:0:0:0:
64,0,61471,128,0,61658:1:0:0:0:
192,0,61471,128,0,61658:1:0:0:0:
320,0,61471,128,0,61658:1:0:0:0:
448,0,61471,128,0,61658:1:0:0:0:
64,192,61752,1,0,0:0:0:0:
192,192,61752,1,0,0:0:0:0:
320,192,61752,1,0,0:0:0:0:
448,192,61752,1,0,0:0:0:0:
64,0,61846,128,0,62033:1:0:0:0:
192,0,61846,128,0,62033:1:0:0:0:
320,0,61846,128,0,62033:1:0:0:0:
448,0,61846,128,0,62033:1:0:0:0:
64,192,62127,1,0,0:0:0:0:
192,192,62127,1,0,0:0:0:0:
320,192,62127,1,0,0:0:0:0:
448,192,62127,1,0,0:0:0:0:
192,192,62233,1,0,0:0:0:0:
320,192,62326,1,0,0:0:0:0:
64,192,62373,1,0,0:0:0:0:
448,192,62420,1,0,0:0:0:0:
192,192,62514,1,0,0:0:0:0:
320,192,62561,1,0,0:0:0:0:
64,192,62608,1,0,0:0:0:0:
192,192,62631,1,0,0:0:0:0:
448,192,62631,1,0,0:0:0:0:
320,192,62701,1,0,0:0:0:0:
192,192,62795,1,0,0:0:0:0:
64,192,62819,1,0,0:0:0:0:
192,192,62889,1,0,0:0:0:0:
448,192,62889,1,0,0:0:0:0:
320,192,62983,1,0,0:0:0:0:
192,192,63006,1,0,0:0:0:0:
64,192,63076,1,0,0:0:0:0:
448,192,63123,1,0,0:0:0:0:
192,192,63170,1,0,0:0:0:0:
320,192,63264,1,0,0:0:0:0:
64,192,63311,1,0,0:0:0:0:
192,192,63311,1,0,0:0:0:0:
448,192,63358,1,0,0:0:0:0:
192,192,63451,1,0,0:0:0:0:
320,192,63498,1,0,0:0:0:0:
64,192,63545,1,0,0:0:0:0:
64,192,63639,1,0,0:0:0:0:
448,192,63639,1,0,0:0:0:0:
192,192,63686,1,0,0:0:0:0:
320,192,63733,1,0,0:0:0:0:
192,192,63826,1,0,0:0:0:0:
64,192,63873,1,0,0:0:0:0:
320,192,63873,1,0,0:0:0:0:
448,192,63920,1,0,0:0:0:0:
64,192,64014,1,0,0:0:0:0:
192,192,64014,1,0,0:0:0:0:
448,192,64061,1,0,0:0:0:0:
320,192,64108,1,0,0:0:0:0:
64,192,64131,1,0,0:0:0:0:
448,192,64201,1,0,0:0:0:0:
64,192,64248,1,0,0:0:0:0:
320,192,64248,1,0,0:0:0:0:
192,192,64295,1,0,0:0:0:0:
64,192,64389,1,0,0:0:0:0:
192,192,64389,1,0,0:0:0:0:
448,192,64436,1,0,0:0:0:0:
320,192,64483,1,0,0:0:0:0:
64,192,64576,1,0,0:0:0:0:
192,192,64623,1,0,0:0:0:0:
320,192,64623,1,0,0:0:0:0:
448,192,64670,1,0,0:0:0:0:
320,192,64764,1,0,0:0:0:0:
64,192,64811,1,0,0:0:0:0:
192,192,64858,1,0,0:0:0:0:
320,192,64881,1,0,0:0:0:0:
448,192,64881,1,0,0:0:0:0:
64,192,64951,1,0,0:0:0:0:
192,192,64998,1,0,0:0:0:0:
320,192,65045,1,0,0:0:0:0:
448,192,65069,1,0,0:0:0:0:
192,192,65139,1,0,0:0:0:0:
320,192,65139,1,0,0:0:0:0:
64,192,65186,1,0,0:0:0:0:
448,192,65233,1,0,0:0:0:0:
320,192,65256,1,0,0:0:0:0:
64,192,65326,1,0,0:0:0:0:
192,192,65326,1,0,0:0:0:0:
448,192,65326,1,0,0:0:0:0:
320,192,65420,1,0,0:0:0:0:
448,192,65444,1,0,0:0:0:0:
64,192,65514,1,0,0:0:0:0:
448,192,65561,1,0,0:0:0:0:
192,192,65608,1,0,0:0:0:0:
64,192,65631,1,0,0:0:0:0:
320,192,65631,1,0,0:0:0:0:
448,192,65701,1,0,0:0:0:0:
64,192,65748,1,0,0:0:0:0:
192,192,65748,1,0,0:0:0:0:
320,192,65795,1,0,0:0:0:0:
192,192,65889,1,0,0:0:0:0:
320,192,65889,1,0,0:0:0:0:
448,192,65936,1,0,0:0:0:0:
64,192,65983,1,0,0:0:0:0:
192,192,66006,1,0,0:0:0:0:
320,192,66006,1,0,0:0:0:0:
448,192,66076,1,0,0:0:0:0:
320,192,66123,1,0,0:0:0:0:
192,192,66170,1,0,0:0:0:0:
64,192,66194,1,0,0:0:0:0:
320,192,66264,1,0,0:0:0:0:
448,192,66264,1,0,0:0:0:0:
448,192,66358,1,0,0:0:0:0:
64,192,66381,1,0,0:0:0:0:
320,192,66381,1,0,0:0:0:0:
192,192,66451,1,0,0:0:0:0:
448,192,66498,1,0,0:0:0:0:
320,192,66545,1,0,0:0:0:0:
64,192,66639,1,0,0:0:0:0:
448,192,66639,1,0,0:0:0:0:
192,192,66686,1,0,0:0:0:0:
64,192,66733,1,0,0:0:0:0:
320,192,66756,1,0,0:0:0:0:
192,192,66826,1,0,0:0:0:0:
64,192,66873,1,0,0:0:0:0:
448,192,66873,1,0,0:0:0:0:
320,192,66920,1,0,0:0:0:0:
64,192,67014,1,0,0:0:0:0:
448,192,67108,1,0,0:0:0:0:
192,192,67131,1,0,0:0:0:0:
64,192,67201,1,0,0:0:0:0:
320,192,67201,1,0,0:0:0:0:
448,192,67248,1,0,0:0:0:0:
192,192,67295,1,0,0:0:0:0:
64,192,67389,1,0,0:0:0:0:
448,192,67389,1,0,0:0:0:0:
320,192,67436,1,0,0:0:0:0:
64,192,67483,1,0,0:0:0:0:
192,192,67576,1,0,0:0:0:0:
448,192,67623,1,0,0:0:0:0:
320,192,67670,1,0,0:0:0:0:
64,192,67694,1,0,0:0:0:0:
64,192,67764,1,0,0:0:0:0:
192,192,67811,1,0,0:0:0:0:
320,192,67811,1,0,0:0:0:0:
448,192,67858,1,0,0:0:0:0:
64,192,67951,1,0,0:0:0:0:
320,192,67951,1,0,0:0:0:0:
192,192,68045,1,0,0:0:0:0:
448,192,68069,1,0,0:0:0:0:
64,192,68139,1,0,0:0:0:0:
192,192,68139,1,0,0:0:0:0:
320,192,68186,1,0,0:0:0:0:
64,192,68233,1,0,0:0:0:0:
448,192,68326,1,0,0:0:0:0:
320,192,68373,1,0,0:0:0:0:
192,192,68420,1,0,0:0:0:0:
64,192,68444,1,0,0:0:0:0:
320,192,68514,1,0,0:0:0:0:
64,192,68561,1,0,0:0:0:0:
192,192,68561,1,0,0:0:0:0:
448,192,68608,1,0,0:0:0:0:
192,192,68701,1,0,0:0:0:0:
320,192,68748,1,0,0:0:0:0:
64,192,68795,1,0,0:0:0:0:
192,192,68889,1,0,0:0:0:0:
448,192,68889,1,0,0:0:0:0:
64,192,68936,1,0,0:0:0:0:
320,192,68983,1,0,0:0:0:0:
64,192,69076,1,0,0:0:0:0:
192,192,69123,1,0,0:0:0:0:
320,192,69123,1,0,0:0:0:0:
448,192,69170,1,0,0:0:0:0:
320,192,69264,1,0,0:0:0:0:
64,192,69311,1,0,0:0:0:0:
192,192,69311,1,0,0:0:0:0:
448,192,69358,1,0,0:0:0:0:
192,192,69451,1,0,0:0:0:0:
64,192,69498,1,0,0:0:0:0:
448,192,69498,1,0,0:0:0:0:
320,192,69545,1,0,0:0:0:0:
64,192,69639,1,0,0:0:0:0:
448,192,69639,1,0,0:0:0:0:
192,192,69733,1,0,0:0:0:0:
320,192,69756,1,0,0:0:0:0:
64,192,69826,1,0,0:0:0:0:
192,192,69873,1,0,0:0:0:0:
448,192,69873,1,0,0:0:0:0:
320,192,69920,1,0,0:0:0:0:
64,192,70014,1,0,0:0:0:0:
192,192,70014,1,0,0:0:0:0:
448,192,70061,1,0,0:0:0:0:
64,192,70108,1,0,0:0:0:0:
320,192,70131,1,0,0:0:0:0:
192,192,70201,1,0,0:0:0:0:
448,192,70295,1,0,0:0:0:0:
64,192,70319,1,0,0:0:0:0:
320,192,70389,1,0,0:0:0:0:
448,192,70389,1,0,0:0:0:0:
320,192,70436,1,0,0:0:0:0:
192,192,70483,1,0,0:0:0:0:
64,192,70576,1,0,0:0:0:0:
448,192,70576,1,0,0:0:0:0:
320,192,70623,1,0,0:0:0:0:
448,192,70670,1,0,0:0:0:0:
192,192,70764,1,0,0:0:0:0:
64,192,70811,1,0,0:0:0:0:
320,192,70858,1,0,0:0:0:0:
192,192,70881,1,0,0:0:0:0:
448,192,70951,1,0,0:0:0:0:
320,192,70998,1,0,0:0:0:0:
448,192,70998,1,0,0:0:0:0:
64,192,71045,1,0,0:0:0:0:
64,192,71139,1,0,0:0:0:0:
192,192,71139,1,0,0:0:0:0:
448,192,71186,1,0,0:0:0:0:
320,192,71233,1,0,0:0:0:0:
64,192,71256,1,0,0:0:0:0:
192,192,71326,1,0,0:0:0:0:
192,192,71373,1,0,0:0:0:0:
448,192,71420,1,0,0:0:0:0:
64,192,71444,1,0,0:0:0:0:
320,192,71514,1,0,0:0:0:0:
320,192,71561,1,0,0:0:0:0:
192,192,71608,1,0,0:0:0:0:
448,192,71631,1,0,0:0:0:0:
64,192,71701,1,0,0:0:0:0:
192,192,71701,1,0,0:0:0:0:
320,192,71748,1,0,0:0:0:0:
448,192,71795,1,0,0:0:0:0:
192,192,71889,1,0,0:0:0:0:
448,192,71889,1,0,0:0:0:0:
64,192,71936,1,0,0:0:0:0:
320,192,71983,1,0,0:0:0:0:
192,192,72006,1,0,0:0:0:0:
448,192,72076,1,0,0:0:0:0:
320,192,72123,1,0,0:0:0:0:
64,192,72170,1,0,0:0:0:0:
192,192,72264,1,0,0:0:0:0:
64,192,72311,1,0,0:0:0:0:
448,192,72311,1,0,0:0:0:0:
320,192,72358,1,0,0:0:0:0:
64,192,72451,1,0,0:0:0:0:
192,192,72498,1,0,0:0:0:0:
448,192,72545,1,0,0:0:0:0:
320,192,72569,1,0,0:0:0:0:
64,192,72639,1,0,0:0:0:0:
448,192,72639,1,0,0:0:0:0:
192,192,72733,1,0,0:0:0:0:
448,192,72756,1,0,0:0:0:0:
320,192,72826,1,0,0:0:0:0:
64,192,72873,1,0,0:0:0:0:
448,192,72920,1,0,0:0:0:0:
320,192,72944,1,0,0:0:0:0:
192,192,73014,1,0,0:0:0:0:
64,192,73061,1,0,0:0:0:0:
192,192,73108,1,0,0:0:0:0:
448,192,73131,1,0,0:0:0:0:
320,192,73201,1,0,0:0:0:0:
64,192,73295,1,0,0:0:0:0:
192,192,73319,1,0,0:0:0:0:
320,192,73319,1,0,0:0:0:0:
64,192,73389,1,0,0:0:0:0:
448,192,73389,1,0,0:0:0:0:
320,192,73483,1,0,0:0:0:0:
448,192,73506,1,0,0:0:0:0:
192,192,73576,1,0,0:0:0:0:
64,192,73623,1,0,0:0:0:0:
448,192,73670,1,0,0:0:0:0:
320,192,73694,1,0,0:0:0:0:
64,192,73764,1,0,0:0:0:0:
192,192,73858,1,0,0:0:0:0:
448,192,73881,1,0,0:0:0:0:
192,192,73951,1,0,0:0:0:0:
320,192,73951,1,0,0:0:0:0:
64,192,73998,1,0,0:0:0:0:
448,192,74045,1,0,0:0:0:0:
64,192,74139,1,0,0:0:0:0:
192,192,74139,1,0,0:0:0:0:
320,192,74139,1,0,0:0:0:0:
448,192,74139,1,0,0:0:0:0:
320,192,74186,1,0,0:0:0:0:
64,192,74233,1,0,0:0:0:0:
192,192,74326,1,0,0:0:0:0:
64,192,74373,1,0,0:0:0:0:
448,192,74373,1,0,0:0:0:0:
320,192,74420,1,0,0:0:0:0:
64,192,74514,1,0,0:0:0:0:
192,192,74561,1,0,0:0:0:0:
320,192,74561,1,0,0:0:0:0:
448,192,74608,1,0,0:0:0:0:
320,192,74701,1,0,0:0:0:0:
64,192,74748,1,0,0:0:0:0:
448,192,74748,1,0,0:0:0:0:
192,192,74795,1,0,0:0:0:0:
64,192,74889,1,0,0:0:0:0:
448,192,74889,1,0,0:0:0:0:
320,192,74936,1,0,0:0:0:0:
192,192,74983,1,0,0:0:0:0:
320,192,75076,1,0,0:0:0:0:
448,192,75123,1,0,0:0:0:0:
64,192,75170,1,0,0:0:0:0:
192,192,75194,1,0,0:0:0:0:
320,192,75194,1,0,0:0:0:0:
448,192,75264,1,0,0:0:0:0:
320,192,75358,1,0,0:0:0:0:
64,192,75381,1,0,0:0:0:0:
192,192,75451,1,0,0:0:0:0:
448,192,75498,1,0,0:0:0:0:
64,192,75545,1,0,0:0:0:0:
320,192,75569,1,0,0:0:0:0:
192,192,75639,1,0,0:0:0:0:
320,192,75639,1,0,0:0:0:0:
64,192,75686,1,0,0:0:0:0:
448,192,75733,1,0,0:0:0:0:
64,192,75826,1,0,0:0:0:0:
192,192,75873,1,0,0:0:0:0:
320,192,75920,1,0,0:0:0:0:
448,192,75944,1,0,0:0:0:0:
192,192,76014,1,0,0:0:0:0:
320,192,76061,1,0,0:0:0:0:
64,192,76108,1,0,0:0:0:0:
448,192,76131,1,0,0:0:0:0:
64,192,76201,1,0,0:0:0:0:
192,192,76248,1,0,0:0:0:0:
448,192,76295,1,0,0:0:0:0:
320,192,76319,1,0,0:0:0:0:
192,192,76389,1,0,0:0:0:0:
320,192,76389,1,0,0:0:0:0:
64,192,76436,1,0,0:0:0:0:
448,192,76483,1,0,0:0:0:0:
192,192,76576,1,0,0:0:0:0:
320,192,76670,1,0,0:0:0:0:
64,192,76694,1,0,0:0:0:0:
448,192,76694,1,0,0:0:0:0:
64,192,76764,1,0,0:0:0:0:
320,192,76811,1,0,0:0:0:0:
192,192,76858,1,0,0:0:0:0:
64,192,76951,1,0,0:0:0:0:
448,192,76951,1,0,0:0:0:0:
192,192,76998,1,0,0:0:0:0:
320,192,77045,1,0,0:0:0:0:
64,192,77139,1,0,0:0:0:0:
448,192,77139,1,0,0:0:0:0:
192,192,77233,1,0,0:0:0:0:
64,192,77326,1,0,0:0:0:0:
320,192,77326,1,0,0:0:0:0:
448,192,77373,1,0,0:0:0:0:
64,192,77420,1,0,0:0:0:0:
192,192,77444,1,0,0:0:0:0:
448,192,77514,1,0,0:0:0:0:
320,192,77608,1,0,0:0:0:0:
64,192,77631,1,0,0:0:0:0:
192,192,77701,1,0,0:0:0:0:
448,192,77748,1,0,0:0:0:0:
64,192,77795,1,0,0:0:0:0:
320,192,77819,1,0,0:0:0:0:
64,192,77889,1,0,0:0:0:0:
448,192,77889,1,0,0:0:0:0:
320,192,77936,1,0,0:0:0:0:
192,192,77983,1,0,0:0:0:0:
320,192,78076,1,0,0:0:0:0:
64,192,78123,1,0,0:0:0:0:
448,192,78170,1,0,0:0:0:0:
320,192,78194,1,0,0:0:0:0:
192,192,78264,1,0,0:0:0:0:
64,192,78311,1,0,0:0:0:0:
320,192,78358,1,0,0:0:0:0:
448,192,78381,1,0,0:0:0:0:
64,192,78451,1,0,0:0:0:0:
192,192,78545,1,0,0:0:0:0:
448,192,78569,1,0,0:0:0:0:
192,192,78639,1,0,0:0:0:0:
320,192,78639,1,0,0:0:0:0:
64,192,78686,1,0,0:0:0:0:
448,192,78733,1,0,0:0:0:0:
64,192,78826,1,0,0:0:0:0:
192,192,78873,1,0,0:0:0:0:
320,192,78920,1,0,0:0:0:0:
448,192,78944,1,0,0:0:0:0:
192,192,79014,1,0,0:0:0:0:
64,192,79108,1,0,0:0:0:0:
320,192,79131,1,0,0:0:0:0:
448,192,79201,1,0,0:0:0:0:
192,192,79295,1,0,0:0:0:0:
64,192,79319,1,0,0:0:0:0:
192,192,79389,1,0,0:0:0:0:
320,192,79389,1,0,0:0:0:0:
448,192,79483,1,0,0:0:0:0:
64,192,79506,1,0,0:0:0:0:
192,192,79576,1,0,0:0:0:0:
320,192,79623,1,0,0:0:0:0:
64,192,79670,1,0,0:0:0:0:
448,192,79694,1,0,0:0:0:0:
320,192,79764,1,0,0:0:0:0:
192,192,79858,1,0,0:0:0:0:
64,192,79881,1,0,0:0:0:0:
448,192,79951,1,0,0:0:0:0:
192,192,79998,1,0,0:0:0:0:
320,192,79998,1,0,0:0:0:0:
64,192,80045,1,0,0:0:0:0:
64,192,80139,1,0,0:0:0:0:
192,192,80139,1,0,0:0:0:0:
448,192,80186,1,0,0:0:0:0:
320,192,80233,1,0,0:0:0:0:
448,192,80326,1,0,0:0:0:0:
64,192,80373,1,0,0:0:0:0:
192,192,80420,1,0,0:0:0:0:
320,192,80444,1,0,0:0:0:0:
64,192,80514,1,0,0:0:0:0:
448,192,80561,1,0,0:0:0:0:
320,192,80608,1,0,0:0:0:0:
192,192,80701,1,0,0:0:0:0:
64,192,80748,1,0,0:0:0:0:
448,192,80795,1,0,0:0:0:0:
320,192,80819,1,0,0:0:0:0:
64,192,80889,1,0,0:0:0:0:
448,192,80889,1,0,0:0:0:0:
192,192,80983,1,0,0:0:0:0:
448,192,81006,1,0,0:0:0:0:
320,192,81076,1,0,0:0:0:0:
64,192,81170,1,0,0:0:0:0:
192,192,81194,1,0,0:0:0:0:
448,192,81264,1,0,0:0:0:0:
320,192,81358,1,0,0:0:0:0:
64,192,81381,1,0,0:0:0:0:
448,192,81381,1,0,0:0:0:0:
192,192,81451,1,0,0:0:0:0:
448,192,81545,1,0,0:0:0:0:
320,192,81569,1,0,0:0:0:0:
64,192,81639,1,0,0:0:0:0:
448,192,81639,1,0,0:0:0:0:
192,192,81733,1,0,0:0:0:0:
448,192,81756,1,0,0:0:0:0:
320,192,81826,1,0,0:0:0:0:
448,192,81873,1,0,0:0:0:0:
64,192,81920,1,0,0:0:0:0:
192,192,81944,1,0,0:0:0:0:
448,192,82014,1,0,0:0:0:0:
192,192,82061,1,0,0:0:0:0:
320,192,82061,1,0,0:0:0:0:
448,192,82108,1,0,0:0:0:0:
64,192,82131,1,0,0:0:0:0:
320,192,82201,1,0,0:0:0:0:
192,192,82295,1,0,0:0:0:0:
64,192,82389,1,0,0:0:0:0:
448,192,82389,1,0,0:0:0:0:
320,192,82436,1,0,0:0:0:0:
192,192,82483,1,0,0:0:0:0:
320,192,82576,1,0,0:0:0:0:
192,192,82623,1,0,0:0:0:0:
448,192,82623,1,0,0:0:0:0:
64,192,82670,1,0,0:0:0:0:
448,192,82764,1,0,0:0:0:0:
320,192,82811,1,0,0:0:0:0:
192,192,82858,1,0,0:0:0:0:
64,192,82881,1,0,0:0:0:0:
320,192,82951,1,0,0:0:0:0:
64,192,82998,1,0,0:0:0:0:
448,192,83045,1,0,0:0:0:0:
192,192,83069,1,0,0:0:0:0:
192,192,83139,1,0,0:0:0:0:
448,192,83139,1,0,0:0:0:0:
320,192,83186,1,0,0:0:0:0:
64,192,83233,1,0,0:0:0:0:
192,192,83326,1,0,0:0:0:0:
448,192,83326,1,0,0:0:0:0:
448,192,83373,1,0,0:0:0:0:
320,192,83420,1,0,0:0:0:0:
64,192,83514,1,0,0:0:0:0:
192,192,83561,1,0,0:0:0:0:
320,192,83561,1,0,0:0:0:0:
448,192,83608,1,0,0:0:0:0:
64,192,83631,1,0,0:0:0:0:
320,192,83701,1,0,0:0:0:0:
192,192,83795,1,0,0:0:0:0:
448,192,83819,1,0,0:0:0:0:
64,192,83889,1,0,0:0:0:0:
192,192,83889,1,0,0:0:0:0:
320,192,83936,1,0,0:0:0:0:
64,192,83983,1,0,0:0:0:0:
448,192,84006,1,0,0:0:0:0:
320,192,84076,1,0,0:0:0:0:
64,192,84123,1,0,0:0:0:0:
192,192,84170,1,0,0:0:0:0:
448,192,84264,1,0,0:0:0:0:
320,192,84311,1,0,0:0:0:0:
64,192,84358,1,0,0:0:0:0:
192,192,84451,1,0,0:0:0:0:
448,192,84498,1,0,0:0:0:0:
320,192,84545,1,0,0:0:0:0:
64,192,84639,1,0,0:0:0:0:
448,192,84639,1,0,0:0:0:0:
192,192,84686,1,0,0:0:0:0:
448,192,84733,1,0,0:0:0:0:
320,192,84756,1,0,0:0:0:0:
192,192,84826,1,0,0:0:0:0:
64,192,84873,1,0,0:0:0:0:
320,192,84920,1,0,0:0:0:0:
448,192,84944,1,0,0:0:0:0:
64,192,85014,1,0,0:0:0:0:
192,192,85014,1,0,0:0:0:0:
320,192,85061,1,0,0:0:0:0:
192,192,85108,1,0,0:0:0:0:
448,192,85131,1,0,0:0:0:0:
448,192,85201,1,0,0:0:0:0:
64,192,85248,1,0,0:0:0:0:
320,192,85295,1,0,0:0:0:0:
192,192,85319,1,0,0:0:0:0:
64,192,85389,1,0,0:0:0:0:
192,192,85389,1,0,0:0:0:0:
320,192,85436,1,0,0:0:0:0:
448,192,85436,1,0,0:0:0:0:
64,192,85483,1,0,0:0:0:0:
320,192,85576,1,0,0:0:0:0:
64,192,85623,1,0,0:0:0:0:
448,192,85623,1,0,0:0:0:0:
192,192,85670,1,0,0:0:0:0:
448,192,85764,1,0,0:0:0:0:
192,192,85811,1,0,0:0:0:0:
320,192,85811,1,0,0:0:0:0:
64,192,85858,1,0,0:0:0:0:
192,192,85951,1,0,0:0:0:0:
64,192,85998,1,0,0:0:0:0:
448,192,85998,1,0,0:0:0:0:
320,192,86045,1,0,0:0:0:0:
64,192,86139,1,0,0:0:0:0:
192,192,86139,1,0,0:0:0:0:
320,192,86139,1,0,0:0:0:0:
448,192,86139,1,0,0:0:0:0:
64,0,86420,128,0,86608:1:0:0:0:
192,0,86420,128,0,86608:1:0:0:0:
320,0,86420,128,0,86608:1:0:0:0:
448,0,86420,128,0,86608:1:0:0:0:
64,192,86701,1,0,0:0:0:0:
192,192,86701,1,0,0:0:0:0:
320,192,86701,1,0,0:0:0:0:
448,192,86701,1,0,0:0:0:0:
64,0,86795,128,0,86983:1:0:0:0:
192,0,86795,128,0,86983:1:0:0:0:
320,0,86795,128,0,86983:1:0:0:0:
448,0,86795,128,0,86983:1:0:0:0:
64,192,87076,1,0,0:0:0:0:
192,192,87076,1,0,0:0:0:0:
320,192,87076,1,0,0:0:0:0:
448,192,87076,1,0,0:0:0:0:
64,0,87170,128,0,87358:1:0:0:0:
192,0,87170,128,0,87358:1:0:0:0:
320,0,87170,128,0,87358:1:0:0:0:
448,0,87170,128,0,87358:1:0:0:0:
64,192,87451,1,0,0:0:0:0:
192,192,87451,1,0,0:0:0:0:
320,192,87451,1,0,0:0:0:0:
448,192,87451,1,0,0:0:0:0:
64,0,87545,128,0,87733:1:0:0:0:
192,0,87545,128,0,87733:1:0:0:0:
320,0,87545,128,0,87733:1:0:0:0:
448,0,87545,128,0,87733:1:0:0:0:
448,192,87826,1,0,0:0:0:0:
64,0,87826,128,0,88061:1:0:0:0:
320,192,87967,1,0,0:0:0:0:
192,0,88061,128,0,88248:1:0:0:0:
448,192,88155,1,0,0:0:0:0:
448,192,88248,1,0,0:0:0:0:
320,0,88248,128,0,88436:1:0:0:0:
64,192,88342,1,0,0:0:0:0:
64,192,88436,1,0,0:0:0:0:
448,0,88436,128,0,88623:1:0:0:0:
192,192,88530,1,0,0:0:0:0:
192,0,88623,128,0,88811:1:0:0:0:
320,192,88717,1,0,0:0:0:0:
320,192,88811,1,0,0:0:0:0:
64,0,88811,128,0,88998:1:0:0:0:
448,192,88905,1,0,0:0:0:0:
192,0,88998,128,0,89186:1:0:0:0:
320,192,89092,1,0,0:0:0:0:
64,192,89186,1,0,0:0:0:0:
320,0,89186,128,0,89373:1:0:0:0:
448,192,89280,1,0,0:0:0:0:
64,192,89373,1,0,0:0:0:0:
448,0,89373,128,0,89561:1:0:0:0:
64,192,89561,1,0,0:0:0:0:
192,0,89561,128,0,89748:1:0:0:0:
320,192,89655,1,0,0:0:0:0:
64,0,89748,128,0,89936:1:0:0:0:
320,192,89842,1,0,0:0:0:0:
448,192,89936,1,0,0:0:0:0:
320,0,89936,128,0,90123:1:0:0:0:
448,192,90030,1,0,0:0:0:0:
192,0,90123,128,0,90311:1:0:0:0:
64,192,90217,1,0,0:0:0:0:
448,0,90311,128,0,90498:1:0:0:0:
320,192,90405,1,0,0:0:0:0:
64,0,90498,128,0,90686:1:0:0:0:
192,192,90592,1,0,0:0:0:0:
192,0,90686,128,0,90873:1:0:0:0:
320,192,90780,1,0,0:0:0:0:
320,192,90873,1,0,0:0:0:0:
448,0,90873,128,0,91061:1:0:0:0:
64,192,90967,1,0,0:0:0:0:
192,0,91061,128,0,91248:1:0:0:0:
64,192,91155,1,0,0:0:0:0:
320,0,91248,128,0,91436:1:0:0:0:
448,192,91342,1,0,0:0:0:0:
64,192,91436,1,0,0:0:0:0:
448,0,91436,128,0,91623:1:0:0:0:
192,192,91530,1,0,0:0:0:0:
320,192,91623,1,0,0:0:0:0:
192,0,91623,128,0,91811:1:0:0:0:
64,192,91717,1,0,0:0:0:0:
448,192,91811,1,0,0:0:0:0:
64,0,91811,128,0,91998:1:0:0:0:
320,192,91905,1,0,0:0:0:0:
320,0,91998,128,0,92186:1:0:0:0:
192,192,92092,1,0,0:0:0:0:
448,192,92186,1,0,0:0:0:0:
192,0,92186,128,0,92373:1:0:0:0:
64,192,92280,1,0,0:0:0:0:
320,192,92373,1,0,0:0:0:0:
448,192,92373,1,0,0:0:0:0:
64,0,92373,128,0,93686:1:0:0:0:
320,192,92467,1,0,0:0:0:0:
448,192,92467,1,0,0:0:0:0:
192,192,92561,1,0,0:0:0:0:
320,192,92561,1,0,0:0:0:0:
192,192,92655,1,0,0:0:0:0:
320,192,92655,1,0,0:0:0:0:
320,192,92748,1,0,0:0:0:0:
448,192,92748,1,0,0:0:0:0:
320,192,92842,1,0,0:0:0:0:
448,192,92842,1,0,0:0:0:0:
192,192,92936,1,0,0:0:0:0:
320,192,92936,1,0,0:0:0:0:
192,192,93030,1,0,0:0:0:0:
320,192,93030,1,0,0:0:0:0:
320,192,93123,1,0,0:0:0:0:
448,192,93123,1,0,0:0:0:0:
320,192,93217,1,0,0:0:0:0:
448,192,93217,1,0,0:0:0:0:
192,192,93311,1,0,0:0:0:0:
320,192,93311,1,0,0:0:0:0:
192,192,93405,1,0,0:0:0:0:
320,192,93405,1,0,0:0:0:0:
320,192,93498,1,0,0:0:0:0:
448,192,93498,1,0,0:0:0:0:
320,192,93592,1,0,0:0:0:0:
448,192,93592,1,0,0:0:0:0:
192,192,93686,1,0,0:0:0:0:
320,192,93686,1,0,0:0:0:0:
192,192,93780,1,0,0:0:0:0:
320,192,93780,1,0,0:0:0:0:
192,192,93873,1,0,0:0:0:0:
64,0,93873,128,0,94061:1:0:0:0:
448,192,93967,1,0,0:0:0:0:
320,0,94061,128,0,94248:1:0:0:0:
192,192,94155,1,0,0:0:0:0:
192,0,94248,128,0,94436:1:0:0:0:
64,192,94342,1,0,0:0:0:0:
64,192,94436,1,0,0:0:0:0:
448,0,94436,128,0,94623:1:0:0:0:
320,192,94530,1,0,0:0:0:0:
320,0,94623,128,0,94811:1:0:0:0:
192,192,94717,1,0,0:0:0:0:
64,192,94811,1,0,0:0:0:0:
192,0,94811,128,0,94998:1:0:0:0:
448,192,94905,1,0,0:0:0:0:
64,0,94998,128,0,95186:1:0:0:0:
448,192,95092,1,0,0:0:0:0:
192,192,95186,1,0,0:0:0:0:
448,0,95186,128,0,95373:1:0:0:0:
192,192,95373,1,0,0:0:0:0:
320,0,95373,128,0,95561:1:0:0:0:
64,192,95467,1,0,0:0:0:0:
448,0,95561,128,0,95748:1:0:0:0:
192,192,95655,1,0,0:0:0:0:
192,0,95748,128,0,95936:1:0:0:0:
320,192,95842,1,0,0:0:0:0:
448,192,95936,1,0,0:0:0:0:
64,0,95936,128,0,96123:1:0:0:0:
448,192,96030,1,0,0:0:0:0:
320,0,96123,128,0,96311:1:0:0:0:
192,192,96217,1,0,0:0:0:0:
192,0,96311,128,0,96498:1:0:0:0:
64,192,96405,1,0,0:0:0:0:
448,192,96405,1,0,0:0:0:0:
448,0,96498,128,0,96686:1:0:0:0:
64,192,96592,1,0,0:0:0:0:
192,192,96686,1,0,0:0:0:0:
64,0,96686,128,0,96873:1:0:0:0:
320,192,96780,1,0,0:0:0:0:
192,192,96873,1,0,0:0:0:0:
320,0,96873,128,0,97061:1:0:0:0:
448,192,96967,1,0,0:0:0:0:
192,192,97061,1,0,0:0:0:0:
64,0,97061,128,0,97248:1:0:0:0:
192,192,97155,1,0,0:0:0:0:
448,0,97248,128,0,97436:1:0:0:0:
320,192,97342,1,0,0:0:0:0:
64,192,97436,1,0,0:0:0:0:
320,0,97436,128,0,97623:1:0:0:0:
192,192,97530,1,0,0:0:0:0:
192,0,97623,128,0,97811:1:0:0:0:
448,192,97717,1,0,0:0:0:0:
320,192,97811,1,0,0:0:0:0:
64,0,97811,128,0,97998:1:0:0:0:
192,192,97905,1,0,0:0:0:0:
448,0,97998,128,0,98186:1:0:0:0:
192,192,98092,1,0,0:0:0:0:
320,192,98186,1,0,0:0:0:0:
64,0,98186,128,0,98373:1:0:0:0:
448,192,98280,1,0,0:0:0:0:
192,192,98373,1,0,0:0:0:0:
320,192,98373,1,0,0:0:0:0:
448,0,98373,128,0,99686:1:0:0:0:
192,192,98467,1,0,0:0:0:0:
320,192,98467,1,0,0:0:0:0:
64,192,98561,1,0,0:0:0:0:
192,192,98561,1,0,0:0:0:0:
64,192,98655,1,0,0:0:0:0:
192,192,98655,1,0,0:0:0:0:
192,192,98748,1,0,0:0:0:0:
320,192,98748,1,0,0:0:0:0:
192,192,98842,1,0,0:0:0:0:
320,192,98842,1,0,0:0:0:0:
64,192,98936,1,0,0:0:0:0:
192,192,98936,1,0,0:0:0:0:
64,192,99030,1,0,0:0:0:0:
192,192,99030,1,0,0:0:0:0:
192,192,99123,1,0,0:0:0:0:
320,192,99123,1,0,0:0:0:0:
192,192,99217,1,0,0:0:0:0:
320,192,99217,1,0,0:0:0:0:
64,192,99311,1,0,0:0:0:0:
192,192,99311,1,0,0:0:0:0:
64,192,99405,1,0,0:0:0:0:
192,192,99405,1,0,0:0:0:0:
192,192,99498,1,0,0:0:0:0:
320,192,99498,1,0,0:0:0:0:
192,192,99592,1,0,0:0:0:0:
320,192,99592,1,0,0:0:0:0:
64,192,99686,1,0,0:0:0:0:
192,192,99686,1,0,0:0:0:0:
64,192,99780,1,0,0:0:0:0:
192,192,99780,1,0,0:0:0:0:
64,192,99873,1,0,0:0:0:0:
448,192,99873,1,0,0:0:0:0:
320,192,99967,1,0,0:0:0:0:
64,0,100061,128,0,100248:1:0:0:0:
192,192,100155,1,0,0:0:0:0:
448,192,100248,1,0,0:0:0:0:
320,192,100342,1,0,0:0:0:0:
192,0,100436,128,0,100623:1:0:0:0:
64,192,100530,1,0,0:0:0:0:
320,192,100623,1,0,0:0:0:0:
448,192,100717,1,0,0:0:0:0:
64,192,100811,1,0,0:0:0:0:
448,192,100811,1,0,0:0:0:0:
192,192,100905,1,0,0:0:0:0:
192,192,100998,1,0,0:0:0:0:
320,192,100998,1,0,0:0:0:0:
448,192,101092,1,0,0:0:0:0:
64,192,101186,1,0,0:0:0:0:
192,192,101186,1,0,0:0:0:0:
192,192,101280,1,0,0:0:0:0:
320,192,101280,1,0,0:0:0:0:
64,0,101373,128,0,101561:1:0:0:0:
192,0,101373,128,0,101561:1:0:0:0:
448,192,101467,1,0,0:0:0:0:
448,0,101561,128,0,101748:1:0:0:0:
320,192,101655,1,0,0:0:0:0:
320,192,101748,1,0,0:0:0:0:
192,192,101842,1,0,0:0:0:0:
64,192,101936,1,0,0:0:0:0:
192,192,101936,1,0,0:0:0:0:
320,192,102030,1,0,0:0:0:0:
64,192,102123,1,0,0:0:0:0:
448,192,102123,1,0,0:0:0:0:
192,192,102217,1,0,0:0:0:0:
448,192,102311,1,0,0:0:0:0:
320,0,102311,128,0,102498:1:0:0:0:
64,0,102498,128,0,102686:1:0:0:0:
448,0,102498,128,0,102686:1:0:0:0:
192,192,102592,1,0,0:0:0:0:
192,192,102686,1,0,0:0:0:0:
448,192,102780,1,0,0:0:0:0:
192,192,102873,1,0,0:0:0:0:
320,0,102873,128,0,103061:1:0:0:0:
64,192,102967,1,0,0:0:0:0:
448,192,103061,1,0,0:0:0:0:
192,192,103155,1,0,0:0:0:0:
192,192,103248,1,0,0:0:0:0:
320,192,103248,1,0,0:0:0:0:
448,192,103342,1,0,0:0:0:0:
192,192,103436,1,0,0:0:0:0:
64,0,103436,128,0,103623:1:0:0:0:
448,192,103530,1,0,0:0:0:0:
320,192,103623,1,0,0:0:0:0:
192,192,103717,1,0,0:0:0:0:
192,192,103811,1,0,0:0:0:0:
448,192,103811,1,0,0:0:0:0:
64,192,103905,1,0,0:0:0:0:
64,192,103998,1,0,0:0:0:0:
320,192,103998,1,0,0:0:0:0:
192,192,104092,1,0,0:0:0:0:
448,192,104092,1,0,0:0:0:0:
320,192,104186,1,0,0:0:0:0:
448,192,104186,1,0,0:0:0:0:
64,192,104280,1,0,0:0:0:0:
192,192,104280,1,0,0:0:0:0:
64,192,104373,1,0,0:0:0:0:
448,192,104373,1,0,0:0:0:0:
320,192,104467,1,0,0:0:0:0:
64,0,104561,128,0,104748:1:0:0:0:
192,0,104561,128,0,104748:1:0:0:0:
320,192,104748,1,0,0:0:0:0:
448,192,104842,1,0,0:0:0:0:
448,192,104936,1,0,0:0:0:0:
320,192,105030,1,0,0:0:0:0:
192,192,105123,1,0,0:0:0:0:
64,0,105123,128,0,105311:1:0:0:0:
192,192,105217,1,0,0:0:0:0:
448,192,105311,1,0,0:0:0:0:
320,192,105405,1,0,0:0:0:0:
192,192,105498,1,0,0:0:0:0:
320,192,105498,1,0,0:0:0:0:
64,192,105592,1,0,0:0:0:0:
64,0,105686,128,0,106061:1:0:0:0:
192,0,105686,128,0,106061:1:0:0:0:
320,0,105686,128,0,106061:1:0:0:0:
448,0,105686,128,0,106061:1:0:0:0:
64,192,106248,1,0,0:0:0:0:
192,192,106248,1,0,0:0:0:0:
320,192,106248,1,0,0:0:0:0:
448,192,106248,1,0,0:0:0:0:
64,0,106342,128,0,106436:1:0:0:0:
192,0,106342,128,0,106436:1:0:0:0:
320,0,106342,128,0,106436:1:0:0:0:
448,0,106342,128,0,106436:1:0:0:0:
64,192,107373,1,0,0:0:0:0:
192,192,107373,1,0,0:0:0:0:
320,0,107373,128,0,110655:1:0:0:0:
448,0,107373,128,0,110655:1:0:0:0:
64,0,107842,128,0,107936:1:0:0:0:
192,0,107936,128,0,108030:1:0:0:0:
64,0,108030,128,0,108123:1:0:0:0:
192,0,108123,128,0,108217:1:0:0:0:
64,0,108217,128,0,108311:1:0:0:0:
192,192,108311,1,0,0:0:0:0:
192,0,108405,128,0,108498:1:0:0:0:
64,0,108498,128,0,108592:1:0:0:0:
192,0,108592,128,0,108686:1:0:0:0:
64,192,108686,1,0,0:0:0:0:
64,0,108780,128,0,108873:1:0:0:0:
192,192,108873,1,0,0:0:0:0:
192,0,108967,128,0,109061:1:0:0:0:
64,0,109061,128,0,109155:1:0:0:0:
192,0,109155,128,0,109248:1:0:0:0:
64,192,109248,1,0,0:0:0:0:
64,0,109342,128,0,109436:1:0:0:0:
192,0,109436,128,0,109530:1:0:0:0:
64,0,109530,128,0,109623:1:0:0:0:
192,192,109623,1,0,0:0:0:0:
192,0,109717,128,0,109811:1:0:0:0:
64,0,109811,128,0,109905:1:0:0:0:
192,0,109905,128,0,109998:1:0:0:0:
64,192,109998,1,0,0:0:0:0:
64,0,110092,128,0,110186:1:0:0:0:
192,0,110186,128,0,110280:1:0:0:0:
64,0,110280,128,0,110373:1:0:0:0:
192,192,110373,1,0,0:0:0:0:
192,0,110467,128,0,110561:1:0:0:0:
64,192,110561,1,0,0:0:0:0:
64,192,110655,1,0,0:0:0:0:
64,192,110748,1,0,0:0:0:0:
192,192,110748,1,0,0:0:0:0:
320,192,110748,1,0,0:0:0:0:
448,192,110748,1,0,0:0:0:0:
64,0,110889,128,0,111076:1:0:0:0:
192,0,110889,128,0,111076:1:0:0:0:
320,0,110889,128,0,111076:1:0:0:0:
448,0,110889,128,0,111076:1:0:0:0:
64,192,111170,1,0,0:0:0:0:
192,192,111170,1,0,0:0:0:0:
320,192,111170,1,0,0:0:0:0:
448,192,111170,1,0,0:0:0:0:
64,0,111264,128,0,111451:1:0:0:0:
192,0,111264,128,0,111451:1:0:0:0:
320,0,111264,128,0,111451:1:0:0:0:
448,0,111264,128,0,111451:1:0:0:0:
64,192,111545,1,0,0:0:0:0:
192,192,111545,1,0,0:0:0:0:
320,192,111545,1,0,0:0:0:0:
448,192,111545,1,0,0:0:0:0:
64,0,111639,128,0,111826:1:0:0:0:
192,0,111639,128,0,111826:1:0:0:0:
320,0,111639,128,0,111826:1:0:0:0:
448,0,111639,128,0,111826:1:0:0:0:
64,192,111920,1,0,0:0:0:0:
192,192,111920,1,0,0:0:0:0:
320,192,111920,1,0,0:0:0:0:
448,192,111920,1,0,0:0:0:0:
64,0,112014,128,0,112201:1:0:0:0:
192,0,112014,128,0,112201:1:0:0:0:
320,0,112014,128,0,112201:1:0:0:0:
448,0,112014,128,0,112201:1:0:0:0:
448,192,112295,1,0,0:0:0:0:
64,0,112295,128,0,113795:1:0:0:0:
320,192,112342,1,0,0:0:0:0:
192,192,112389,1,0,0:0:0:0:
448,192,112436,1,0,0:0:0:0:
320,192,112483,1,0,0:0:0:0:
192,192,112530,1,0,0:0:0:0:
448,192,112576,1,0,0:0:0:0:
320,192,112623,1,0,0:0:0:0:
192,192,112670,1,0,0:0:0:0:
448,192,112717,1,0,0:0:0:0:
320,192,112764,1,0,0:0:0:0:
192,192,112811,1,0,0:0:0:0:
448,192,112858,1,0,0:0:0:0:
320,192,112905,1,0,0:0:0:0:
192,192,112951,1,0,0:0:0:0:
448,192,112998,1,0,0:0:0:0:
320,192,113045,1,0,0:0:0:0:
192,192,113092,1,0,0:0:0:0:
448,192,113139,1,0,0:0:0:0:
320,192,113186,1,0,0:0:0:0:
192,192,113233,1,0,0:0:0:0:
448,192,113280,1,0,0:0:0:0:
320,192,113326,1,0,0:0:0:0:
192,192,113373,1,0,0:0:0:0:
448,192,113420,1,0,0:0:0:0:
320,192,113467,1,0,0:0:0:0:
192,192,113514,1,0,0:0:0:0:
448,192,113561,1,0,0:0:0:0:
320,192,113608,1,0,0:0:0:0:
192,192,113655,1,0,0:0:0:0:
320,192,113701,1,0,0:0:0:0:
192,192,113748,1,0,0:0:0:0:
320,192,113795,1,0,0:0:0:0:
448,0,113795,128,0,115295:1:0:0:0:
192,192,113842,1,0,0:0:0:0:
64,192,113889,1,0,0:0:0:0:
320,192,113936,1,0,0:0:0:0:
192,192,113983,1,0,0:0:0:0:
320,192,114030,1,0,0:0:0:0:
64,192,114076,1,0,0:0:0:0:
192,192,114123,1,0,0:0:0:0:
320,192,114170,1,0,0:0:0:0:
64,192,114217,1,0,0:0:0:0:
192,192,114264,1,0,0:0:0:0:
320,192,114311,1,0,0:0:0:0:
64,192,114358,1,0,0:0:0:0:
192,192,114405,1,0,0:0:0:0:
320,192,114451,1,0,0:0:0:0:
64,192,114498,1,0,0:0:0:0:
192,192,114545,1,0,0:0:0:0:
320,192,114592,1,0,0:0:0:0:
64,192,114639,1,0,0:0:0:0:
192,192,114686,1,0,0:0:0:0:
320,192,114733,1,0,0:0:0:0:
64,192,114780,1,0,0:0:0:0:
192,192,114826,1,0,0:0:0:0:
320,192,114873,1,0,0:0:0:0:
64,192,114920,1,0,0:0:0:0:
192,192,114967,1,0,0:0:0:0:
320,192,115014,1,0,0:0:0:0:
64,192,115061,1,0,0:0:0:0:
192,192,115108,1,0,0:0:0:0:
320,192,115155,1,0,0:0:0:0:
192,192,115201,1,0,0:0:0:0:
64,192,115248,1,0,0:0:0:0:
192,192,115295,1,0,0:0:0:0:
320,0,115295,128,0,116795:1:0:0:0:
448,192,115342,1,0,0:0:0:0:
192,192,115389,1,0,0:0:0:0:
64,192,115436,1,0,0:0:0:0:
448,192,115483,1,0,0:0:0:0:
192,192,115530,1,0,0:0:0:0:
64,192,115576,1,0,0:0:0:0:
448,192,115623,1,0,0:0:0:0:
192,192,115670,1,0,0:0:0:0:
64,192,115717,1,0,0:0:0:0:
448,192,115764,1,0,0:0:0:0:
192,192,115811,1,0,0:0:0:0:
64,192,115858,1,0,0:0:0:0:
448,192,115905,1,0,0:0:0:0:
192,192,115951,1,0,0:0:0:0:
64,192,115998,1,0,0:0:0:0:
448,192,116045,1,0,0:0:0:0:
192,192,116092,1,0,0:0:0:0:
64,192,116139,1,0,0:0:0:0:
448,192,116186,1,0,0:0:0:0:
192,192,116233,1,0,0:0:0:0:
64,192,116280,1,0,0:0:0:0:
448,192,116326,1,0,0:0:0:0:
192,192,116373,1,0,0:0:0:0:
64,192,116420,1,0,0:0:0:0:
448,192,116467,1,0,0:0:0:0:
192,192,116514,1,0,0:0:0:0:
64,192,116561,1,0,0:0:0:0:
448,192,116608,1,0,0:0:0:0:
192,192,116655,1,0,0:0:0:0:
64,192,116701,1,0,0:0:0:0:
448,192,116748,1,0,0:0:0:0:
64,192,116795,1,0,0:0:0:0:
192,0,116795,128,0,118295:1:0:0:0:
320,192,116842,1,0,0:0:0:0:
448,192,116889,1,0,0:0:0:0:
320,192,116936,1,0,0:0:0:0:
64,192,116983,1,0,0:0:0:0:
448,192,117030,1,0,0:0:0:0:
320,192,117076,1,0,0:0:0:0:
64,192,117123,1,0,0:0:0:0:
448,192,117170,1,0,0:0:0:0:
320,192,117217,1,0,0:0:0:0:
448,192,117264,1,0,0:0:0:0:
64,192,117311,1,0,0:0:0:0:
64,192,117358,1,0,0:0:0:0:
320,192,117405,1,0,0:0:0:0:
64,192,117451,1,0,0:0:0:0:
448,192,117498,1,0,0:0:0:0:
320,192,117545,1,0,0:0:0:0:
64,192,117592,1,0,0:0:0:0:
448,192,117639,1,0,0:0:0:0:
320,192,117686,1,0,0:0:0:0:
448,192,117733,1,0,0:0:0:0:
320,192,117780,1,0,0:0:0:0:
448,192,117826,1,0,0:0:0:0:
64,192,117873,1,0,0:0:0:0:
320,192,117920,1,0,0:0:0:0:
64,192,117967,1,0,0:0:0:0:
448,192,118014,1,0,0:0:0:0:
320,192,118061,1,0,0:0:0:0:
64,192,118108,1,0,0:0:0:0:
448,192,118155,1,0,0:0:0:0:
320,192,118201,1,0,0:0:0:0:
64,192,118248,1,0,0:0:0:0:
448,192,118295,1,0,0:0:0:0:
64,0,118295,128,0,119795:1:0:0:0:
192,192,118342,1,0,0:0:0:0:
320,192,118389,1,0,0:0:0:0:
448,192,118436,1,0,0:0:0:0:
192,192,118483,1,0,0:0:0:0:
320,192,118530,1,0,0:0:0:0:
448,192,118576,1,0,0:0:0:0:
192,192,118623,1,0,0:0:0:0:
320,192,118670,1,0,0:0:0:0:
448,192,118717,1,0,0:0:0:0:
192,192,118764,1,0,0:0:0:0:
320,192,118811,1,0,0:0:0:0:
448,192,118858,1,0,0:0:0:0:
192,192,118905,1,0,0:0:0:0:
320,192,118951,1,0,0:0:0:0:
448,192,118998,1,0,0:0:0:0:
192,192,119045,1,0,0:0:0:0:
320,192,119092,1,0,0:0:0:0:
448,192,119139,1,0,0:0:0:0:
192,192,119186,1,0,0:0:0:0:
320,192,119233,1,0,0:0:0:0:
448,192,119280,1,0,0:0:0:0:
192,192,119326,1,0,0:0:0:0:
320,192,119373,1,0,0:0:0:0:
448,192,119420,1,0,0:0:0:0:
192,192,119467,1,0,0:0:0:0:
320,192,119514,1,0,0:0:0:0:
448,192,119561,1,0,0:0:0:0:
192,192,119608,1,0,0:0:0:0:
320,192,119655,1,0,0:0:0:0:
448,192,119701,1,0,0:0:0:0:
192,192,119748,1,0,0:0:0:0:
192,192,119795,1,0,0:0:0:0:
320,0,119795,128,0,121295:1:0:0:0:
64,192,119842,1,0,0:0:0:0:
448,192,119889,1,0,0:0:0:0:
192,192,119936,1,0,0:0:0:0:
64,192,119983,1,0,0:0:0:0:
448,192,120030,1,0,0:0:0:0:
192,192,120076,1,0,0:0:0:0:
64,192,120123,1,0,0:0:0:0:
448,192,120170,1,0,0:0:0:0:
192,192,120217,1,0,0:0:0:0:
64,192,120264,1,0,0:0:0:0:
448,192,120311,1,0,0:0:0:0:
192,192,120358,1,0,0:0:0:0:
64,192,120405,1,0,0:0:0:0:
448,192,120451,1,0,0:0:0:0:
192,192,120498,1,0,0:0:0:0:
64,192,120545,1,0,0:0:0:0:
448,192,120592,1,0,0:0:0:0:
192,192,120639,1,0,0:0:0:0:
64,192,120686,1,0,0:0:0:0:
448,192,120733,1,0,0:0:0:0:
192,192,120780,1,0,0:0:0:0:
64,192,120826,1,0,0:0:0:0:
448,192,120873,1,0,0:0:0:0:
192,192,120920,1,0,0:0:0:0:
64,192,120967,1,0,0:0:0:0:
448,192,121014,1,0,0:0:0:0:
192,192,121061,1,0,0:0:0:0:
64,192,121108,1,0,0:0:0:0:
448,192,121155,1,0,0:0:0:0:
192,192,121201,1,0,0:0:0:0:
64,192,121248,1,0,0:0:0:0:
448,192,121295,1,0,0:0:0:0:
192,0,121295,128,0,122420:1:0:0:0:
320,192,121342,1,0,0:0:0:0:
448,192,121389,1,0,0:0:0:0:
320,192,121436,1,0,0:0:0:0:
448,192,121483,1,0,0:0:0:0:
64,192,121530,1,0,0:0:0:0:
320,192,121576,1,0,0:0:0:0:
64,192,121623,1,0,0:0:0:0:
448,192,121670,1,0,0:0:0:0:
320,192,121717,1,0,0:0:0:0:
64,192,121764,1,0,0:0:0:0:
448,192,121811,1,0,0:0:0:0:
320,192,121858,1,0,0:0:0:0:
64,192,121905,1,0,0:0:0:0:
320,192,121951,1,0,0:0:0:0:
448,192,121998,1,0,0:0:0:0:
64,192,122045,1,0,0:0:0:0:
320,192,122092,1,0,0:0:0:0:
448,192,122139,1,0,0:0:0:0:
320,192,122186,1,0,0:0:0:0:
64,192,122233,1,0,0:0:0:0:
320,192,122280,1,0,0:0:0:0:
448,192,122326,1,0,0:0:0:0:
320,192,122373,1,0,0:0:0:0:
64,192,122420,1,0,0:0:0:0:
192,192,122467,1,0,0:0:0:0:
320,192,122514,1,0,0:0:0:0:
448,192,122561,1,0,0:0:0:0:
192,192,122608,1,0,0:0:0:0:
320,192,122655,1,0,0:0:0:0:
64,192,122701,1,0,0:0:0:0:
448,192,122748,1,0,0:0:0:0:
64,192,122795,1,0,0:0:0:0:
192,192,122795,1,0,0:0:0:0:
320,192,122795,1,0,0:0:0:0:
448,192,122795,1,0,0:0:0:0:
64,192,122889,1,0,0:0:0:0:
192,192,122889,1,0,0:0:0:0:
320,192,122889,1,0,0:0:0:0:
448,192,122889,1,0,0:0:0:0:
64,0,122983,128,0,123170:1:0:0:0:
192,0,122983,128,0,123170:1:0:0:0:
320,0,122983,128,0,123170:1:0:0:0:
448,0,122983,128,0,123170:1:0:0:0:
64,192,123545,1,0,0:0:0:0:
192,192,123545,1,0,0:0:0:0:
320,192,123592,1,0,0:0:0:0:
448,192,123592,1,0,0:0:0:0:
64,192,123639,1,0,0:0:0:0:
192,192,123639,1,0,0:0:0:0:
320,192,123686,1,0,0:0:0:0:
448,192,123686,1,0,0:0:0:0:
64,192,123733,1,0,0:0:0:0:
192,192,123733,1,0,0:0:0:0:
320,192,123780,1,0,0:0:0:0:
448,192,123780,1,0,0:0:0:0:
64,192,123826,1,0,0:0:0:0:
192,192,123826,1,0,0:0:0:0:
320,192,123873,1,0,0:0:0:0:
448,192,123873,1,0,0:0:0:0:
64,192,123920,1,0,0:0:0:0:
192,192,123920,1,0,0:0:0:0:
320,192,123967,1,0,0:0:0:0:
448,192,123967,1,0,0:0:0:0:
64,192,124014,1,0,0:0:0:0:
192,192,124014,1,0,0:0:0:0:
320,192,124061,1,0,0:0:0:0:
448,192,124061,1,0,0:0:0:0:
64,192,124108,1,0,0:0:0:0:
192,192,124108,1,0,0:0:0:0:
320,192,124155,1,0,0:0:0:0:
448,192,124155,1,0,0:0:0:0:
64,192,124201,1,0,0:0:0:0:
192,192,124201,1,0,0:0:0:0:
320,192,124248,1,0,0:0:0:0:
448,192,124248,1,0,0:0:0:0:
64,192,124295,1,0,0:0:0:0:
192,192,124295,1,0,0:0:0:0:
192,192,124459,1,0,0:0:0:0:
448,192,124459,1,0,0:0:0:0:
64,192,124483,1,0,0:0:0:0:
320,192,124553,1,0,0:0:0:0:
64,192,124623,1,0,0:0:0:0:
192,192,124647,1,0,0:0:0:0:
448,192,124670,1,0,0:0:0:0:
64,192,124740,1,0,0:0:0:0:
192,192,124811,1,0,0:0:0:0:
320,192,124811,1,0,0:0:0:0:
448,192,124834,1,0,0:0:0:0:
192,192,124928,1,0,0:0:0:0:
64,192,124998,1,0,0:0:0:0:
320,192,125022,1,0,0:0:0:0:
64,192,125115,1,0,0:0:0:0:
448,192,125115,1,0,0:0:0:0:
320,192,125186,1,0,0:0:0:0:
192,192,125209,1,0,0:0:0:0:
448,192,125233,1,0,0:0:0:0:
64,192,125303,1,0,0:0:0:0:
192,192,125303,1,0,0:0:0:0:
320,192,125397,1,0,0:0:0:0:
448,192,125420,1,0,0:0:0:0:
192,192,125490,1,0,0:0:0:0:
64,192,125561,1,0,0:0:0:0:
448,192,125584,1,0,0:0:0:0:
320,192,125608,1,0,0:0:0:0:
192,192,125678,1,0,0:0:0:0:
448,192,125678,1,0,0:0:0:0:
64,192,125772,1,0,0:0:0:0:
448,192,125795,1,0,0:0:0:0:
192,192,125865,1,0,0:0:0:0:
320,192,125865,1,0,0:0:0:0:
448,192,125959,1,0,0:0:0:0:
64,192,125983,1,0,0:0:0:0:
192,192,126053,1,0,0:0:0:0:
320,192,126123,1,0,0:0:0:0:
64,192,126147,1,0,0:0:0:0:
448,192,126170,1,0,0:0:0:0:
320,192,126240,1,0,0:0:0:0:
192,192,126334,1,0,0:0:0:0:
64,192,126358,1,0,0:0:0:0:
192,192,126428,1,0,0:0:0:0:
448,192,126428,1,0,0:0:0:0:
320,192,126522,1,0,0:0:0:0:
64,192,126545,1,0,0:0:0:0:
192,192,126615,1,0,0:0:0:0:
320,192,126615,1,0,0:0:0:0:
448,192,126686,1,0,0:0:0:0:
64,192,126709,1,0,0:0:0:0:
192,192,126803,1,0,0:0:0:0:
320,192,126873,1,0,0:0:0:0:
448,192,126897,1,0,0:0:0:0:
64,192,126920,1,0,0:0:0:0:
448,192,126990,1,0,0:0:0:0:
192,192,127061,1,0,0:0:0:0:
320,192,127084,1,0,0:0:0:0:
64,192,127108,1,0,0:0:0:0:
192,192,127178,1,0,0:0:0:0:
448,192,127248,1,0,0:0:0:0:
64,192,127272,1,0,0:0:0:0:
192,192,127295,1,0,0:0:0:0:
320,192,127295,1,0,0:0:0:0:
64,192,127365,1,0,0:0:0:0:
448,192,127365,1,0,0:0:0:0:
192,192,127459,1,0,0:0:0:0:
64,192,127483,1,0,0:0:0:0:
448,192,127483,1,0,0:0:0:0:
320,192,127553,1,0,0:0:0:0:
64,192,127623,1,0,0:0:0:0:
448,192,127647,1,0,0:0:0:0:
192,192,127740,1,0,0:0:0:0:
320,192,127811,1,0,0:0:0:0:
64,192,127834,1,0,0:0:0:0:
448,192,127858,1,0,0:0:0:0:
192,192,127928,1,0,0:0:0:0:
448,192,127998,1,0,0:0:0:0:
320,192,128022,1,0,0:0:0:0:
64,192,128115,1,0,0:0:0:0:
448,192,128115,1,0,0:0:0:0:
192,192,128186,1,0,0:0:0:0:
320,192,128209,1,0,0:0:0:0:
448,192,128233,1,0,0:0:0:0:
192,192,128303,1,0,0:0:0:0:
64,192,128373,1,0,0:0:0:0:
448,192,128397,1,0,0:0:0:0:
320,192,128420,1,0,0:0:0:0:
64,192,128490,1,0,0:0:0:0:
448,192,128561,1,0,0:0:0:0:
192,192,128584,1,0,0:0:0:0:
64,192,128678,1,0,0:0:0:0:
320,192,128678,1,0,0:0:0:0:
448,192,128678,1,0,0:0:0:0:
64,192,128748,1,0,0:0:0:0:
448,192,128772,1,0,0:0:0:0:
192,192,128865,1,0,0:0:0:0:
320,192,128865,1,0,0:0:0:0:
448,192,128936,1,0,0:0:0:0:
64,192,128959,1,0,0:0:0:0:
448,192,129053,1,0,0:0:0:0:
320,192,129123,1,0,0:0:0:0:
192,192,129147,1,0,0:0:0:0:
64,192,129170,1,0,0:0:0:0:
448,192,129170,1,0,0:0:0:0:
320,192,129240,1,0,0:0:0:0:
192,192,129311,1,0,0:0:0:0:
448,192,129334,1,0,0:0:0:0:
64,192,129358,1,0,0:0:0:0:
448,192,129428,1,0,0:0:0:0:
192,192,129498,1,0,0:0:0:0:
320,192,129522,1,0,0:0:0:0:
448,192,129545,1,0,0:0:0:0:
64,192,129615,1,0,0:0:0:0:
192,192,129615,1,0,0:0:0:0:
448,192,129709,1,0,0:0:0:0:
320,192,129733,1,0,0:0:0:0:
192,192,129803,1,0,0:0:0:0:
64,192,129873,1,0,0:0:0:0:
320,192,129897,1,0,0:0:0:0:
448,192,129920,1,0,0:0:0:0:
64,192,129990,1,0,0:0:0:0:
320,192,130061,1,0,0:0:0:0:
448,192,130061,1,0,0:0:0:0:
192,192,130084,1,0,0:0:0:0:
64,192,130178,1,0,0:0:0:0:
320,192,130178,1,0,0:0:0:0:
448,192,130178,1,0,0:0:0:0:
64,192,130248,1,0,0:0:0:0:
448,192,130272,1,0,0:0:0:0:
320,192,130295,1,0,0:0:0:0:
64,192,130365,1,0,0:0:0:0:
192,192,130365,1,0,0:0:0:0:
320,192,130459,1,0,0:0:0:0:
192,192,130483,1,0,0:0:0:0:
448,192,130483,1,0,0:0:0:0:
448,192,130553,1,0,0:0:0:0:
64,192,130623,1,0,0:0:0:0:
320,192,130647,1,0,0:0:0:0:
192,192,130740,1,0,0:0:0:0:
448,192,130811,1,0,0:0:0:0:
64,192,130834,1,0,0:0:0:0:
192,192,130858,1,0,0:0:0:0:
320,192,130858,1,0,0:0:0:0:
448,192,130928,1,0,0:0:0:0:
192,192,131022,1,0,0:0:0:0:
64,192,131045,1,0,0:0:0:0:
192,192,131115,1,0,0:0:0:0:
320,192,131115,1,0,0:0:0:0:
448,192,131209,1,0,0:0:0:0:
64,192,131233,1,0,0:0:0:0:
64,192,131303,1,0,0:0:0:0:
192,192,131373,1,0,0:0:0:0:
320,192,131397,1,0,0:0:0:0:
448,192,131420,1,0,0:0:0:0:
192,192,131490,1,0,0:0:0:0:
64,192,131584,1,0,0:0:0:0:
320,192,131608,1,0,0:0:0:0:
64,192,131678,1,0,0:0:0:0:
448,192,131678,1,0,0:0:0:0:
192,192,131772,1,0,0:0:0:0:
320,192,131865,1,0,0:0:0:0:
448,192,131865,1,0,0:0:0:0:
64,192,131936,1,0,0:0:0:0:
448,192,131959,1,0,0:0:0:0:
192,192,131983,1,0,0:0:0:0:
320,192,132053,1,0,0:0:0:0:
64,192,132123,1,0,0:0:0:0:
192,192,132147,1,0,0:0:0:0:
448,192,132170,1,0,0:0:0:0:
448,192,132240,1,0,0:0:0:0:
320,192,132311,1,0,0:0:0:0:
64,192,132334,1,0,0:0:0:0:
