osu file format v13

[General]
AudioFilename: K8107.mp3
AudioLeadIn: 2
PreviewTime: 37500
Countdown: 0
SampleSet: None
StackLeniency: 0.7
Mode: 3
LetterboxInBreaks: 0
SpecialStyle: 0
WidescreenStoryboard: 0

[Editor]
DistanceSpacing: 0.8
BeatDivisor: 4
GridSize: 8
TimelineZoom: 1

[Metadata]
Title:4K Challenge Pack
TitleUnicode:4K Challenge Pack
Artist:xeona
ArtistUnicode:xeona
Creator:Anoex
Version:Onoken---K8107
Source:
Tags:
BeatmapID:470546
BeatmapSetID:198334

[Difficulty]
HPDrainRate:7
CircleSize:4
OverallDifficulty:7
ApproachRate:10
SliderMultiplier:1.4
SliderTickRate:1

[Events]
//Background and Video events
0,0,"K8107.jpg",0,0
//Break Periods
//Storyboard Layer 0 (Background)
//Storyboard Layer 1 (Fail)
//Storyboard Layer 2 (Pass)
//Storyboard Layer 3 (Foreground)
//Storyboard Sound Samples
//Background Colour Transformations
3,100,163,162,255

[TimingPoints]
1433,333.3333,4,1,0,15,1,0

[HitObjects]
64,192,1433,5,0,0:0:0:0:
192,192,1433,1,0,0:0:0:0:
64,192,1599,1,0,0:0:0:0:
192,192,1599,1,0,0:0:0:0:
64,192,2099,1,0,0:0:0:0:
192,192,2099,1,0,0:0:0:0:
64,192,2266,1,0,0:0:0:0:
192,192,2266,1,0,0:0:0:0:
192,192,2433,1,0,0:0:0:0:
448,192,2433,1,0,0:0:0:0:
192,192,2599,1,0,0:0:0:0:
448,192,2599,1,0,0:0:0:0:
64,192,2766,1,0,0:0:0:0:
192,192,2766,1,0,0:0:0:0:
64,192,2933,1,0,0:0:0:0:
192,192,2933,1,0,0:0:0:0:
64,192,3433,1,0,0:0:0:0:
192,192,3433,1,0,0:0:0:0:
64,192,3599,1,0,0:0:0:0:
192,192,3599,1,0,0:0:0:0:
320,192,4099,1,0,0:0:0:0:
448,192,4099,1,0,0:0:0:0:
320,192,4266,1,0,0:0:0:0:
448,192,4266,1,0,0:0:0:0:
320,192,4766,1,0,0:0:0:0:
448,192,4766,1,0,0:0:0:0:
320,192,4933,1,0,0:0:0:0:
448,192,4933,1,0,0:0:0:0:
64,192,5099,1,0,0:0:0:0:
192,192,5099,1,0,0:0:0:0:
64,192,5266,1,0,0:0:0:0:
192,192,5266,1,0,0:0:0:0:
320,192,5433,1,0,0:0:0:0:
448,192,5433,1,0,0:0:0:0:
320,192,5599,1,0,0:0:0:0:
448,192,5599,1,0,0:0:0:0:
320,192,6099,1,0,0:0:0:0:
448,192,6099,1,0,0:0:0:0:
320,192,6266,1,0,0:0:0:0:
448,192,6266,1,0,0:0:0:0:
64,192,6766,1,0,0:0:0:0:
192,192,6766,1,0,0:0:0:0:
64,192,6933,1,0,0:0:0:0:
320,192,6933,1,0,0:0:0:0:
192,192,7099,1,0,0:0:0:0:
320,192,7266,1,0,0:0:0:0:
192,192,7433,1,0,0:0:0:0:
448,192,7433,1,0,0:0:0:0:
320,192,7599,1,0,0:0:0:0:
448,192,7599,1,0,0:0:0:0:
64,192,7766,1,0,0:0:0:0:
320,192,7933,1,0,0:0:0:0:
64,192,8099,1,0,0:0:0:0:
192,192,8099,1,0,0:0:0:0:
64,192,8266,1,0,0:0:0:0:
320,192,8266,1,0,0:0:0:0:
448,192,8433,1,0,0:0:0:0:
320,192,8599,1,0,0:0:0:0:
192,192,8766,1,0,0:0:0:0:
448,192,8766,1,0,0:0:0:0:
64,192,8933,1,0,0:0:0:0:
192,192,8933,1,0,0:0:0:0:
320,192,9099,1,0,0:0:0:0:
448,192,9266,1,0,0:0:0:0:
64,192,9433,1,0,0:0:0:0:
320,192,9433,1,0,0:0:0:0:
64,192,9599,1,0,0:0:0:0:
448,192,9599,1,0,0:0:0:0:
320,192,9766,1,0,0:0:0:0:
192,192,9933,1,0,0:0:0:0:
64,192,10099,1,0,0:0:0:0:
448,192,10099,1,0,0:0:0:0:
192,192,10266,1,0,0:0:0:0:
448,192,10266,1,0,0:0:0:0:
320,192,10433,1,0,0:0:0:0:
448,192,10599,1,0,0:0:0:0:
64,192,10766,1,0,0:0:0:0:
192,192,10766,1,0,0:0:0:0:
64,192,10933,1,0,0:0:0:0:
448,192,10933,1,0,0:0:0:0:
320,192,11099,1,0,0:0:0:0:
192,192,11266,1,0,0:0:0:0:
320,192,11433,1,0,0:0:0:0:
448,192,11433,1,0,0:0:0:0:
192,192,11599,1,0,0:0:0:0:
448,192,11599,1,0,0:0:0:0:
320,192,11766,1,0,0:0:0:0:
192,192,11933,1,0,0:0:0:0:
320,192,12099,1,0,0:0:0:0:
448,192,12099,1,0,0:0:0:0:
64,192,12266,1,0,0:0:0:0:
320,192,12266,1,0,0:0:0:0:
64,192,12433,1,0,0:0:0:0:
192,192,12599,1,0,0:0:0:0:
320,192,12766,1,0,0:0:0:0:
448,192,12766,1,0,0:0:0:0:
64,192,12933,1,0,0:0:0:0:
320,192,12933,1,0,0:0:0:0:
192,192,13099,1,0,0:0:0:0:
64,192,13266,1,0,0:0:0:0:
320,192,13433,1,0,0:0:0:0:
448,192,13433,1,0,0:0:0:0:
64,192,13599,1,0,0:0:0:0:
448,192,13599,1,0,0:0:0:0:
192,192,13766,1,0,0:0:0:0:
320,192,13933,1,0,0:0:0:0:
64,192,14099,1,0,0:0:0:0:
448,192,14099,1,0,0:0:0:0:
64,192,14266,1,0,0:0:0:0:
320,192,14266,1,0,0:0:0:0:
192,192,14433,1,0,0:0:0:0:
64,192,14599,1,0,0:0:0:0:
64,192,14766,1,0,0:0:0:0:
448,192,14766,1,0,0:0:0:0:
320,192,14933,1,0,0:0:0:0:
448,192,14933,1,0,0:0:0:0:
192,192,15099,1,0,0:0:0:0:
320,192,15266,1,0,0:0:0:0:
64,192,15433,1,0,0:0:0:0:
192,192,15433,1,0,0:0:0:0:
64,192,15599,1,0,0:0:0:0:
320,192,15599,1,0,0:0:0:0:
192,192,15766,1,0,0:0:0:0:
320,192,15933,1,0,0:0:0:0:
192,192,16099,1,0,0:0:0:0:
448,192,16099,1,0,0:0:0:0:
64,192,16266,1,0,0:0:0:0:
192,192,16266,1,0,0:0:0:0:
320,192,16433,1,0,0:0:0:0:
448,192,16599,1,0,0:0:0:0:
64,192,16766,1,0,0:0:0:0:
320,192,16766,1,0,0:0:0:0:
64,192,16933,1,0,0:0:0:0:
192,192,16933,1,0,0:0:0:0:
320,192,17099,1,0,0:0:0:0:
192,192,17266,1,0,0:0:0:0:
64,192,17433,1,0,0:0:0:0:
192,192,17433,1,0,0:0:0:0:
192,192,17683,1,0,0:0:0:0:
320,192,17683,1,0,0:0:0:0:
320,192,17933,1,0,0:0:0:0:
448,192,17933,1,0,0:0:0:0:
192,192,18266,1,0,0:0:0:0:
320,192,18266,1,0,0:0:0:0:
64,192,18599,1,0,0:0:0:0:
320,192,18599,1,0,0:0:0:0:
64,192,18766,1,0,0:0:0:0:
192,192,18766,1,0,0:0:0:0:
192,192,19016,1,0,0:0:0:0:
320,192,19016,1,0,0:0:0:0:
64,192,19266,1,0,0:0:0:0:
192,192,19266,1,0,0:0:0:0:
192,192,19599,1,0,0:0:0:0:
448,192,19599,1,0,0:0:0:0:
192,192,19766,1,0,0:0:0:0:
320,192,19766,1,0,0:0:0:0:
64,192,19933,1,0,0:0:0:0:
320,192,19933,1,0,0:0:0:0:
64,192,20099,1,0,0:0:0:0:
192,192,20099,1,0,0:0:0:0:
320,192,20349,1,0,0:0:0:0:
448,192,20349,1,0,0:0:0:0:
64,192,20599,1,0,0:0:0:0:
448,192,20599,1,0,0:0:0:0:
64,192,20933,1,0,0:0:0:0:
320,192,20933,1,0,0:0:0:0:
64,192,21266,1,0,0:0:0:0:
192,192,21266,1,0,0:0:0:0:
192,192,21433,1,0,0:0:0:0:
320,192,21433,1,0,0:0:0:0:
64,192,21683,1,0,0:0:0:0:
320,192,21683,1,0,0:0:0:0:
192,192,21933,1,0,0:0:0:0:
448,192,21933,1,0,0:0:0:0:
192,192,22266,1,0,0:0:0:0:
320,192,22266,1,0,0:0:0:0:
64,192,22433,1,0,0:0:0:0:
320,192,22433,1,0,0:0:0:0:
320,192,22766,1,0,0:0:0:0:
448,192,22766,1,0,0:0:0:0:
192,192,23016,1,0,0:0:0:0:
320,192,23016,1,0,0:0:0:0:
64,192,23266,1,0,0:0:0:0:
192,192,23266,1,0,0:0:0:0:
192,192,23599,1,0,0:0:0:0:
320,192,23599,1,0,0:0:0:0:
192,192,23933,1,0,0:0:0:0:
448,192,23933,1,0,0:0:0:0:
320,192,24099,1,0,0:0:0:0:
448,192,24099,1,0,0:0:0:0:
192,192,24349,1,0,0:0:0:0:
320,192,24349,1,0,0:0:0:0:
320,192,24599,1,0,0:0:0:0:
448,192,24599,1,0,0:0:0:0:
64,192,24933,1,0,0:0:0:0:
320,192,24933,1,0,0:0:0:0:
192,192,25099,1,0,0:0:0:0:
320,192,25099,1,0,0:0:0:0:
192,192,25266,1,0,0:0:0:0:
448,192,25266,1,0,0:0:0:0:
320,192,25433,1,0,0:0:0:0:
448,192,25433,1,0,0:0:0:0:
64,192,25683,1,0,0:0:0:0:
192,192,25683,1,0,0:0:0:0:
64,192,25933,1,0,0:0:0:0:
448,192,25933,1,0,0:0:0:0:
192,192,26266,1,0,0:0:0:0:
448,192,26266,1,0,0:0:0:0:
320,192,26599,1,0,0:0:0:0:
448,192,26599,1,0,0:0:0:0:
192,192,26766,1,0,0:0:0:0:
320,192,26766,1,0,0:0:0:0:
192,192,27016,1,0,0:0:0:0:
448,192,27016,1,0,0:0:0:0:
64,192,27266,1,0,0:0:0:0:
320,192,27266,1,0,0:0:0:0:
192,192,27599,1,0,0:0:0:0:
320,192,27599,1,0,0:0:0:0:
192,192,27766,1,0,0:0:0:0:
448,192,27766,1,0,0:0:0:0:
64,0,28099,128,0,30099:1:0:0:0:
448,0,28099,128,0,30099:1:0:0:0:
64,192,30766,1,0,0:0:0:0:
192,192,30849,1,0,0:0:0:0:
192,192,30933,1,0,0:0:0:0:
192,192,31016,1,0,0:0:0:0:
192,192,31099,1,0,0:0:0:0:
192,192,31183,1,0,0:0:0:0:
192,192,31266,1,0,0:0:0:0:
192,192,31349,1,0,0:0:0:0:
320,192,31433,1,0,0:0:0:0:
320,192,31516,1,0,0:0:0:0:
320,192,31599,1,0,0:0:0:0:
320,192,31683,1,0,0:0:0:0:
192,192,31766,1,0,0:0:0:0:
192,192,31849,1,0,0:0:0:0:
192,192,31933,1,0,0:0:0:0:
192,192,32016,1,0,0:0:0:0:
320,192,32099,1,0,0:0:0:0:
448,192,32183,1,0,0:0:0:0:
448,192,32266,1,0,0:0:0:0:
448,192,32349,1,0,0:0:0:0:
448,192,32433,1,0,0:0:0:0:
448,192,32516,1,0,0:0:0:0:
448,192,32599,1,0,0:0:0:0:
448,192,32683,1,0,0:0:0:0:
64,192,32766,1,0,0:0:0:0:
64,192,32849,1,0,0:0:0:0:
64,192,32933,1,0,0:0:0:0:
64,192,33016,1,0,0:0:0:0:
320,192,33099,1,0,0:0:0:0:
320,192,33183,1,0,0:0:0:0:
320,192,33266,1,0,0:0:0:0:
320,192,33349,1,0,0:0:0:0:
192,192,33433,1,0,0:0:0:0:
448,192,33516,1,0,0:0:0:0:
448,192,33599,1,0,0:0:0:0:
448,192,33683,1,0,0:0:0:0:
448,192,33766,1,0,0:0:0:0:
448,192,33849,1,0,0:0:0:0:
448,192,33933,1,0,0:0:0:0:
448,192,34016,1,0,0:0:0:0:
320,192,34099,1,0,0:0:0:0:
320,192,34183,1,0,0:0:0:0:
320,192,34266,1,0,0:0:0:0:
320,192,34349,1,0,0:0:0:0:
192,192,34433,1,0,0:0:0:0:
192,192,34516,1,0,0:0:0:0:
192,192,34599,1,0,0:0:0:0:
192,192,34683,1,0,0:0:0:0:
64,192,34766,1,0,0:0:0:0:
448,192,34849,1,0,0:0:0:0:
448,192,34933,1,0,0:0:0:0:
448,192,35016,1,0,0:0:0:0:
448,192,35099,1,0,0:0:0:0:
448,192,35183,1,0,0:0:0:0:
448,192,35266,1,0,0:0:0:0:
448,192,35349,1,0,0:0:0:0:
192,192,35433,1,0,0:0:0:0:
192,192,35516,1,0,0:0:0:0:
192,192,35599,1,0,0:0:0:0:
192,192,35683,1,0,0:0:0:0:
320,192,35766,1,0,0:0:0:0:
320,192,35849,1,0,0:0:0:0:
320,192,35933,1,0,0:0:0:0:
320,192,36016,1,0,0:0:0:0:
448,192,36099,1,0,0:0:0:0:
320,192,36183,1,0,0:0:0:0:
320,192,36266,1,0,0:0:0:0:
320,192,36349,1,0,0:0:0:0:
320,192,36433,1,0,0:0:0:0:
320,192,36516,1,0,0:0:0:0:
320,192,36599,1,0,0:0:0:0:
320,192,36683,1,0,0:0:0:0:
192,192,36766,1,0,0:0:0:0:
192,192,36849,1,0,0:0:0:0:
192,192,36933,1,0,0:0:0:0:
192,192,37016,1,0,0:0:0:0:
320,192,37099,1,0,0:0:0:0:
320,192,37183,1,0,0:0:0:0:
320,192,37266,1,0,0:0:0:0:
320,192,37349,1,0,0:0:0:0:
192,192,37433,1,0,0:0:0:0:
64,192,37516,1,0,0:0:0:0:
64,192,37599,1,0,0:0:0:0:
64,192,37683,1,0,0:0:0:0:
64,192,37766,1,0,0:0:0:0:
64,192,37849,1,0,0:0:0:0:
64,192,37933,1,0,0:0:0:0:
64,192,38016,1,0,0:0:0:0:
448,192,38099,1,0,0:0:0:0:
448,192,38183,1,0,0:0:0:0:
448,192,38266,1,0,0:0:0:0:
448,192,38349,1,0,0:0:0:0:
192,192,38433,1,0,0:0:0:0:
192,192,38516,1,0,0:0:0:0:
192,192,38599,1,0,0:0:0:0:
192,192,38683,1,0,0:0:0:0:
320,192,38766,1,0,0:0:0:0:
64,192,38849,1,0,0:0:0:0:
64,192,38933,1,0,0:0:0:0:
64,192,39016,1,0,0:0:0:0:
192,192,39099,1,0,0:0:0:0:
320,192,39183,1,0,0:0:0:0:
320,192,39266,1,0,0:0:0:0:
320,192,39349,1,0,0:0:0:0:
192,192,39433,1,0,0:0:0:0:
64,192,39516,1,0,0:0:0:0:
64,192,39599,1,0,0:0:0:0:
64,192,39683,1,0,0:0:0:0:
448,192,39766,1,0,0:0:0:0:
320,192,39849,1,0,0:0:0:0:
320,192,39933,1,0,0:0:0:0:
320,192,40016,1,0,0:0:0:0:
448,192,40099,1,0,0:0:0:0:
64,192,40183,1,0,0:0:0:0:
64,192,40266,1,0,0:0:0:0:
64,192,40349,1,0,0:0:0:0:
320,192,40433,1,0,0:0:0:0:
192,192,40516,1,0,0:0:0:0:
192,192,40599,1,0,0:0:0:0:
192,192,40683,1,0,0:0:0:0:
320,192,40766,1,0,0:0:0:0:
64,192,40849,1,0,0:0:0:0:
64,192,40933,1,0,0:0:0:0:
64,192,41016,1,0,0:0:0:0:
192,192,41099,1,0,0:0:0:0:
320,192,41183,1,0,0:0:0:0:
320,192,41266,1,0,0:0:0:0:
448,192,41433,1,0,0:0:0:0:
320,192,41516,1,0,0:0:0:0:
320,192,41599,1,0,0:0:0:0:
320,192,41683,1,0,0:0:0:0:
320,192,41766,1,0,0:0:0:0:
320,192,41849,1,0,0:0:0:0:
320,192,41933,1,0,0:0:0:0:
320,192,42016,1,0,0:0:0:0:
192,192,42099,1,0,0:0:0:0:
192,192,42183,1,0,0:0:0:0:
192,192,42266,1,0,0:0:0:0:
192,192,42349,1,0,0:0:0:0:
320,192,42433,1,0,0:0:0:0:
320,192,42516,1,0,0:0:0:0:
320,192,42599,1,0,0:0:0:0:
320,192,42683,1,0,0:0:0:0:
192,192,42766,1,0,0:0:0:0:
64,192,42849,1,0,0:0:0:0:
64,192,42933,1,0,0:0:0:0:
64,192,43016,1,0,0:0:0:0:
64,192,43099,1,0,0:0:0:0:
64,192,43183,1,0,0:0:0:0:
64,192,43266,1,0,0:0:0:0:
64,192,43349,1,0,0:0:0:0:
448,192,43433,1,0,0:0:0:0:
448,192,43516,1,0,0:0:0:0:
448,192,43599,1,0,0:0:0:0:
448,192,43683,1,0,0:0:0:0:
192,192,43766,1,0,0:0:0:0:
192,192,43849,1,0,0:0:0:0:
192,192,43933,1,0,0:0:0:0:
192,192,44016,1,0,0:0:0:0:
320,192,44099,1,0,0:0:0:0:
64,192,44183,1,0,0:0:0:0:
64,192,44266,1,0,0:0:0:0:
64,192,44349,1,0,0:0:0:0:
64,192,44433,1,0,0:0:0:0:
64,192,44516,1,0,0:0:0:0:
64,192,44599,1,0,0:0:0:0:
64,192,44683,1,0,0:0:0:0:
192,192,44766,1,0,0:0:0:0:
192,192,44849,1,0,0:0:0:0:
192,192,44933,1,0,0:0:0:0:
192,192,45016,1,0,0:0:0:0:
320,192,45099,1,0,0:0:0:0:
320,192,45183,1,0,0:0:0:0:
320,192,45266,1,0,0:0:0:0:
320,192,45349,1,0,0:0:0:0:
448,192,45433,1,0,0:0:0:0:
64,192,45516,1,0,0:0:0:0:
64,192,45599,1,0,0:0:0:0:
64,192,45683,1,0,0:0:0:0:
64,192,45766,1,0,0:0:0:0:
64,192,45849,1,0,0:0:0:0:
64,192,45933,1,0,0:0:0:0:
64,192,46016,1,0,0:0:0:0:
320,192,46099,1,0,0:0:0:0:
320,192,46183,1,0,0:0:0:0:
320,192,46266,1,0,0:0:0:0:
320,192,46349,1,0,0:0:0:0:
192,192,46433,1,0,0:0:0:0:
192,192,46516,1,0,0:0:0:0:
192,192,46599,1,0,0:0:0:0:
192,192,46683,1,0,0:0:0:0:
64,192,46766,1,0,0:0:0:0:
192,192,46849,1,0,0:0:0:0:
192,192,46933,1,0,0:0:0:0:
192,192,47016,1,0,0:0:0:0:
192,192,47099,1,0,0:0:0:0:
192,192,47183,1,0,0:0:0:0:
192,192,47266,1,0,0:0:0:0:
192,192,47349,1,0,0:0:0:0:
320,192,47433,1,0,0:0:0:0:
320,192,47516,1,0,0:0:0:0:
320,192,47599,1,0,0:0:0:0:
320,192,47683,1,0,0:0:0:0:
192,192,47766,1,0,0:0:0:0:
192,192,47849,1,0,0:0:0:0:
192,192,47933,1,0,0:0:0:0:
192,192,48016,1,0,0:0:0:0:
320,192,48099,1,0,0:0:0:0:
448,192,48183,1,0,0:0:0:0:
448,192,48266,1,0,0:0:0:0:
448,192,48349,1,0,0:0:0:0:
448,192,48433,1,0,0:0:0:0:
448,192,48516,1,0,0:0:0:0:
448,192,48599,1,0,0:0:0:0:
448,192,48683,1,0,0:0:0:0:
64,192,48766,1,0,0:0:0:0:
64,192,48849,1,0,0:0:0:0:
64,192,48933,1,0,0:0:0:0:
64,192,49016,1,0,0:0:0:0:
320,192,49099,1,0,0:0:0:0:
320,192,49183,1,0,0:0:0:0:
320,192,49266,1,0,0:0:0:0:
320,192,49349,1,0,0:0:0:0:
192,192,49433,1,0,0:0:0:0:
448,192,49516,1,0,0:0:0:0:
448,192,49599,1,0,0:0:0:0:
448,192,49683,1,0,0:0:0:0:
320,192,49766,1,0,0:0:0:0:
192,192,49849,1,0,0:0:0:0:
192,192,49933,1,0,0:0:0:0:
192,192,50016,1,0,0:0:0:0:
320,192,50099,1,0,0:0:0:0:
448,192,50183,1,0,0:0:0:0:
448,192,50266,1,0,0:0:0:0:
448,192,50349,1,0,0:0:0:0:
64,192,50433,1,0,0:0:0:0:
192,192,50516,1,0,0:0:0:0:
192,192,50599,1,0,0:0:0:0:
192,192,50683,1,0,0:0:0:0:
64,192,50766,1,0,0:0:0:0:
448,192,50849,1,0,0:0:0:0:
448,192,50933,1,0,0:0:0:0:
448,192,51016,1,0,0:0:0:0:
192,192,51099,1,0,0:0:0:0:
320,192,51183,1,0,0:0:0:0:
320,192,51266,1,0,0:0:0:0:
320,192,51349,1,0,0:0:0:0:
192,192,51433,1,0,0:0:0:0:
448,192,51516,1,0,0:0:0:0:
448,192,51599,1,0,0:0:0:0:
448,192,51683,1,0,0:0:0:0:
320,192,51766,1,0,0:0:0:0:
192,192,51849,1,0,0:0:0:0:
192,192,51933,1,0,0:0:0:0:
320,192,52099,1,0,0:0:0:0:
64,192,52266,1,0,0:0:0:0:
320,192,52266,1,0,0:0:0:0:
192,192,52599,1,0,0:0:0:0:
448,192,52599,1,0,0:0:0:0:
64,192,52933,1,0,0:0:0:0:
320,192,52933,1,0,0:0:0:0:
64,192,53266,1,0,0:0:0:0:
192,192,53266,1,0,0:0:0:0:
192,192,53599,1,0,0:0:0:0:
448,192,53599,1,0,0:0:0:0:
192,192,53933,1,0,0:0:0:0:
320,192,53933,1,0,0:0:0:0:
64,192,54266,1,0,0:0:0:0:
448,192,54266,1,0,0:0:0:0:
64,192,54599,1,0,0:0:0:0:
192,192,54599,1,0,0:0:0:0:
320,192,54933,1,0,0:0:0:0:
448,192,54933,1,0,0:0:0:0:
192,192,55266,1,0,0:0:0:0:
320,192,55266,1,0,0:0:0:0:
64,192,55599,1,0,0:0:0:0:
320,192,55599,1,0,0:0:0:0:
192,192,55933,1,0,0:0:0:0:
448,192,55933,1,0,0:0:0:0:
64,192,56266,1,0,0:0:0:0:
320,192,56266,1,0,0:0:0:0:
64,192,56599,1,0,0:0:0:0:
192,192,56599,1,0,0:0:0:0:
320,192,56933,1,0,0:0:0:0:
448,192,56933,1,0,0:0:0:0:
192,192,57266,1,0,0:0:0:0:
320,192,57266,1,0,0:0:0:0:
64,192,57433,1,0,0:0:0:0:
320,192,57433,1,0,0:0:0:0:
64,192,57599,1,0,0:0:0:0:
320,192,57599,1,0,0:0:0:0:
192,192,57766,1,0,0:0:0:0:
448,192,57933,1,0,0:0:0:0:
320,192,58099,1,0,0:0:0:0:
192,192,58266,1,0,0:0:0:0:
64,192,58433,1,0,0:0:0:0:
320,192,58433,1,0,0:0:0:0:
64,192,58599,1,0,0:0:0:0:
192,192,58599,1,0,0:0:0:0:
320,192,58766,1,0,0:0:0:0:
448,192,58766,1,0,0:0:0:0:
192,192,59099,1,0,0:0:0:0:
320,192,59099,1,0,0:0:0:0:
64,192,59433,1,0,0:0:0:0:
320,192,59433,1,0,0:0:0:0:
192,192,59599,1,0,0:0:0:0:
320,192,59766,1,0,0:0:0:0:
448,192,59766,1,0,0:0:0:0:
320,192,60099,1,0,0:0:0:0:
448,192,60099,1,0,0:0:0:0:
320,192,60266,1,0,0:0:0:0:
448,192,60266,1,0,0:0:0:0:
64,192,60433,1,0,0:0:0:0:
192,192,60599,1,0,0:0:0:0:
448,192,60766,1,0,0:0:0:0:
64,192,60933,1,0,0:0:0:0:
192,192,61099,1,0,0:0:0:0:
320,192,61099,1,0,0:0:0:0:
64,192,61266,1,0,0:0:0:0:
320,192,61266,1,0,0:0:0:0:
192,192,61433,1,0,0:0:0:0:
448,192,61433,1,0,0:0:0:0:
64,192,61766,1,0,0:0:0:0:
448,192,61766,1,0,0:0:0:0:
320,192,62099,1,0,0:0:0:0:
448,192,62099,1,0,0:0:0:0:
64,192,62266,1,0,0:0:0:0:
192,192,62433,1,0,0:0:0:0:
448,192,62433,1,0,0:0:0:0:
192,192,62766,1,0,0:0:0:0:
448,192,62766,1,0,0:0:0:0:
192,192,62933,1,0,0:0:0:0:
448,192,62933,1,0,0:0:0:0:
320,192,63099,1,0,0:0:0:0:
64,192,63266,1,0,0:0:0:0:
192,192,63433,1,0,0:0:0:0:
320,192,63599,1,0,0:0:0:0:
192,192,63766,1,0,0:0:0:0:
448,192,63766,1,0,0:0:0:0:
64,192,63933,1,0,0:0:0:0:
320,192,63933,1,0,0:0:0:0:
64,192,64099,1,0,0:0:0:0:
192,192,64099,1,0,0:0:0:0:
192,192,64433,1,0,0:0:0:0:
320,192,64433,1,0,0:0:0:0:
192,192,64766,1,0,0:0:0:0:
448,192,64766,1,0,0:0:0:0:
320,192,64933,1,0,0:0:0:0:
64,192,65099,1,0,0:0:0:0:
192,192,65099,1,0,0:0:0:0:
64,192,65433,1,0,0:0:0:0:
192,192,65433,1,0,0:0:0:0:
64,192,65599,1,0,0:0:0:0:
192,192,65599,1,0,0:0:0:0:
448,192,65766,1,0,0:0:0:0:
320,192,65933,1,0,0:0:0:0:
64,192,66099,1,0,0:0:0:0:
448,192,66266,1,0,0:0:0:0:
64,192,66433,1,0,0:0:0:0:
192,192,66433,1,0,0:0:0:0:
320,192,66599,1,0,0:0:0:0:
448,192,66599,1,0,0:0:0:0:
64,192,66766,1,0,0:0:0:0:
320,192,66766,1,0,0:0:0:0:
64,192,67099,1,0,0:0:0:0:
448,192,67099,1,0,0:0:0:0:
64,192,67433,1,0,0:0:0:0:
192,192,67433,1,0,0:0:0:0:
448,192,67599,1,0,0:0:0:0:
64,192,67766,1,0,0:0:0:0:
320,192,67766,1,0,0:0:0:0:
64,192,68099,1,0,0:0:0:0:
320,192,68099,1,0,0:0:0:0:
192,192,68266,1,0,0:0:0:0:
64,192,68349,1,0,0:0:0:0:
448,192,68349,1,0,0:0:0:0:
192,192,68599,1,0,0:0:0:0:
448,192,68599,1,0,0:0:0:0:
64,192,68933,1,0,0:0:0:0:
448,192,68933,1,0,0:0:0:0:
192,192,69099,1,0,0:0:0:0:
320,192,69266,1,0,0:0:0:0:
448,192,69266,1,0,0:0:0:0:
64,192,69433,1,0,0:0:0:0:
320,192,69433,1,0,0:0:0:0:
64,192,69683,1,0,0:0:0:0:
448,192,69683,1,0,0:0:0:0:
64,192,69933,1,0,0:0:0:0:
320,192,69933,1,0,0:0:0:0:
64,192,70266,1,0,0:0:0:0:
192,192,70266,1,0,0:0:0:0:
64,192,70433,1,0,0:0:0:0:
448,192,70433,1,0,0:0:0:0:
320,192,70599,1,0,0:0:0:0:
448,192,70599,1,0,0:0:0:0:
64,192,70766,1,0,0:0:0:0:
320,192,70766,1,0,0:0:0:0:
320,192,70933,1,0,0:0:0:0:
192,192,71016,1,0,0:0:0:0:
448,192,71016,1,0,0:0:0:0:
192,192,71266,1,0,0:0:0:0:
320,192,71266,1,0,0:0:0:0:
320,192,71599,1,0,0:0:0:0:
448,192,71599,1,0,0:0:0:0:
192,192,71766,1,0,0:0:0:0:
64,192,71933,1,0,0:0:0:0:
320,192,71933,1,0,0:0:0:0:
64,192,72099,1,0,0:0:0:0:
448,192,72099,1,0,0:0:0:0:
320,192,72349,1,0,0:0:0:0:
448,192,72349,1,0,0:0:0:0:
64,192,72599,1,0,0:0:0:0:
192,192,72599,1,0,0:0:0:0:
64,192,72933,1,0,0:0:0:0:
448,192,72933,1,0,0:0:0:0:
320,192,73099,1,0,0:0:0:0:
448,192,73099,1,0,0:0:0:0:
192,192,73433,1,0,0:0:0:0:
448,192,73433,1,0,0:0:0:0:
320,192,73599,1,0,0:0:0:0:
64,192,73683,1,0,0:0:0:0:
448,192,73683,1,0,0:0:0:0:
64,192,73933,1,0,0:0:0:0:
320,192,73933,1,0,0:0:0:0:
64,192,74266,1,0,0:0:0:0:
448,192,74266,1,0,0:0:0:0:
320,192,74433,1,0,0:0:0:0:
64,192,74599,1,0,0:0:0:0:
192,192,74599,1,0,0:0:0:0:
192,192,74766,1,0,0:0:0:0:
448,192,74766,1,0,0:0:0:0:
64,192,75016,1,0,0:0:0:0:
448,192,75016,1,0,0:0:0:0:
192,192,75266,1,0,0:0:0:0:
448,192,75266,1,0,0:0:0:0:
320,192,75599,1,0,0:0:0:0:
448,192,75599,1,0,0:0:0:0:
64,192,75766,1,0,0:0:0:0:
448,192,75766,1,0,0:0:0:0:
64,192,75933,1,0,0:0:0:0:
192,192,75933,1,0,0:0:0:0:
192,192,76099,1,0,0:0:0:0:
448,192,76099,1,0,0:0:0:0:
448,192,76266,1,0,0:0:0:0:
64,192,76349,1,0,0:0:0:0:
320,192,76349,1,0,0:0:0:0:
192,192,76599,1,0,0:0:0:0:
320,192,76599,1,0,0:0:0:0:
64,192,76933,1,0,0:0:0:0:
192,192,76933,1,0,0:0:0:0:
320,192,77099,1,0,0:0:0:0:
192,192,77266,1,0,0:0:0:0:
448,192,77266,1,0,0:0:0:0:
64,192,77433,1,0,0:0:0:0:
448,192,77433,1,0,0:0:0:0:
64,192,77683,1,0,0:0:0:0:
192,192,77683,1,0,0:0:0:0:
320,192,77933,1,0,0:0:0:0:
448,192,77933,1,0,0:0:0:0:
64,192,78266,1,0,0:0:0:0:
448,192,78266,1,0,0:0:0:0:
64,192,78433,1,0,0:0:0:0:
192,192,78433,1,0,0:0:0:0:
448,0,78766,128,0,80099:1:0:0:0:
64,192,80099,1,0,0:0:0:0:
320,192,80099,1,0,0:0:0:0:
192,192,80266,1,0,0:0:0:0:
64,192,80349,1,0,0:0:0:0:
320,192,80433,1,0,0:0:0:0:
448,192,80433,1,0,0:0:0:0:
192,192,80599,1,0,0:0:0:0:
320,192,80683,1,0,0:0:0:0:
64,192,80766,1,0,0:0:0:0:
448,192,80766,1,0,0:0:0:0:
320,192,80933,1,0,0:0:0:0:
192,192,81016,1,0,0:0:0:0:
64,192,81099,1,0,0:0:0:0:
320,192,81099,1,0,0:0:0:0:
192,192,81266,1,0,0:0:0:0:
448,192,81349,1,0,0:0:0:0:
192,192,81433,1,0,0:0:0:0:
320,192,81433,1,0,0:0:0:0:
192,192,81599,1,0,0:0:0:0:
320,192,81683,1,0,0:0:0:0:
192,192,81766,1,0,0:0:0:0:
448,192,81766,1,0,0:0:0:0:
64,192,81933,1,0,0:0:0:0:
448,192,82016,1,0,0:0:0:0:
192,192,82099,1,0,0:0:0:0:
320,192,82099,1,0,0:0:0:0:
320,192,82266,1,0,0:0:0:0:
64,192,82349,1,0,0:0:0:0:
192,192,82433,1,0,0:0:0:0:
448,192,82433,1,0,0:0:0:0:
64,192,82766,1,0,0:0:0:0:
448,192,82933,1,0,0:0:0:0:
192,192,83016,1,0,0:0:0:0:
320,192,83099,1,0,0:0:0:0:
448,192,83099,1,0,0:0:0:0:
64,192,83266,1,0,0:0:0:0:
192,192,83349,1,0,0:0:0:0:
320,192,83433,1,0,0:0:0:0:
448,192,83433,1,0,0:0:0:0:
192,192,83599,1,0,0:0:0:0:
64,192,83683,1,0,0:0:0:0:
320,192,83766,1,0,0:0:0:0:
448,192,83766,1,0,0:0:0:0:
192,192,83933,1,0,0:0:0:0:
320,192,84016,1,0,0:0:0:0:
64,192,84099,1,0,0:0:0:0:
192,192,84099,1,0,0:0:0:0:
448,192,84266,1,0,0:0:0:0:
192,192,84349,1,0,0:0:0:0:
320,192,84433,1,0,0:0:0:0:
448,192,84433,1,0,0:0:0:0:
64,192,84599,1,0,0:0:0:0:
192,192,84683,1,0,0:0:0:0:
64,192,84766,1,0,0:0:0:0:
320,192,84766,1,0,0:0:0:0:
448,192,84933,1,0,0:0:0:0:
192,192,85016,1,0,0:0:0:0:
64,192,85099,1,0,0:0:0:0:
320,192,85099,1,0,0:0:0:0:
64,192,85266,1,0,0:0:0:0:
448,192,85266,1,0,0:0:0:0:
192,192,85433,1,0,0:0:0:0:
448,192,85433,1,0,0:0:0:0:
320,192,85599,1,0,0:0:0:0:
448,192,85683,1,0,0:0:0:0:
64,192,85766,1,0,0:0:0:0:
192,192,85766,1,0,0:0:0:0:
320,192,85933,1,0,0:0:0:0:
192,192,86016,1,0,0:0:0:0:
64,192,86099,1,0,0:0:0:0:
448,192,86099,1,0,0:0:0:0:
192,192,86266,1,0,0:0:0:0:
320,192,86349,1,0,0:0:0:0:
192,192,86433,1,0,0:0:0:0:
448,192,86433,1,0,0:0:0:0:
320,192,86599,1,0,0:0:0:0:
64,192,86683,1,0,0:0:0:0:
192,192,86766,1,0,0:0:0:0:
320,192,86766,1,0,0:0:0:0:
320,192,86933,1,0,0:0:0:0:
192,192,87016,1,0,0:0:0:0:
64,192,87099,1,0,0:0:0:0:
320,192,87099,1,0,0:0:0:0:
448,192,87266,1,0,0:0:0:0:
64,192,87349,1,0,0:0:0:0:
192,192,87433,1,0,0:0:0:0:
320,192,87433,1,0,0:0:0:0:
192,192,87599,1,0,0:0:0:0:
448,192,87683,1,0,0:0:0:0:
64,192,87766,1,0,0:0:0:0:
320,192,87766,1,0,0:0:0:0:
448,192,88099,1,0,0:0:0:0:
64,192,88266,1,0,0:0:0:0:
320,192,88349,1,0,0:0:0:0:
64,192,88433,1,0,0:0:0:0:
192,192,88433,1,0,0:0:0:0:
448,192,88599,1,0,0:0:0:0:
320,192,88683,1,0,0:0:0:0:
64,192,88766,1,0,0:0:0:0:
192,192,88766,1,0,0:0:0:0:
320,192,88933,1,0,0:0:0:0:
448,192,89016,1,0,0:0:0:0:
64,192,89099,1,0,0:0:0:0:
192,192,89099,1,0,0:0:0:0:
320,192,89266,1,0,0:0:0:0:
192,192,89349,1,0,0:0:0:0:
320,192,89433,1,0,0:0:0:0:
448,192,89433,1,0,0:0:0:0:
64,192,89599,1,0,0:0:0:0:
320,192,89683,1,0,0:0:0:0:
64,192,89766,1,0,0:0:0:0:
192,192,89766,1,0,0:0:0:0:
448,192,89933,1,0,0:0:0:0:
320,192,90016,1,0,0:0:0:0:
192,192,90099,1,0,0:0:0:0:
448,192,90099,1,0,0:0:0:0:
64,192,90266,1,0,0:0:0:0:
320,192,90349,1,0,0:0:0:0:
192,192,90433,1,0,0:0:0:0:
448,192,90433,1,0,0:0:0:0:
320,192,90599,1,0,0:0:0:0:
192,192,90683,1,0,0:0:0:0:
448,192,90766,1,0,0:0:0:0:
320,192,90849,1,0,0:0:0:0:
320,192,90933,1,0,0:0:0:0:
320,192,91016,1,0,0:0:0:0:
320,192,91099,1,0,0:0:0:0:
320,192,91183,1,0,0:0:0:0:
320,192,91266,1,0,0:0:0:0:
320,192,91349,1,0,0:0:0:0:
192,192,91433,1,0,0:0:0:0:
192,192,91516,1,0,0:0:0:0:
192,192,91599,1,0,0:0:0:0:
192,192,91683,1,0,0:0:0:0:
320,192,91766,1,0,0:0:0:0:
320,192,91849,1,0,0:0:0:0:
320,192,91933,1,0,0:0:0:0:
320,192,92016,1,0,0:0:0:0:
192,192,92099,1,0,0:0:0:0:
64,192,92183,1,0,0:0:0:0:
64,192,92266,1,0,0:0:0:0:
64,192,92349,1,0,0:0:0:0:
64,192,92433,1,0,0:0:0:0:
64,192,92516,1,0,0:0:0:0:
64,192,92599,1,0,0:0:0:0:
64,192,92683,1,0,0:0:0:0:
448,192,92766,1,0,0:0:0:0:
448,192,92849,1,0,0:0:0:0:
448,192,92933,1,0,0:0:0:0:
448,192,93016,1,0,0:0:0:0:
192,192,93099,1,0,0:0:0:0:
192,192,93183,1,0,0:0:0:0:
192,192,93266,1,0,0:0:0:0:
192,192,93349,1,0,0:0:0:0:
320,192,93433,1,0,0:0:0:0:
64,192,93516,1,0,0:0:0:0:
64,192,93599,1,0,0:0:0:0:
64,192,93683,1,0,0:0:0:0:
64,192,93766,1,0,0:0:0:0:
64,192,93849,1,0,0:0:0:0:
64,192,93933,1,0,0:0:0:0:
64,192,94016,1,0,0:0:0:0:
192,192,94099,1,0,0:0:0:0:
192,192,94183,1,0,0:0:0:0:
192,192,94266,1,0,0:0:0:0:
192,192,94349,1,0,0:0:0:0:
320,192,94433,1,0,0:0:0:0:
320,192,94516,1,0,0:0:0:0:
320,192,94599,1,0,0:0:0:0:
320,192,94683,1,0,0:0:0:0:
448,192,94766,1,0,0:0:0:0:
64,192,94849,1,0,0:0:0:0:
64,192,94933,1,0,0:0:0:0:
64,192,95016,1,0,0:0:0:0:
64,192,95099,1,0,0:0:0:0:
64,192,95183,1,0,0:0:0:0:
64,192,95266,1,0,0:0:0:0:
64,192,95349,1,0,0:0:0:0:
320,192,95433,1,0,0:0:0:0:
320,192,95516,1,0,0:0:0:0:
320,192,95599,1,0,0:0:0:0:
320,192,95683,1,0,0:0:0:0:
192,192,95766,1,0,0:0:0:0:
192,192,95849,1,0,0:0:0:0:
192,192,95933,1,0,0:0:0:0:
192,192,96016,1,0,0:0:0:0:
64,192,96099,1,0,0:0:0:0:
192,192,96183,1,0,0:0:0:0:
192,192,96266,1,0,0:0:0:0:
192,192,96349,1,0,0:0:0:0:
192,192,96433,1,0,0:0:0:0:
192,192,96516,1,0,0:0:0:0:
192,192,96599,1,0,0:0:0:0:
192,192,96683,1,0,0:0:0:0:
320,192,96766,1,0,0:0:0:0:
320,192,96849,1,0,0:0:0:0:
320,192,96933,1,0,0:0:0:0:
320,192,97016,1,0,0:0:0:0:
192,192,97099,1,0,0:0:0:0:
192,192,97183,1,0,0:0:0:0:
192,192,97266,1,0,0:0:0:0:
192,192,97349,1,0,0:0:0:0:
320,192,97433,1,0,0:0:0:0:
448,192,97516,1,0,0:0:0:0:
448,192,97599,1,0,0:0:0:0:
448,192,97683,1,0,0:0:0:0:
448,192,97766,1,0,0:0:0:0:
448,192,97849,1,0,0:0:0:0:
448,192,97933,1,0,0:0:0:0:
448,192,98016,1,0,0:0:0:0:
64,192,98099,1,0,0:0:0:0:
64,192,98183,1,0,0:0:0:0:
64,192,98266,1,0,0:0:0:0:
64,192,98349,1,0,0:0:0:0:
320,192,98433,1,0,0:0:0:0:
320,192,98516,1,0,0:0:0:0:
320,192,98599,1,0,0:0:0:0:
320,192,98683,1,0,0:0:0:0:
192,192,98766,1,0,0:0:0:0:
448,192,98849,1,0,0:0:0:0:
448,192,98933,1,0,0:0:0:0:
448,192,99016,1,0,0:0:0:0:
320,192,99099,1,0,0:0:0:0:
192,192,99183,1,0,0:0:0:0:
192,192,99266,1,0,0:0:0:0:
192,192,99349,1,0,0:0:0:0:
320,192,99433,1,0,0:0:0:0:
448,192,99516,1,0,0:0:0:0:
448,192,99599,1,0,0:0:0:0:
448,192,99683,1,0,0:0:0:0:
64,192,99766,1,0,0:0:0:0:
192,192,99849,1,0,0:0:0:0:
192,192,99933,1,0,0:0:0:0:
192,192,100016,1,0,0:0:0:0:
64,192,100099,1,0,0:0:0:0:
448,192,100183,1,0,0:0:0:0:
448,192,100266,1,0,0:0:0:0:
448,192,100349,1,0,0:0:0:0:
192,192,100433,1,0,0:0:0:0:
320,192,100516,1,0,0:0:0:0:
320,192,100599,1,0,0:0:0:0:
320,192,100683,1,0,0:0:0:0:
192,192,100766,1,0,0:0:0:0:
448,192,100849,1,0,0:0:0:0:
448,192,100933,1,0,0:0:0:0:
448,192,101016,1,0,0:0:0:0:
320,192,101099,1,0,0:0:0:0:
192,192,101183,1,0,0:0:0:0:
192,192,101266,1,0,0:0:0:0:
64,192,101433,1,0,0:0:0:0:
192,192,101516,1,0,0:0:0:0:
192,192,101599,1,0,0:0:0:0:
192,192,101683,1,0,0:0:0:0:
192,192,101766,1,0,0:0:0:0:
192,192,101849,1,0,0:0:0:0:
192,192,101933,1,0,0:0:0:0:
192,192,102016,1,0,0:0:0:0:
320,192,102099,1,0,0:0:0:0:
320,192,102183,1,0,0:0:0:0:
320,192,102266,1,0,0:0:0:0:
320,192,102349,1,0,0:0:0:0:
192,192,102433,1,0,0:0:0:0:
192,192,102516,1,0,0:0:0:0:
192,192,102599,1,0,0:0:0:0:
192,192,102683,1,0,0:0:0:0:
320,192,102766,1,0,0:0:0:0:
448,192,102849,1,0,0:0:0:0:
448,192,102933,1,0,0:0:0:0:
448,192,103016,1,0,0:0:0:0:
448,192,103099,1,0,0:0:0:0:
448,192,103183,1,0,0:0:0:0:
448,192,103266,1,0,0:0:0:0:
448,192,103349,1,0,0:0:0:0:
64,192,103433,1,0,0:0:0:0:
64,192,103516,1,0,0:0:0:0:
64,192,103599,1,0,0:0:0:0:
64,192,103683,1,0,0:0:0:0:
320,192,103766,1,0,0:0:0:0:
320,192,103849,1,0,0:0:0:0:
320,192,103933,1,0,0:0:0:0:
320,192,104016,1,0,0:0:0:0:
192,192,104099,1,0,0:0:0:0:
448,192,104183,1,0,0:0:0:0:
448,192,104266,1,0,0:0:0:0:
448,192,104349,1,0,0:0:0:0:
448,192,104433,1,0,0:0:0:0:
448,192,104516,1,0,0:0:0:0:
448,192,104599,1,0,0:0:0:0:
448,192,104683,1,0,0:0:0:0:
320,192,104766,1,0,0:0:0:0:
320,192,104849,1,0,0:0:0:0:
320,192,104933,1,0,0:0:0:0:
320,192,105016,1,0,0:0:0:0:
192,192,105099,1,0,0:0:0:0:
192,192,105183,1,0,0:0:0:0:
192,192,105266,1,0,0:0:0:0:
192,192,105349,1,0,0:0:0:0:
64,192,105433,1,0,0:0:0:0:
448,192,105516,1,0,0:0:0:0:
448,192,105599,1,0,0:0:0:0:
448,192,105683,1,0,0:0:0:0:
448,192,105766,1,0,0:0:0:0:
448,192,105849,1,0,0:0:0:0:
448,192,105933,1,0,0:0:0:0:
448,192,106016,1,0,0:0:0:0:
192,192,106099,1,0,0:0:0:0:
192,192,106183,1,0,0:0:0:0:
192,192,106266,1,0,0:0:0:0:
192,192,106349,1,0,0:0:0:0:
320,192,106433,1,0,0:0:0:0:
320,192,106516,1,0,0:0:0:0:
320,192,106599,1,0,0:0:0:0:
320,192,106683,1,0,0:0:0:0:
448,192,106766,1,0,0:0:0:0:
320,192,106849,1,0,0:0:0:0:
320,192,106933,1,0,0:0:0:0:
320,192,107016,1,0,0:0:0:0:
320,192,107099,1,0,0:0:0:0:
320,192,107183,1,0,0:0:0:0:
320,192,107266,1,0,0:0:0:0:
320,192,107349,1,0,0:0:0:0:
192,192,107433,1,0,0:0:0:0:
192,192,107516,1,0,0:0:0:0:
192,192,107599,1,0,0:0:0:0:
192,192,107683,1,0,0:0:0:0:
320,192,107766,1,0,0:0:0:0:
320,192,107849,1,0,0:0:0:0:
320,192,107933,1,0,0:0:0:0:
320,192,108016,1,0,0:0:0:0:
192,192,108099,1,0,0:0:0:0:
64,192,108183,1,0,0:0:0:0:
64,192,108266,1,0,0:0:0:0:
64,192,108349,1,0,0:0:0:0:
64,192,108433,1,0,0:0:0:0:
64,192,108516,1,0,0:0:0:0:
64,192,108599,1,0,0:0:0:0:
64,192,108683,1,0,0:0:0:0:
448,192,108766,1,0,0:0:0:0:
448,192,108849,1,0,0:0:0:0:
448,192,108933,1,0,0:0:0:0:
448,192,109016,1,0,0:0:0:0:
192,192,109099,1,0,0:0:0:0:
192,192,109183,1,0,0:0:0:0:
192,192,109266,1,0,0:0:0:0:
192,192,109349,1,0,0:0:0:0:
320,192,109433,1,0,0:0:0:0:
64,192,109516,1,0,0:0:0:0:
64,192,109599,1,0,0:0:0:0:
64,192,109683,1,0,0:0:0:0:
192,192,109766,1,0,0:0:0:0:
320,192,109849,1,0,0:0:0:0:
320,192,109933,1,0,0:0:0:0:
320,192,110016,1,0,0:0:0:0:
192,192,110099,1,0,0:0:0:0:
64,192,110183,1,0,0:0:0:0:
64,192,110266,1,0,0:0:0:0:
64,192,110349,1,0,0:0:0:0:
448,192,110433,1,0,0:0:0:0:
320,192,110516,1,0,0:0:0:0:
320,192,110599,1,0,0:0:0:0:
320,192,110683,1,0,0:0:0:0:
448,192,110766,1,0,0:0:0:0:
64,192,110849,1,0,0:0:0:0:
64,192,110933,1,0,0:0:0:0:
64,192,111016,1,0,0:0:0:0:
320,192,111099,1,0,0:0:0:0:
192,192,111183,1,0,0:0:0:0:
192,192,111266,1,0,0:0:0:0:
192,192,111349,1,0,0:0:0:0:
320,192,111433,1,0,0:0:0:0:
64,192,111516,1,0,0:0:0:0:
64,192,111599,1,0,0:0:0:0:
64,192,111683,1,0,0:0:0:0:
192,192,111766,1,0,0:0:0:0:
320,192,111849,1,0,0:0:0:0:
320,192,111933,1,0,0:0:0:0:
192,192,112099,1,0,0:0:0:0:
448,192,112099,1,0,0:0:0:0:
320,192,112433,1,0,0:0:0:0:
448,192,112433,1,0,0:0:0:0:
64,192,112766,1,0,0:0:0:0:
192,192,112766,1,0,0:0:0:0:
64,192,113099,1,0,0:0:0:0:
320,192,113099,1,0,0:0:0:0:
192,192,113433,1,0,0:0:0:0:
448,192,113433,1,0,0:0:0:0:
320,192,113766,1,0,0:0:0:0:
448,192,113766,1,0,0:0:0:0:
64,192,114099,1,0,0:0:0:0:
192,192,114099,1,0,0:0:0:0:
64,192,114433,1,0,0:0:0:0:
448,192,114433,1,0,0:0:0:0:
192,192,114766,1,0,0:0:0:0:
448,192,114766,1,0,0:0:0:0:
320,192,115099,1,0,0:0:0:0:
448,192,115099,1,0,0:0:0:0:
64,192,115433,1,0,0:0:0:0:
320,192,115433,1,0,0:0:0:0:
64,192,115766,1,0,0:0:0:0:
192,192,115766,1,0,0:0:0:0:
192,192,116099,1,0,0:0:0:0:
448,192,116099,1,0,0:0:0:0:
64,192,116433,1,0,0:0:0:0:
320,192,116433,1,0,0:0:0:0:
192,192,116766,1,0,0:0:0:0:
448,192,116766,1,0,0:0:0:0:
64,192,117099,1,0,0:0:0:0:
448,192,117099,1,0,0:0:0:0:
