osu file format v13

[General]
AudioFilename: RedSign.mp3
AudioLeadIn: 2
PreviewTime: 79980
Countdown: 0
SampleSet: None
StackLeniency: 0.7
Mode: 3
LetterboxInBreaks: 0
SpecialStyle: 0
WidescreenStoryboard: 0

[Editor]
DistanceSpacing: 0.8
BeatDivisor: 4
GridSize: 8
TimelineZoom: 1

[Metadata]
Title:4K Challenge Pack
TitleUnicode:4K Challenge Pack
Artist:xeona
ArtistUnicode:xeona
Creator:Anoex
Version:Kevin.o2SE---Red Sign
Source:
Tags:
BeatmapID:470545
BeatmapSetID:198334

[Difficulty]
HPDrainRate:7
CircleSize:4
OverallDifficulty:7
ApproachRate:10
SliderMultiplier:1.4
SliderTickRate:1

[Events]
//Background and Video events
0,0,"RedSign.jpg",0,0
//Break Periods
//Storyboard Layer 0 (Background)
//Storyboard Layer 1 (Fail)
//Storyboard Layer 2 (Pass)
//Storyboard Layer 3 (Foreground)
//Storyboard Sound Samples
//Background Colour Transformations
3,100,163,162,255

[TimingPoints]
2645,750,4,2,0,15,1,0
27020,400,4,2,0,15,1,0

[HitObjects]
192,192,2645,5,0,0:0:0:0:
320,192,2832,1,0,0:0:0:0:
64,192,3020,1,0,0:0:0:0:
448,0,3020,128,0,4332:1:0:0:0:
192,192,3395,1,0,0:0:0:0:
64,192,3770,1,0,0:0:0:0:
192,192,4145,1,0,0:0:0:0:
320,0,4520,128,0,5832:1:0:0:0:
64,192,5645,1,0,0:0:0:0:
192,192,5832,1,0,0:0:0:0:
64,192,6020,1,0,0:0:0:0:
448,192,6020,1,0,0:0:0:0:
320,192,6395,1,0,0:0:0:0:
448,192,6770,1,0,0:0:0:0:
64,0,6770,128,0,8270:1:0:0:0:
320,192,7145,1,0,0:0:0:0:
448,0,7520,128,0,8832:1:0:0:0:
192,192,8457,1,0,0:0:0:0:
64,192,8645,1,0,0:0:0:0:
192,192,8832,1,0,0:0:0:0:
64,192,9020,1,0,0:0:0:0:
320,0,9020,128,0,10332:1:0:0:0:
192,192,9395,1,0,0:0:0:0:
64,192,9770,1,0,0:0:0:0:
192,192,10145,1,0,0:0:0:0:
64,0,10520,128,0,11832:1:0:0:0:
448,192,11457,1,0,0:0:0:0:
320,192,11645,1,0,0:0:0:0:
448,192,11832,1,0,0:0:0:0:
192,192,12020,1,0,0:0:0:0:
320,0,12020,128,0,13332:1:0:0:0:
64,192,12395,1,0,0:0:0:0:
192,192,12770,1,0,0:0:0:0:
64,192,13145,1,0,0:0:0:0:
448,192,13520,1,0,0:0:0:0:
64,0,13520,128,0,14832:1:0:0:0:
320,192,13895,1,0,0:0:0:0:
448,192,14270,1,0,0:0:0:0:
320,192,14457,1,0,0:0:0:0:
448,192,14645,1,0,0:0:0:0:
320,192,14832,1,0,0:0:0:0:
192,192,15020,1,0,0:0:0:0:
448,0,15020,128,0,17832:1:0:0:0:
64,192,15395,1,0,0:0:0:0:
192,192,15770,1,0,0:0:0:0:
64,192,16145,1,0,0:0:0:0:
192,0,16520,128,0,17457:1:0:0:0:
64,192,17645,1,0,0:0:0:0:
192,192,17832,1,0,0:0:0:0:
64,192,18020,1,0,0:0:0:0:
320,192,18020,1,0,0:0:0:0:
192,192,18395,1,0,0:0:0:0:
64,192,18770,1,0,0:0:0:0:
192,192,19145,1,0,0:0:0:0:
448,0,19520,128,0,20270:1:0:0:0:
192,0,19520,128,0,20832:1:0:0:0:
320,192,20457,1,0,0:0:0:0:
448,192,20645,1,0,0:0:0:0:
320,192,20832,1,0,0:0:0:0:
64,192,21020,1,0,0:0:0:0:
448,0,21020,128,0,21582:1:0:0:0:
192,192,21395,1,0,0:0:0:0:
320,192,21770,1,0,0:0:0:0:
64,192,22145,1,0,0:0:0:0:
448,192,22332,1,0,0:0:0:0:
192,192,22520,1,0,0:0:0:0:
320,192,22520,1,0,0:0:0:0:
64,192,22895,1,0,0:0:0:0:
192,192,23270,1,0,0:0:0:0:
448,192,23270,1,0,0:0:0:0:
320,192,23645,1,0,0:0:0:0:
192,192,23832,1,0,0:0:0:0:
320,192,24020,1,0,0:0:0:0:
64,0,24020,128,0,27320:1:0:0:0:
448,192,24395,1,0,0:0:0:0:
320,192,24770,1,0,0:0:0:0:
448,192,25145,1,0,0:0:0:0:
320,0,25520,128,0,28320:1:0:0:0:
192,192,27420,1,0,0:0:0:0:
448,192,28420,1,0,0:0:0:0:
64,192,28520,1,0,0:0:0:0:
192,192,28620,1,0,0:0:0:0:
320,192,28620,1,0,0:0:0:0:
192,192,28820,1,0,0:0:0:0:
448,192,28820,1,0,0:0:0:0:
64,192,29020,1,0,0:0:0:0:
320,192,29020,1,0,0:0:0:0:
192,192,29220,1,0,0:0:0:0:
320,192,29220,1,0,0:0:0:0:
192,192,29420,1,0,0:0:0:0:
448,192,29420,1,0,0:0:0:0:
192,192,29620,1,0,0:0:0:0:
320,192,29620,1,0,0:0:0:0:
64,192,29820,1,0,0:0:0:0:
320,192,29820,1,0,0:0:0:0:
192,192,30020,1,0,0:0:0:0:
320,192,30020,1,0,0:0:0:0:
64,192,30220,1,0,0:0:0:0:
448,192,30220,1,0,0:0:0:0:
192,192,30420,1,0,0:0:0:0:
448,192,30420,1,0,0:0:0:0:
64,192,30620,1,0,0:0:0:0:
448,192,30620,1,0,0:0:0:0:
64,192,30820,1,0,0:0:0:0:
320,192,30820,1,0,0:0:0:0:
192,192,31020,1,0,0:0:0:0:
448,192,31020,1,0,0:0:0:0:
64,192,31120,1,0,0:0:0:0:
320,192,31120,1,0,0:0:0:0:
192,192,31220,1,0,0:0:0:0:
448,192,31220,1,0,0:0:0:0:
64,192,31320,1,0,0:0:0:0:
320,192,31320,1,0,0:0:0:0:
192,192,31420,1,0,0:0:0:0:
448,192,31420,1,0,0:0:0:0:
64,192,31520,1,0,0:0:0:0:
320,192,31520,1,0,0:0:0:0:
192,192,31620,1,0,0:0:0:0:
448,192,31620,1,0,0:0:0:0:
64,192,31720,1,0,0:0:0:0:
320,192,31720,1,0,0:0:0:0:
192,192,31820,1,0,0:0:0:0:
448,192,31820,1,0,0:0:0:0:
192,192,32020,1,0,0:0:0:0:
320,192,32020,1,0,0:0:0:0:
64,192,32220,1,0,0:0:0:0:
448,192,32220,1,0,0:0:0:0:
64,192,32420,1,0,0:0:0:0:
320,192,32420,1,0,0:0:0:0:
192,192,32620,1,0,0:0:0:0:
448,192,32620,1,0,0:0:0:0:
192,192,32820,1,0,0:0:0:0:
320,192,32820,1,0,0:0:0:0:
64,192,33020,1,0,0:0:0:0:
448,192,33020,1,0,0:0:0:0:
192,192,33220,1,0,0:0:0:0:
448,192,33220,1,0,0:0:0:0:
192,192,33420,1,0,0:0:0:0:
320,192,33420,1,0,0:0:0:0:
64,192,33620,1,0,0:0:0:0:
320,192,33620,1,0,0:0:0:0:
192,192,33820,1,0,0:0:0:0:
320,192,33820,1,0,0:0:0:0:
192,192,34020,1,0,0:0:0:0:
448,192,34020,1,0,0:0:0:0:
64,192,34220,1,0,0:0:0:0:
320,192,34220,1,0,0:0:0:0:
192,192,34320,1,0,0:0:0:0:
448,192,34320,1,0,0:0:0:0:
64,192,34420,1,0,0:0:0:0:
320,192,34420,1,0,0:0:0:0:
192,192,34520,1,0,0:0:0:0:
448,192,34520,1,0,0:0:0:0:
64,192,34620,1,0,0:0:0:0:
320,192,34620,1,0,0:0:0:0:
192,192,34720,1,0,0:0:0:0:
448,192,34720,1,0,0:0:0:0:
64,192,34820,1,0,0:0:0:0:
320,192,34820,1,0,0:0:0:0:
192,192,34920,1,0,0:0:0:0:
448,192,34920,1,0,0:0:0:0:
64,192,35020,1,0,0:0:0:0:
320,192,35020,1,0,0:0:0:0:
192,192,35220,1,0,0:0:0:0:
448,192,35220,1,0,0:0:0:0:
192,192,35420,1,0,0:0:0:0:
320,192,35420,1,0,0:0:0:0:
192,192,35620,1,0,0:0:0:0:
448,192,35620,1,0,0:0:0:0:
64,192,35820,1,0,0:0:0:0:
448,192,35820,1,0,0:0:0:0:
192,192,36020,1,0,0:0:0:0:
320,192,36020,1,0,0:0:0:0:
192,192,36220,1,0,0:0:0:0:
448,192,36220,1,0,0:0:0:0:
192,192,36420,1,0,0:0:0:0:
320,192,36420,1,0,0:0:0:0:
192,192,36620,1,0,0:0:0:0:
448,192,36620,1,0,0:0:0:0:
192,192,36820,1,0,0:0:0:0:
320,192,36820,1,0,0:0:0:0:
64,192,37020,1,0,0:0:0:0:
320,192,37020,1,0,0:0:0:0:
192,192,37220,1,0,0:0:0:0:
320,192,37220,1,0,0:0:0:0:
64,192,37420,1,0,0:0:0:0:
320,192,37420,1,0,0:0:0:0:
192,192,37620,1,0,0:0:0:0:
320,192,37620,1,0,0:0:0:0:
192,192,37820,1,0,0:0:0:0:
448,192,37820,1,0,0:0:0:0:
192,192,38020,1,0,0:0:0:0:
320,192,38020,1,0,0:0:0:0:
64,192,38220,1,0,0:0:0:0:
448,192,38220,1,0,0:0:0:0:
192,192,38320,1,0,0:0:0:0:
320,192,38320,1,0,0:0:0:0:
64,192,38420,1,0,0:0:0:0:
192,192,38520,1,0,0:0:0:0:
320,192,38520,1,0,0:0:0:0:
64,192,38620,1,0,0:0:0:0:
448,192,38620,1,0,0:0:0:0:
192,192,38720,1,0,0:0:0:0:
320,192,38720,1,0,0:0:0:0:
448,192,38820,1,0,0:0:0:0:
192,192,38920,1,0,0:0:0:0:
320,192,38920,1,0,0:0:0:0:
64,192,39020,1,0,0:0:0:0:
192,192,39120,1,0,0:0:0:0:
448,192,39120,1,0,0:0:0:0:
64,192,39220,1,0,0:0:0:0:
320,192,39220,1,0,0:0:0:0:
192,192,39320,1,0,0:0:0:0:
448,192,39320,1,0,0:0:0:0:
64,192,39420,1,0,0:0:0:0:
320,192,39420,1,0,0:0:0:0:
192,192,39520,1,0,0:0:0:0:
448,192,39520,1,0,0:0:0:0:
320,192,39620,1,0,0:0:0:0:
192,192,39720,1,0,0:0:0:0:
448,192,39720,1,0,0:0:0:0:
64,192,39820,1,0,0:0:0:0:
320,192,39820,1,0,0:0:0:0:
192,192,39920,1,0,0:0:0:0:
448,192,39920,1,0,0:0:0:0:
64,192,40020,1,0,0:0:0:0:
320,192,40020,1,0,0:0:0:0:
192,192,40120,1,0,0:0:0:0:
448,192,40120,1,0,0:0:0:0:
64,192,40220,1,0,0:0:0:0:
320,192,40220,1,0,0:0:0:0:
192,192,40320,1,0,0:0:0:0:
448,192,40320,1,0,0:0:0:0:
320,192,40420,1,0,0:0:0:0:
64,192,40520,1,0,0:0:0:0:
448,192,40520,1,0,0:0:0:0:
192,192,40620,1,0,0:0:0:0:
320,192,40620,1,0,0:0:0:0:
448,192,40720,1,0,0:0:0:0:
64,192,40820,1,0,0:0:0:0:
320,192,40820,1,0,0:0:0:0:
192,192,40920,1,0,0:0:0:0:
448,192,40920,1,0,0:0:0:0:
64,192,41020,1,0,0:0:0:0:
320,192,41020,1,0,0:0:0:0:
192,192,41120,1,0,0:0:0:0:
448,192,41120,1,0,0:0:0:0:
64,192,41220,1,0,0:0:0:0:
320,192,41220,1,0,0:0:0:0:
192,192,41320,1,0,0:0:0:0:
448,192,41320,1,0,0:0:0:0:
64,192,41420,1,0,0:0:0:0:
320,192,41420,1,0,0:0:0:0:
448,192,41820,1,0,0:0:0:0:
192,192,42220,1,0,0:0:0:0:
320,192,42220,1,0,0:0:0:0:
448,192,42620,1,0,0:0:0:0:
192,192,43020,1,0,0:0:0:0:
320,192,43020,1,0,0:0:0:0:
448,192,43420,1,0,0:0:0:0:
64,192,43820,1,0,0:0:0:0:
320,192,43820,1,0,0:0:0:0:
448,192,44220,1,0,0:0:0:0:
320,192,44420,1,0,0:0:0:0:
64,192,44620,1,0,0:0:0:0:
448,192,44620,1,0,0:0:0:0:
320,192,44720,1,0,0:0:0:0:
192,192,44820,1,0,0:0:0:0:
320,192,44920,1,0,0:0:0:0:
64,192,45020,1,0,0:0:0:0:
448,192,45020,1,0,0:0:0:0:
192,192,45120,1,0,0:0:0:0:
320,192,45220,1,0,0:0:0:0:
192,192,45320,1,0,0:0:0:0:
448,192,45320,1,0,0:0:0:0:
64,192,45420,1,0,0:0:0:0:
192,192,45520,1,0,0:0:0:0:
320,192,45620,1,0,0:0:0:0:
192,192,45720,1,0,0:0:0:0:
64,192,45820,1,0,0:0:0:0:
448,192,45820,1,0,0:0:0:0:
192,192,45920,1,0,0:0:0:0:
64,192,46020,1,0,0:0:0:0:
320,192,46020,1,0,0:0:0:0:
448,192,46120,1,0,0:0:0:0:
64,192,46220,1,0,0:0:0:0:
320,192,46220,1,0,0:0:0:0:
192,192,46320,1,0,0:0:0:0:
320,192,46420,1,0,0:0:0:0:
192,192,46520,1,0,0:0:0:0:
64,192,46620,1,0,0:0:0:0:
448,192,46620,1,0,0:0:0:0:
320,192,46720,1,0,0:0:0:0:
192,192,46820,1,0,0:0:0:0:
448,192,46820,1,0,0:0:0:0:
64,192,46920,1,0,0:0:0:0:
320,192,46920,1,0,0:0:0:0:
192,192,47020,1,0,0:0:0:0:
448,192,47020,1,0,0:0:0:0:
320,192,47120,1,0,0:0:0:0:
64,192,47220,1,0,0:0:0:0:
448,192,47220,1,0,0:0:0:0:
320,192,47320,1,0,0:0:0:0:
192,192,47420,1,0,0:0:0:0:
448,192,47420,1,0,0:0:0:0:
320,192,47520,1,0,0:0:0:0:
64,192,47620,1,0,0:0:0:0:
448,192,47620,1,0,0:0:0:0:
192,192,47720,1,0,0:0:0:0:
64,192,47820,1,0,0:0:0:0:
448,192,47820,1,0,0:0:0:0:
192,192,47920,1,0,0:0:0:0:
320,192,48020,1,0,0:0:0:0:
64,192,48120,1,0,0:0:0:0:
192,192,48220,1,0,0:0:0:0:
320,192,48220,1,0,0:0:0:0:
448,192,48320,1,0,0:0:0:0:
192,192,48420,1,0,0:0:0:0:
320,192,48420,1,0,0:0:0:0:
64,192,48520,1,0,0:0:0:0:
448,192,48520,1,0,0:0:0:0:
320,192,48620,1,0,0:0:0:0:
192,192,48720,1,0,0:0:0:0:
64,192,48820,1,0,0:0:0:0:
320,192,48820,1,0,0:0:0:0:
448,192,48920,1,0,0:0:0:0:
192,192,49020,1,0,0:0:0:0:
320,192,49020,1,0,0:0:0:0:
64,192,49120,1,0,0:0:0:0:
192,192,49220,1,0,0:0:0:0:
320,192,49220,1,0,0:0:0:0:
448,192,49320,1,0,0:0:0:0:
64,192,49420,1,0,0:0:0:0:
320,192,49420,1,0,0:0:0:0:
448,192,49520,1,0,0:0:0:0:
64,192,49620,1,0,0:0:0:0:
448,192,49720,1,0,0:0:0:0:
192,192,49820,1,0,0:0:0:0:
320,192,49820,1,0,0:0:0:0:
448,192,49920,1,0,0:0:0:0:
64,192,50020,1,0,0:0:0:0:
320,192,50020,1,0,0:0:0:0:
448,192,50120,1,0,0:0:0:0:
192,192,50220,1,0,0:0:0:0:
320,192,50220,1,0,0:0:0:0:
64,192,50320,1,0,0:0:0:0:
192,192,50420,1,0,0:0:0:0:
448,192,50420,1,0,0:0:0:0:
320,192,50520,1,0,0:0:0:0:
192,192,50620,1,0,0:0:0:0:
448,192,50620,1,0,0:0:0:0:
320,192,50720,1,0,0:0:0:0:
64,192,50820,1,0,0:0:0:0:
448,192,50820,1,0,0:0:0:0:
192,192,50920,1,0,0:0:0:0:
320,192,50920,1,0,0:0:0:0:
64,192,51020,1,0,0:0:0:0:
192,192,51120,1,0,0:0:0:0:
448,192,51120,1,0,0:0:0:0:
64,192,51220,1,0,0:0:0:0:
320,192,51220,1,0,0:0:0:0:
192,192,51320,1,0,0:0:0:0:
448,192,51320,1,0,0:0:0:0:
320,192,51420,1,0,0:0:0:0:
192,192,51520,1,0,0:0:0:0:
448,192,51520,1,0,0:0:0:0:
64,192,51620,1,0,0:0:0:0:
320,192,51620,1,0,0:0:0:0:
192,192,51720,1,0,0:0:0:0:
448,192,51720,1,0,0:0:0:0:
320,192,51820,1,0,0:0:0:0:
192,192,51920,1,0,0:0:0:0:
64,192,52020,1,0,0:0:0:0:
320,192,52020,1,0,0:0:0:0:
448,192,52120,1,0,0:0:0:0:
192,192,52220,1,0,0:0:0:0:
320,192,52220,1,0,0:0:0:0:
64,192,52320,1,0,0:0:0:0:
192,192,52420,1,0,0:0:0:0:
448,192,52420,1,0,0:0:0:0:
320,192,52520,1,0,0:0:0:0:
64,192,52620,1,0,0:0:0:0:
448,192,52620,1,0,0:0:0:0:
192,192,52720,1,0,0:0:0:0:
64,192,52820,1,0,0:0:0:0:
320,192,52820,1,0,0:0:0:0:
192,192,52920,1,0,0:0:0:0:
448,192,52920,1,0,0:0:0:0:
64,192,53020,1,0,0:0:0:0:
192,192,53120,1,0,0:0:0:0:
320,192,53120,1,0,0:0:0:0:
64,192,53220,1,0,0:0:0:0:
448,192,53220,1,0,0:0:0:0:
192,192,53320,1,0,0:0:0:0:
320,192,53320,1,0,0:0:0:0:
64,192,53420,1,0,0:0:0:0:
448,192,53420,1,0,0:0:0:0:
192,192,53520,1,0,0:0:0:0:
320,192,53620,1,0,0:0:0:0:
192,192,53720,1,0,0:0:0:0:
448,192,53720,1,0,0:0:0:0:
320,192,53820,1,0,0:0:0:0:
192,192,53920,1,0,0:0:0:0:
448,192,53920,1,0,0:0:0:0:
64,192,54020,1,0,0:0:0:0:
320,192,54020,1,0,0:0:0:0:
192,192,54120,1,0,0:0:0:0:
448,192,54120,1,0,0:0:0:0:
64,192,54220,1,0,0:0:0:0:
320,192,54220,1,0,0:0:0:0:
192,192,54320,1,0,0:0:0:0:
64,192,54420,1,0,0:0:0:0:
320,192,54420,1,0,0:0:0:0:
192,192,54520,1,0,0:0:0:0:
448,192,54520,1,0,0:0:0:0:
320,192,54620,1,0,0:0:0:0:
192,192,54720,1,0,0:0:0:0:
448,192,54720,1,0,0:0:0:0:
64,192,54820,1,0,0:0:0:0:
320,192,54820,1,0,0:0:0:0:
192,192,54920,1,0,0:0:0:0:
64,192,55020,1,0,0:0:0:0:
320,192,55020,1,0,0:0:0:0:
192,192,55120,1,0,0:0:0:0:
448,192,55120,1,0,0:0:0:0:
320,192,55220,1,0,0:0:0:0:
192,192,55320,1,0,0:0:0:0:
448,192,55320,1,0,0:0:0:0:
64,192,55420,1,0,0:0:0:0:
320,192,55420,1,0,0:0:0:0:
192,192,55520,1,0,0:0:0:0:
448,192,55520,1,0,0:0:0:0:
64,192,55620,1,0,0:0:0:0:
320,192,55620,1,0,0:0:0:0:
192,192,55720,1,0,0:0:0:0:
448,192,55720,1,0,0:0:0:0:
64,192,55820,1,0,0:0:0:0:
320,192,55820,1,0,0:0:0:0:
192,192,55920,1,0,0:0:0:0:
64,192,56020,1,0,0:0:0:0:
320,192,56020,1,0,0:0:0:0:
192,192,56120,1,0,0:0:0:0:
448,192,56120,1,0,0:0:0:0:
320,192,56220,1,0,0:0:0:0:
192,192,56320,1,0,0:0:0:0:
448,192,56320,1,0,0:0:0:0:
64,192,56420,1,0,0:0:0:0:
320,192,56420,1,0,0:0:0:0:
192,192,56520,1,0,0:0:0:0:
64,192,56620,1,0,0:0:0:0:
320,192,56620,1,0,0:0:0:0:
192,192,56720,1,0,0:0:0:0:
448,192,56720,1,0,0:0:0:0:
320,192,56820,1,0,0:0:0:0:
192,192,56920,1,0,0:0:0:0:
448,192,56920,1,0,0:0:0:0:
64,192,57020,1,0,0:0:0:0:
320,192,57020,1,0,0:0:0:0:
192,192,57120,1,0,0:0:0:0:
448,192,57120,1,0,0:0:0:0:
64,192,57220,1,0,0:0:0:0:
320,192,57220,1,0,0:0:0:0:
192,192,57320,1,0,0:0:0:0:
64,192,57420,1,0,0:0:0:0:
320,192,57420,1,0,0:0:0:0:
448,192,57520,1,0,0:0:0:0:
192,192,57620,1,0,0:0:0:0:
320,192,57720,1,0,0:0:0:0:
64,192,57820,1,0,0:0:0:0:
448,192,57820,1,0,0:0:0:0:
192,192,57920,1,0,0:0:0:0:
64,192,58020,1,0,0:0:0:0:
448,192,58020,1,0,0:0:0:0:
192,192,58120,1,0,0:0:0:0:
320,192,58120,1,0,0:0:0:0:
64,192,58220,1,0,0:0:0:0:
192,192,58320,1,0,0:0:0:0:
64,192,58420,1,0,0:0:0:0:
320,192,58420,1,0,0:0:0:0:
448,192,58520,1,0,0:0:0:0:
192,192,58620,1,0,0:0:0:0:
320,192,58620,1,0,0:0:0:0:
64,192,58720,1,0,0:0:0:0:
192,192,58820,1,0,0:0:0:0:
448,192,58820,1,0,0:0:0:0:
320,192,58920,1,0,0:0:0:0:
64,192,59020,1,0,0:0:0:0:
448,192,59020,1,0,0:0:0:0:
192,192,59120,1,0,0:0:0:0:
64,192,59220,1,0,0:0:0:0:
448,192,59320,1,0,0:0:0:0:
192,192,59420,1,0,0:0:0:0:
320,192,59420,1,0,0:0:0:0:
448,192,59520,1,0,0:0:0:0:
64,192,59620,1,0,0:0:0:0:
320,192,59620,1,0,0:0:0:0:
192,192,59720,1,0,0:0:0:0:
448,192,59720,1,0,0:0:0:0:
64,192,59820,1,0,0:0:0:0:
320,192,59820,1,0,0:0:0:0:
192,192,59920,1,0,0:0:0:0:
64,192,60020,1,0,0:0:0:0:
320,192,60020,1,0,0:0:0:0:
448,192,60120,1,0,0:0:0:0:
192,192,60220,1,0,0:0:0:0:
320,192,60220,1,0,0:0:0:0:
448,192,60320,1,0,0:0:0:0:
64,192,60420,1,0,0:0:0:0:
320,192,60420,1,0,0:0:0:0:
192,192,60520,1,0,0:0:0:0:
448,192,60520,1,0,0:0:0:0:
64,192,60620,1,0,0:0:0:0:
320,192,60620,1,0,0:0:0:0:
448,192,60720,1,0,0:0:0:0:
192,192,60820,1,0,0:0:0:0:
64,192,60920,1,0,0:0:0:0:
192,192,61020,1,0,0:0:0:0:
320,192,61020,1,0,0:0:0:0:
448,192,61120,1,0,0:0:0:0:
64,192,61220,1,0,0:0:0:0:
320,192,61220,1,0,0:0:0:0:
192,192,61320,1,0,0:0:0:0:
448,192,61320,1,0,0:0:0:0:
64,192,61420,1,0,0:0:0:0:
448,192,61520,1,0,0:0:0:0:
64,192,61620,1,0,0:0:0:0:
320,192,61620,1,0,0:0:0:0:
448,192,61720,1,0,0:0:0:0:
192,192,61820,1,0,0:0:0:0:
320,192,61820,1,0,0:0:0:0:
64,192,61920,1,0,0:0:0:0:
192,192,62020,1,0,0:0:0:0:
448,192,62020,1,0,0:0:0:0:
320,192,62120,1,0,0:0:0:0:
192,192,62220,1,0,0:0:0:0:
448,192,62220,1,0,0:0:0:0:
320,192,62320,1,0,0:0:0:0:
64,192,62420,1,0,0:0:0:0:
448,192,62520,1,0,0:0:0:0:
192,192,62620,1,0,0:0:0:0:
320,192,62620,1,0,0:0:0:0:
448,192,62720,1,0,0:0:0:0:
64,192,62820,1,0,0:0:0:0:
320,192,62820,1,0,0:0:0:0:
192,192,62920,1,0,0:0:0:0:
448,192,62920,1,0,0:0:0:0:
64,192,63020,1,0,0:0:0:0:
320,192,63020,1,0,0:0:0:0:
192,192,63120,1,0,0:0:0:0:
64,192,63220,1,0,0:0:0:0:
448,192,63220,1,0,0:0:0:0:
320,192,63320,1,0,0:0:0:0:
192,192,63420,1,0,0:0:0:0:
448,192,63420,1,0,0:0:0:0:
320,192,63520,1,0,0:0:0:0:
64,192,63620,1,0,0:0:0:0:
448,192,63620,1,0,0:0:0:0:
192,192,63720,1,0,0:0:0:0:
320,192,63720,1,0,0:0:0:0:
64,192,63820,1,0,0:0:0:0:
448,192,63820,1,0,0:0:0:0:
192,192,63920,1,0,0:0:0:0:
320,192,63920,1,0,0:0:0:0:
64,192,64020,1,0,0:0:0:0:
192,192,64120,1,0,0:0:0:0:
320,192,64120,1,0,0:0:0:0:
64,192,64220,1,0,0:0:0:0:
448,192,64220,1,0,0:0:0:0:
192,192,64320,1,0,0:0:0:0:
320,192,64320,1,0,0:0:0:0:
448,192,64420,1,0,0:0:0:0:
192,192,64520,1,0,0:0:0:0:
320,192,64520,1,0,0:0:0:0:
192,192,64620,1,0,0:0:0:0:
320,192,64620,1,0,0:0:0:0:
64,192,64720,1,0,0:0:0:0:
192,192,64820,1,0,0:0:0:0:
320,192,64820,1,0,0:0:0:0:
64,192,64920,1,0,0:0:0:0:
448,192,64920,1,0,0:0:0:0:
320,192,65020,1,0,0:0:0:0:
192,192,65120,1,0,0:0:0:0:
64,192,65220,1,0,0:0:0:0:
448,192,65220,1,0,0:0:0:0:
192,192,65320,1,0,0:0:0:0:
320,192,65320,1,0,0:0:0:0:
64,192,65420,1,0,0:0:0:0:
448,192,65420,1,0,0:0:0:0:
192,192,65520,1,0,0:0:0:0:
320,192,65520,1,0,0:0:0:0:
64,192,65620,1,0,0:0:0:0:
448,192,65620,1,0,0:0:0:0:
320,192,65720,1,0,0:0:0:0:
64,192,65820,1,0,0:0:0:0:
448,192,65820,1,0,0:0:0:0:
192,192,65920,1,0,0:0:0:0:
320,192,65920,1,0,0:0:0:0:
64,192,66020,1,0,0:0:0:0:
448,192,66020,1,0,0:0:0:0:
320,192,66120,1,0,0:0:0:0:
64,192,66220,1,0,0:0:0:0:
192,192,66320,1,0,0:0:0:0:
448,192,66320,1,0,0:0:0:0:
64,192,66420,1,0,0:0:0:0:
448,192,66420,1,0,0:0:0:0:
320,192,66520,1,0,0:0:0:0:
192,192,66620,1,0,0:0:0:0:
64,192,66720,1,0,0:0:0:0:
320,192,66720,1,0,0:0:0:0:
192,192,66820,1,0,0:0:0:0:
448,192,66820,1,0,0:0:0:0:
320,192,66920,1,0,0:0:0:0:
192,192,67020,1,0,0:0:0:0:
448,192,67020,1,0,0:0:0:0:
64,192,67120,1,0,0:0:0:0:
320,192,67120,1,0,0:0:0:0:
192,192,67220,1,0,0:0:0:0:
448,192,67220,1,0,0:0:0:0:
320,192,67320,1,0,0:0:0:0:
64,192,67420,1,0,0:0:0:0:
448,192,67420,1,0,0:0:0:0:
192,192,67520,1,0,0:0:0:0:
320,192,67520,1,0,0:0:0:0:
64,192,67620,1,0,0:0:0:0:
448,192,67620,1,0,0:0:0:0:
192,192,67720,1,0,0:0:0:0:
64,192,67820,1,0,0:0:0:0:
448,192,67820,1,0,0:0:0:0:
320,192,67920,1,0,0:0:0:0:
192,192,68020,1,0,0:0:0:0:
448,192,68020,1,0,0:0:0:0:
320,192,68120,1,0,0:0:0:0:
64,192,68220,1,0,0:0:0:0:
448,192,68220,1,0,0:0:0:0:
192,192,68320,1,0,0:0:0:0:
320,192,68320,1,0,0:0:0:0:
64,192,68420,1,0,0:0:0:0:
448,192,68420,1,0,0:0:0:0:
320,192,68520,1,0,0:0:0:0:
192,192,68620,1,0,0:0:0:0:
448,192,68620,1,0,0:0:0:0:
64,192,68720,1,0,0:0:0:0:
320,192,68720,1,0,0:0:0:0:
192,192,68820,1,0,0:0:0:0:
448,192,68820,1,0,0:0:0:0:
64,192,68920,1,0,0:0:0:0:
192,192,69020,1,0,0:0:0:0:
320,192,69020,1,0,0:0:0:0:
448,192,69120,1,0,0:0:0:0:
64,192,69220,1,0,0:0:0:0:
320,192,69220,1,0,0:0:0:0:
192,192,69320,1,0,0:0:0:0:
448,192,69320,1,0,0:0:0:0:
64,192,69420,1,0,0:0:0:0:
320,192,69420,1,0,0:0:0:0:
448,192,69520,1,0,0:0:0:0:
192,192,69620,1,0,0:0:0:0:
320,192,69620,1,0,0:0:0:0:
64,192,69720,1,0,0:0:0:0:
448,192,69720,1,0,0:0:0:0:
320,192,69820,1,0,0:0:0:0:
192,192,69920,1,0,0:0:0:0:
448,192,69920,1,0,0:0:0:0:
64,192,70020,1,0,0:0:0:0:
320,192,70020,1,0,0:0:0:0:
192,192,70120,1,0,0:0:0:0:
448,192,70120,1,0,0:0:0:0:
64,192,70220,1,0,0:0:0:0:
320,0,70220,128,0,71320:1:0:0:0:
192,192,70420,1,0,0:0:0:0:
64,192,70820,1,0,0:0:0:0:
192,192,71020,1,0,0:0:0:0:
64,192,71220,1,0,0:0:0:0:
192,192,71420,1,0,0:0:0:0:
448,192,71420,1,0,0:0:0:0:
192,192,71620,1,0,0:0:0:0:
448,192,71620,1,0,0:0:0:0:
448,192,71820,1,0,0:0:0:0:
64,0,71820,128,0,72520:1:0:0:0:
320,192,72020,1,0,0:0:0:0:
320,192,72420,1,0,0:0:0:0:
192,192,72620,1,0,0:0:0:0:
448,192,72620,1,0,0:0:0:0:
64,192,72820,1,0,0:0:0:0:
320,192,72820,1,0,0:0:0:0:
192,192,73020,1,0,0:0:0:0:
448,192,73020,1,0,0:0:0:0:
64,192,73220,1,0,0:0:0:0:
320,192,73220,1,0,0:0:0:0:
192,192,73420,1,0,0:0:0:0:
448,0,73420,128,0,74520:1:0:0:0:
64,192,73620,1,0,0:0:0:0:
192,192,74020,1,0,0:0:0:0:
64,192,74220,1,0,0:0:0:0:
192,192,74420,1,0,0:0:0:0:
64,192,74620,1,0,0:0:0:0:
320,192,74620,1,0,0:0:0:0:
192,192,74820,1,0,0:0:0:0:
320,192,74820,1,0,0:0:0:0:
64,192,75020,1,0,0:0:0:0:
448,0,75020,128,0,76520:1:0:0:0:
192,192,75220,1,0,0:0:0:0:
192,192,75620,1,0,0:0:0:0:
64,192,75820,1,0,0:0:0:0:
192,192,76020,1,0,0:0:0:0:
192,192,76220,1,0,0:0:0:0:
64,192,76420,1,0,0:0:0:0:
192,192,76520,1,0,0:0:0:0:
64,192,76620,1,0,0:0:0:0:
320,0,76620,128,0,77720:1:0:0:0:
192,192,76820,1,0,0:0:0:0:
64,192,77220,1,0,0:0:0:0:
192,192,77420,1,0,0:0:0:0:
64,192,77620,1,0,0:0:0:0:
192,192,77820,1,0,0:0:0:0:
448,192,77820,1,0,0:0:0:0:
64,192,78020,1,0,0:0:0:0:
192,192,78220,1,0,0:0:0:0:
320,0,78220,128,0,78920:1:0:0:0:
64,192,78420,1,0,0:0:0:0:
192,192,78820,1,0,0:0:0:0:
192,192,79020,1,0,0:0:0:0:
448,192,79020,1,0,0:0:0:0:
64,192,79220,1,0,0:0:0:0:
320,192,79220,1,0,0:0:0:0:
192,192,79420,1,0,0:0:0:0:
448,192,79420,1,0,0:0:0:0:
192,192,79620,1,0,0:0:0:0:
320,192,79620,1,0,0:0:0:0:
64,192,79820,1,0,0:0:0:0:
448,0,79820,128,0,80920:1:0:0:0:
192,192,80020,1,0,0:0:0:0:
192,192,80420,1,0,0:0:0:0:
64,192,80620,1,0,0:0:0:0:
192,192,80820,1,0,0:0:0:0:
64,192,81020,1,0,0:0:0:0:
320,192,81020,1,0,0:0:0:0:
192,192,81220,1,0,0:0:0:0:
448,192,81420,1,0,0:0:0:0:
64,0,81420,128,0,82520:1:0:0:0:
320,192,81620,1,0,0:0:0:0:
320,192,82020,1,0,0:0:0:0:
448,192,82220,1,0,0:0:0:0:
320,192,82420,1,0,0:0:0:0:
192,192,82620,1,0,0:0:0:0:
320,192,82620,1,0,0:0:0:0:
192,192,82820,1,0,0:0:0:0:
448,192,82820,1,0,0:0:0:0:
64,192,82920,1,0,0:0:0:0:
320,192,83020,1,0,0:0:0:0:
192,0,83020,128,0,84520:1:0:0:0:
448,192,83220,1,0,0:0:0:0:
320,192,83420,1,0,0:0:0:0:
448,192,83620,1,0,0:0:0:0:
320,192,83820,1,0,0:0:0:0:
448,192,84020,1,0,0:0:0:0:
320,192,84220,1,0,0:0:0:0:
448,192,84420,1,0,0:0:0:0:
64,192,84620,1,0,0:0:0:0:
448,0,84620,128,0,86120:1:0:0:0:
192,192,84820,1,0,0:0:0:0:
64,192,85020,1,0,0:0:0:0:
192,192,85220,1,0,0:0:0:0:
64,192,85420,1,0,0:0:0:0:
192,192,85620,1,0,0:0:0:0:
64,192,85820,1,0,0:0:0:0:
192,192,86020,1,0,0:0:0:0:
64,192,86120,1,0,0:0:0:0:
320,192,86220,1,0,0:0:0:0:
192,0,86220,128,0,87720:1:0:0:0:
448,192,86420,1,0,0:0:0:0:
320,192,86620,1,0,0:0:0:0:
448,192,86820,1,0,0:0:0:0:
320,192,87020,1,0,0:0:0:0:
448,192,87220,1,0,0:0:0:0:
320,192,87420,1,0,0:0:0:0:
448,192,87620,1,0,0:0:0:0:
64,192,87820,1,0,0:0:0:0:
448,0,87820,128,0,88920:1:0:0:0:
192,192,88020,1,0,0:0:0:0:
64,192,88220,1,0,0:0:0:0:
192,192,88420,1,0,0:0:0:0:
64,192,88620,1,0,0:0:0:0:
192,192,88820,1,0,0:0:0:0:
64,192,89020,1,0,0:0:0:0:
320,0,89020,128,0,89320:1:0:0:0:
64,192,89220,1,0,0:0:0:0:
192,192,89320,1,0,0:0:0:0:
64,192,89420,1,0,0:0:0:0:
448,0,89420,128,0,90920:1:0:0:0:
192,192,89620,1,0,0:0:0:0:
64,192,89820,1,0,0:0:0:0:
192,192,90020,1,0,0:0:0:0:
64,192,90220,1,0,0:0:0:0:
192,192,90420,1,0,0:0:0:0:
64,192,90620,1,0,0:0:0:0:
192,192,90820,1,0,0:0:0:0:
64,192,91020,1,0,0:0:0:0:
320,0,91020,128,0,91720:1:0:0:0:
192,192,91220,1,0,0:0:0:0:
64,192,91420,1,0,0:0:0:0:
192,192,91620,1,0,0:0:0:0:
64,192,91820,1,0,0:0:0:0:
448,0,91820,128,0,92520:1:0:0:0:
192,192,92095,1,0,0:0:0:0:
64,192,92345,1,0,0:0:0:0:
320,192,92620,1,0,0:0:0:0:
64,0,92620,128,0,94120:1:0:0:0:
448,192,92820,1,0,0:0:0:0:
320,192,93020,1,0,0:0:0:0:
448,192,93220,1,0,0:0:0:0:
320,192,93420,1,0,0:0:0:0:
448,192,93620,1,0,0:0:0:0:
320,192,93820,1,0,0:0:0:0:
448,192,94020,1,0,0:0:0:0:
192,192,94220,1,0,0:0:0:0:
320,0,94220,128,0,94920:1:0:0:0:
192,192,94420,1,0,0:0:0:0:
64,192,94520,1,0,0:0:0:0:
192,192,94620,1,0,0:0:0:0:
64,192,94720,1,0,0:0:0:0:
192,192,94820,1,0,0:0:0:0:
64,192,94920,1,0,0:0:0:0:
192,0,95020,128,0,95720:1:0:0:0:
448,192,95120,1,0,0:0:0:0:
320,192,95220,1,0,0:0:0:0:
448,192,95320,1,0,0:0:0:0:
320,192,95420,1,0,0:0:0:0:
448,192,95620,1,0,0:0:0:0:
320,192,95720,1,0,0:0:0:0:
64,192,95820,1,0,0:0:0:0:
448,192,95820,1,0,0:0:0:0:
192,192,96020,1,0,0:0:0:0:
320,192,96020,1,0,0:0:0:0:
64,192,96220,1,0,0:0:0:0:
320,192,96220,1,0,0:0:0:0:
192,192,96420,1,0,0:0:0:0:
320,192,96420,1,0,0:0:0:0:
192,192,96620,1,0,0:0:0:0:
448,192,96620,1,0,0:0:0:0:
192,192,96820,1,0,0:0:0:0:
320,192,96820,1,0,0:0:0:0:
64,192,97020,1,0,0:0:0:0:
320,192,97020,1,0,0:0:0:0:
192,192,97220,1,0,0:0:0:0:
320,192,97220,1,0,0:0:0:0:
192,192,97420,1,0,0:0:0:0:
448,192,97420,1,0,0:0:0:0:
64,192,97620,1,0,0:0:0:0:
448,192,97620,1,0,0:0:0:0:
64,192,97820,1,0,0:0:0:0:
320,192,97820,1,0,0:0:0:0:
64,192,98020,1,0,0:0:0:0:
448,192,98020,1,0,0:0:0:0:
192,192,98220,1,0,0:0:0:0:
320,192,98220,1,0,0:0:0:0:
64,192,98320,1,0,0:0:0:0:
448,192,98320,1,0,0:0:0:0:
192,192,98420,1,0,0:0:0:0:
320,192,98420,1,0,0:0:0:0:
64,192,98520,1,0,0:0:0:0:
448,192,98520,1,0,0:0:0:0:
192,192,98620,1,0,0:0:0:0:
320,192,98620,1,0,0:0:0:0:
64,192,98720,1,0,0:0:0:0:
448,192,98720,1,0,0:0:0:0:
192,192,98820,1,0,0:0:0:0:
320,192,98820,1,0,0:0:0:0:
64,192,98920,1,0,0:0:0:0:
448,192,98920,1,0,0:0:0:0:
192,192,99020,1,0,0:0:0:0:
320,192,99020,1,0,0:0:0:0:
192,192,99220,1,0,0:0:0:0:
448,192,99220,1,0,0:0:0:0:
64,192,99420,1,0,0:0:0:0:
448,192,99420,1,0,0:0:0:0:
64,192,99620,1,0,0:0:0:0:
320,192,99620,1,0,0:0:0:0:
64,192,99820,1,0,0:0:0:0:
448,192,99820,1,0,0:0:0:0:
192,192,100020,1,0,0:0:0:0:
448,192,100020,1,0,0:0:0:0:
192,192,100220,1,0,0:0:0:0:
320,192,100220,1,0,0:0:0:0:
64,192,100420,1,0,0:0:0:0:
320,192,100420,1,0,0:0:0:0:
192,192,100620,1,0,0:0:0:0:
320,192,100620,1,0,0:0:0:0:
64,192,100820,1,0,0:0:0:0:
320,192,100820,1,0,0:0:0:0:
192,192,101020,1,0,0:0:0:0:
448,192,101020,1,0,0:0:0:0:
64,192,101220,1,0,0:0:0:0:
320,192,101220,1,0,0:0:0:0:
64,192,101420,1,0,0:0:0:0:
448,192,101420,1,0,0:0:0:0:
192,192,101520,1,0,0:0:0:0:
320,192,101520,1,0,0:0:0:0:
64,192,101620,1,0,0:0:0:0:
448,192,101620,1,0,0:0:0:0:
192,192,101720,1,0,0:0:0:0:
320,192,101720,1,0,0:0:0:0:
64,192,101820,1,0,0:0:0:0:
448,192,101820,1,0,0:0:0:0:
192,192,101920,1,0,0:0:0:0:
320,192,101920,1,0,0:0:0:0:
64,192,102020,1,0,0:0:0:0:
448,192,102020,1,0,0:0:0:0:
192,192,102120,1,0,0:0:0:0:
320,192,102120,1,0,0:0:0:0:
64,192,102220,1,0,0:0:0:0:
448,192,102220,1,0,0:0:0:0:
64,192,102420,1,0,0:0:0:0:
320,192,102420,1,0,0:0:0:0:
192,192,102620,1,0,0:0:0:0:
448,192,102620,1,0,0:0:0:0:
64,192,102820,1,0,0:0:0:0:
320,192,102820,1,0,0:0:0:0:
192,192,103020,1,0,0:0:0:0:
320,192,103020,1,0,0:0:0:0:
64,192,103220,1,0,0:0:0:0:
448,192,103220,1,0,0:0:0:0:
192,192,103420,1,0,0:0:0:0:
448,192,103420,1,0,0:0:0:0:
64,192,103620,1,0,0:0:0:0:
320,192,103620,1,0,0:0:0:0:
192,192,103820,1,0,0:0:0:0:
448,192,103820,1,0,0:0:0:0:
192,192,104020,1,0,0:0:0:0:
320,192,104020,1,0,0:0:0:0:
64,192,104220,1,0,0:0:0:0:
320,192,104220,1,0,0:0:0:0:
192,192,104420,1,0,0:0:0:0:
320,192,104420,1,0,0:0:0:0:
192,192,104620,1,0,0:0:0:0:
448,192,104620,1,0,0:0:0:0:
192,192,104820,1,0,0:0:0:0:
320,192,104820,1,0,0:0:0:0:
64,192,105020,1,0,0:0:0:0:
448,192,105020,1,0,0:0:0:0:
192,192,105220,1,0,0:0:0:0:
320,192,105220,1,0,0:0:0:0:
64,192,105420,1,0,0:0:0:0:
448,192,105420,1,0,0:0:0:0:
192,192,105520,1,0,0:0:0:0:
320,192,105520,1,0,0:0:0:0:
448,192,105620,1,0,0:0:0:0:
192,192,105720,1,0,0:0:0:0:
320,192,105720,1,0,0:0:0:0:
64,192,105820,1,0,0:0:0:0:
448,192,105820,1,0,0:0:0:0:
192,192,105920,1,0,0:0:0:0:
320,192,105920,1,0,0:0:0:0:
64,192,106020,1,0,0:0:0:0:
192,192,106120,1,0,0:0:0:0:
320,192,106120,1,0,0:0:0:0:
64,192,106220,1,0,0:0:0:0:
448,192,106220,1,0,0:0:0:0:
192,192,106320,1,0,0:0:0:0:
320,192,106320,1,0,0:0:0:0:
448,192,106420,1,0,0:0:0:0:
192,192,106520,1,0,0:0:0:0:
320,192,106520,1,0,0:0:0:0:
64,192,106620,1,0,0:0:0:0:
448,192,106620,1,0,0:0:0:0:
192,192,106720,1,0,0:0:0:0:
320,192,106720,1,0,0:0:0:0:
64,192,106820,1,0,0:0:0:0:
192,192,106920,1,0,0:0:0:0:
448,192,106920,1,0,0:0:0:0:
64,192,107020,1,0,0:0:0:0:
320,192,107020,1,0,0:0:0:0:
192,192,107120,1,0,0:0:0:0:
448,192,107120,1,0,0:0:0:0:
64,192,107220,1,0,0:0:0:0:
320,192,107220,1,0,0:0:0:0:
192,192,107320,1,0,0:0:0:0:
448,192,107320,1,0,0:0:0:0:
320,192,107420,1,0,0:0:0:0:
64,192,107520,1,0,0:0:0:0:
448,192,107520,1,0,0:0:0:0:
192,192,107620,1,0,0:0:0:0:
320,192,107620,1,0,0:0:0:0:
64,192,107720,1,0,0:0:0:0:
448,192,107720,1,0,0:0:0:0:
192,192,107820,1,0,0:0:0:0:
320,192,107820,1,0,0:0:0:0:
448,192,107920,1,0,0:0:0:0:
64,192,108020,1,0,0:0:0:0:
320,192,108020,1,0,0:0:0:0:
192,192,108120,1,0,0:0:0:0:
64,192,108220,1,0,0:0:0:0:
320,192,108220,1,0,0:0:0:0:
192,192,108320,1,0,0:0:0:0:
448,192,108320,1,0,0:0:0:0:
64,192,108420,1,0,0:0:0:0:
192,192,108520,1,0,0:0:0:0:
320,192,108520,1,0,0:0:0:0:
64,192,108620,1,0,0:0:0:0:
448,192,108620,1,0,0:0:0:0:
64,192,108820,1,0,0:0:0:0:
320,192,108820,1,0,0:0:0:0:
192,192,109020,1,0,0:0:0:0:
448,192,109020,1,0,0:0:0:0:
192,192,109220,1,0,0:0:0:0:
320,192,109220,1,0,0:0:0:0:
64,192,109420,1,0,0:0:0:0:
320,192,109420,1,0,0:0:0:0:
192,192,109620,1,0,0:0:0:0:
320,192,109620,1,0,0:0:0:0:
192,192,109820,1,0,0:0:0:0:
448,192,109820,1,0,0:0:0:0:
192,192,110020,1,0,0:0:0:0:
320,192,110020,1,0,0:0:0:0:
64,192,110220,1,0,0:0:0:0:
320,192,110220,1,0,0:0:0:0:
192,192,110420,1,0,0:0:0:0:
320,192,110420,1,0,0:0:0:0:
192,192,110620,1,0,0:0:0:0:
448,192,110620,1,0,0:0:0:0:
192,192,110820,1,0,0:0:0:0:
320,192,110820,1,0,0:0:0:0:
192,192,111020,1,0,0:0:0:0:
448,192,111020,1,0,0:0:0:0:
64,192,111120,1,0,0:0:0:0:
320,192,111120,1,0,0:0:0:0:
192,192,111220,1,0,0:0:0:0:
448,192,111220,1,0,0:0:0:0:
320,192,111320,1,0,0:0:0:0:
192,192,111420,1,0,0:0:0:0:
448,192,111420,1,0,0:0:0:0:
64,192,111520,1,0,0:0:0:0:
320,192,111520,1,0,0:0:0:0:
192,192,111620,1,0,0:0:0:0:
64,192,111720,1,0,0:0:0:0:
320,192,111720,1,0,0:0:0:0:
192,192,111820,1,0,0:0:0:0:
448,192,111820,1,0,0:0:0:0:
192,192,112020,1,0,0:0:0:0:
320,192,112020,1,0,0:0:0:0:
64,192,112220,1,0,0:0:0:0:
448,192,112220,1,0,0:0:0:0:
192,192,112420,1,0,0:0:0:0:
448,192,112420,1,0,0:0:0:0:
64,192,112620,1,0,0:0:0:0:
320,192,112620,1,0,0:0:0:0:
192,192,112820,1,0,0:0:0:0:
320,192,112820,1,0,0:0:0:0:
64,192,113020,1,0,0:0:0:0:
448,192,113020,1,0,0:0:0:0:
64,192,113220,1,0,0:0:0:0:
320,192,113220,1,0,0:0:0:0:
192,192,113420,1,0,0:0:0:0:
320,192,113420,1,0,0:0:0:0:
192,192,113620,1,0,0:0:0:0:
448,192,113620,1,0,0:0:0:0:
192,192,113820,1,0,0:0:0:0:
320,192,113820,1,0,0:0:0:0:
64,192,114020,1,0,0:0:0:0:
320,192,114020,1,0,0:0:0:0:
64,192,114220,1,0,0:0:0:0:
448,192,114220,1,0,0:0:0:0:
192,192,114320,1,0,0:0:0:0:
320,192,114320,1,0,0:0:0:0:
64,192,114420,1,0,0:0:0:0:
448,192,114420,1,0,0:0:0:0:
192,192,114520,1,0,0:0:0:0:
320,192,114520,1,0,0:0:0:0:
64,192,114620,1,0,0:0:0:0:
448,192,114620,1,0,0:0:0:0:
192,192,114720,1,0,0:0:0:0:
320,192,114720,1,0,0:0:0:0:
64,192,114820,1,0,0:0:0:0:
448,192,114820,1,0,0:0:0:0:
192,192,114920,1,0,0:0:0:0:
320,192,114920,1,0,0:0:0:0:
64,192,115020,1,0,0:0:0:0:
448,192,115020,1,0,0:0:0:0:
192,192,115220,1,0,0:0:0:0:
448,192,115220,1,0,0:0:0:0:
64,192,115420,1,0,0:0:0:0:
320,192,115420,1,0,0:0:0:0:
192,192,115620,1,0,0:0:0:0:
320,192,115620,1,0,0:0:0:0:
192,192,115820,1,0,0:0:0:0:
448,192,115820,1,0,0:0:0:0:
192,192,116020,1,0,0:0:0:0:
320,192,116020,1,0,0:0:0:0:
64,192,116220,1,0,0:0:0:0:
320,192,116220,1,0,0:0:0:0:
192,192,116420,1,0,0:0:0:0:
448,192,116420,1,0,0:0:0:0:
64,192,116620,1,0,0:0:0:0:
320,192,116620,1,0,0:0:0:0:
192,192,116820,1,0,0:0:0:0:
320,192,116820,1,0,0:0:0:0:
192,192,117020,1,0,0:0:0:0:
448,192,117020,1,0,0:0:0:0:
192,192,117220,1,0,0:0:0:0:
320,192,117220,1,0,0:0:0:0:
192,192,117420,1,0,0:0:0:0:
448,192,117420,1,0,0:0:0:0:
192,192,117620,1,0,0:0:0:0:
320,192,117620,1,0,0:0:0:0:
64,192,117820,1,0,0:0:0:0:
320,192,117820,1,0,0:0:0:0:
192,192,118020,1,0,0:0:0:0:
320,192,118020,1,0,0:0:0:0:
64,192,118220,1,0,0:0:0:0:
448,192,118220,1,0,0:0:0:0:
192,192,118320,1,0,0:0:0:0:
320,192,118320,1,0,0:0:0:0:
64,192,118420,1,0,0:0:0:0:
192,192,118520,1,0,0:0:0:0:
320,192,118520,1,0,0:0:0:0:
64,192,118620,1,0,0:0:0:0:
448,192,118620,1,0,0:0:0:0:
192,192,118720,1,0,0:0:0:0:
320,192,118720,1,0,0:0:0:0:
448,192,118820,1,0,0:0:0:0:
192,192,118920,1,0,0:0:0:0:
320,192,118920,1,0,0:0:0:0:
64,192,119020,1,0,0:0:0:0:
448,192,119020,1,0,0:0:0:0:
192,192,119120,1,0,0:0:0:0:
320,192,119120,1,0,0:0:0:0:
64,192,119220,1,0,0:0:0:0:
192,192,119320,1,0,0:0:0:0:
320,192,119320,1,0,0:0:0:0:
64,192,119420,1,0,0:0:0:0:
448,192,119420,1,0,0:0:0:0:
192,192,119520,1,0,0:0:0:0:
320,192,119520,1,0,0:0:0:0:
448,192,119620,1,0,0:0:0:0:
192,192,119720,1,0,0:0:0:0:
320,192,119720,1,0,0:0:0:0:
64,192,119820,1,0,0:0:0:0:
448,192,119820,1,0,0:0:0:0:
192,192,119920,1,0,0:0:0:0:
64,192,120020,1,0,0:0:0:0:
320,192,120020,1,0,0:0:0:0:
192,192,120120,1,0,0:0:0:0:
448,192,120120,1,0,0:0:0:0:
64,192,120220,1,0,0:0:0:0:
192,192,120320,1,0,0:0:0:0:
448,192,120320,1,0,0:0:0:0:
320,192,120420,1,0,0:0:0:0:
192,192,120520,1,0,0:0:0:0:
448,192,120520,1,0,0:0:0:0:
64,192,120620,1,0,0:0:0:0:
320,192,120620,1,0,0:0:0:0:
448,192,120720,1,0,0:0:0:0:
64,192,120820,1,0,0:0:0:0:
320,192,120820,1,0,0:0:0:0:
192,192,120920,1,0,0:0:0:0:
448,192,120920,1,0,0:0:0:0:
64,192,121020,1,0,0:0:0:0:
320,192,121020,1,0,0:0:0:0:
192,192,121120,1,0,0:0:0:0:
448,192,121120,1,0,0:0:0:0:
64,192,121220,1,0,0:0:0:0:
192,192,121320,1,0,0:0:0:0:
320,192,121320,1,0,0:0:0:0:
64,0,121420,128,0,123820:1:0:0:0:
448,0,121420,128,0,123820:1:0:0:0:
448,192,124245,1,0,0:0:0:0:
64,0,124245,128,0,124345:1:0:0:0:
320,192,124345,1,0,0:0:0:0:
192,192,124420,1,0,0:0:0:0:
320,192,124495,1,0,0:0:0:0:
448,192,124595,1,0,0:0:0:0:
320,192,124670,1,0,0:0:0:0:
192,192,124745,1,0,0:0:0:0:
320,192,124845,1,0,0:0:0:0:
448,192,124920,1,0,0:0:0:0:
320,192,124995,1,0,0:0:0:0:
192,192,125095,1,0,0:0:0:0:
320,192,125170,1,0,0:0:0:0:
448,192,125245,1,0,0:0:0:0:
320,192,125345,1,0,0:0:0:0:
192,192,125420,1,0,0:0:0:0:
320,192,125495,1,0,0:0:0:0:
448,192,125595,1,0,0:0:0:0:
320,192,125670,1,0,0:0:0:0:
192,192,125745,1,0,0:0:0:0:
320,192,125845,1,0,0:0:0:0:
448,192,125920,1,0,0:0:0:0:
320,192,125995,1,0,0:0:0:0:
192,192,126095,1,0,0:0:0:0:
320,192,126170,1,0,0:0:0:0:
448,192,126245,1,0,0:0:0:0:
320,192,126345,1,0,0:0:0:0:
192,192,126420,1,0,0:0:0:0:
320,192,126495,1,0,0:0:0:0:
448,192,126595,1,0,0:0:0:0:
192,192,126670,1,0,0:0:0:0:
448,192,126745,1,0,0:0:0:0:
320,192,126845,1,0,0:0:0:0:
448,192,126920,1,0,0:0:0:0:
64,0,126920,128,0,126995:1:0:0:0:
320,192,126995,1,0,0:0:0:0:
192,192,127095,1,0,0:0:0:0:
320,192,127170,1,0,0:0:0:0:
448,192,127245,1,0,0:0:0:0:
320,192,127345,1,0,0:0:0:0:
64,192,127420,1,0,0:0:0:0:
320,192,127495,1,0,0:0:0:0:
448,192,127595,1,0,0:0:0:0:
320,192,127670,1,0,0:0:0:0:
64,192,127745,1,0,0:0:0:0:
320,192,127845,1,0,0:0:0:0:
448,192,127920,1,0,0:0:0:0:
320,192,127995,1,0,0:0:0:0:
64,192,128095,1,0,0:0:0:0:
320,192,128170,1,0,0:0:0:0:
448,192,128245,1,0,0:0:0:0:
320,192,128345,1,0,0:0:0:0:
64,192,128420,1,0,0:0:0:0:
320,192,128495,1,0,0:0:0:0:
448,192,128595,1,0,0:0:0:0:
320,192,128670,1,0,0:0:0:0:
64,192,128745,1,0,0:0:0:0:
320,192,128845,1,0,0:0:0:0:
448,192,128920,1,0,0:0:0:0:
320,192,128995,1,0,0:0:0:0:
64,192,129095,1,0,0:0:0:0:
448,192,129170,1,0,0:0:0:0:
320,192,129245,1,0,0:0:0:0:
192,192,129345,1,0,0:0:0:0:
448,192,129420,1,0,0:0:0:0:
320,192,129495,1,0,0:0:0:0:
192,192,129595,1,0,0:0:0:0:
448,0,129595,128,0,129745:1:0:0:0:
64,192,129670,1,0,0:0:0:0:
192,192,129745,1,0,0:0:0:0:
320,192,129845,1,0,0:0:0:0:
192,192,129920,1,0,0:0:0:0:
64,192,129995,1,0,0:0:0:0:
192,192,130095,1,0,0:0:0:0:
320,192,130170,1,0,0:0:0:0:
192,192,130245,1,0,0:0:0:0:
64,192,130345,1,0,0:0:0:0:
192,192,130420,1,0,0:0:0:0:
320,192,130495,1,0,0:0:0:0:
192,192,130595,1,0,0:0:0:0:
64,192,130670,1,0,0:0:0:0:
192,192,130745,1,0,0:0:0:0:
320,192,130845,1,0,0:0:0:0:
192,192,130920,1,0,0:0:0:0:
64,192,130995,1,0,0:0:0:0:
192,192,131095,1,0,0:0:0:0:
320,192,131170,1,0,0:0:0:0:
192,192,131245,1,0,0:0:0:0:
64,192,131345,1,0,0:0:0:0:
192,192,131420,1,0,0:0:0:0:
320,192,131495,1,0,0:0:0:0:
192,192,131595,1,0,0:0:0:0:
64,192,131670,1,0,0:0:0:0:
192,192,131745,1,0,0:0:0:0:
320,192,131845,1,0,0:0:0:0:
448,192,131920,1,0,0:0:0:0:
320,192,131995,1,0,0:0:0:0:
448,192,132095,1,0,0:0:0:0:
320,192,132170,1,0,0:0:0:0:
64,192,132245,1,0,0:0:0:0:
448,0,132245,128,0,132345:1:0:0:0:
192,192,132345,1,0,0:0:0:0:
