osu file format v13

[General]
AudioFilename: Strangeprogram.mp3
AudioLeadIn: 2
PreviewTime: 61689
Countdown: 0
SampleSet: None
StackLeniency: 0.7
Mode: 3
LetterboxInBreaks: 0
SpecialStyle: 0
WidescreenStoryboard: 0

[Editor]
DistanceSpacing: 0.8
BeatDivisor: 4
GridSize: 8
TimelineZoom: 1

[Metadata]
Title:4K Challenge Pack
TitleUnicode:4K Challenge Pack
Artist:xeona
ArtistUnicode:xeona
Creator:Anoex
Version:DJ Sharpnel---Strangeprogram
Source:
Tags:
BeatmapID:470541
BeatmapSetID:198334

[Difficulty]
HPDrainRate:7
CircleSize:4
OverallDifficulty:7
ApproachRate:10
SliderMultiplier:1.4
SliderTickRate:1

[Events]
//Background and Video events
0,0,"Strangeprogram.jpg",0,0
//Break Periods
//Storyboard Layer 0 (Background)
//Storyboard Layer 1 (Fail)
//Storyboard Layer 2 (Pass)
//Storyboard Layer 3 (Foreground)
//Storyboard Sound Samples
//Background Colour Transformations
3,100,163,162,255

[TimingPoints]
3889,279.0698,4,2,0,15,1,0
21750.48,60000000000000,4,2,0,15,1,0
21750.48,60000000000000,4,2,0,15,1,0
21750.48,60000000000000,4,2,0,15,1,0
21750.48,60000000000000,4,2,0,15,1,0
25070.48,279.0698,4,2,0,15,1,0
25070.48,279.0698,4,2,0,15,1,0
25070.48,279.0698,4,2,0,15,1,0
25070.48,279.0698,4,2,0,15,1,0

[HitObjects]
64,192,3890,5,0,0:0:0:0:
192,192,4169,1,0,0:0:0:0:
320,192,4169,1,0,0:0:0:0:
448,192,4308,1,0,0:0:0:0:
320,192,4587,1,0,0:0:0:0:
64,192,4727,1,0,0:0:0:0:
192,192,4727,1,0,0:0:0:0:
320,192,5006,1,0,0:0:0:0:
192,192,5285,1,0,0:0:0:0:
448,192,5285,1,0,0:0:0:0:
320,192,5424,1,0,0:0:0:0:
192,192,5703,1,0,0:0:0:0:
64,192,5843,1,0,0:0:0:0:
320,192,5843,1,0,0:0:0:0:
192,192,6122,1,0,0:0:0:0:
320,192,6401,1,0,0:0:0:0:
448,192,6401,1,0,0:0:0:0:
192,192,6541,1,0,0:0:0:0:
320,192,6820,1,0,0:0:0:0:
64,192,6959,1,0,0:0:0:0:
192,192,6959,1,0,0:0:0:0:
448,192,7238,1,0,0:0:0:0:
192,192,7517,1,0,0:0:0:0:
448,192,7517,1,0,0:0:0:0:
320,192,7657,1,0,0:0:0:0:
192,192,7936,1,0,0:0:0:0:
64,192,8076,1,0,0:0:0:0:
320,192,8076,1,0,0:0:0:0:
448,192,8355,1,0,0:0:0:0:
192,192,8634,1,0,0:0:0:0:
320,192,8634,1,0,0:0:0:0:
64,192,8773,1,0,0:0:0:0:
64,192,9052,1,0,0:0:0:0:
192,192,9192,1,0,0:0:0:0:
320,192,9192,1,0,0:0:0:0:
192,192,9471,1,0,0:0:0:0:
64,192,9750,1,0,0:0:0:0:
448,192,9750,1,0,0:0:0:0:
320,192,9889,1,0,0:0:0:0:
192,192,10169,1,0,0:0:0:0:
64,192,10308,1,0,0:0:0:0:
448,192,10308,1,0,0:0:0:0:
320,192,10587,1,0,0:0:0:0:
192,192,10866,1,0,0:0:0:0:
448,192,10866,1,0,0:0:0:0:
320,192,11006,1,0,0:0:0:0:
192,192,11285,1,0,0:0:0:0:
64,192,11424,1,0,0:0:0:0:
320,192,11424,1,0,0:0:0:0:
192,192,11703,1,0,0:0:0:0:
192,192,11843,1,0,0:0:0:0:
192,192,11983,1,0,0:0:0:0:
192,192,12122,1,0,0:0:0:0:
192,192,12262,1,0,0:0:0:0:
192,192,12401,1,0,0:0:0:0:
192,192,12541,1,0,0:0:0:0:
192,192,12680,1,0,0:0:0:0:
448,192,12820,1,0,0:0:0:0:
192,192,12890,1,0,0:0:0:0:
448,192,12959,1,0,0:0:0:0:
320,192,13029,1,0,0:0:0:0:
192,192,13099,1,0,0:0:0:0:
64,192,13169,1,0,0:0:0:0:
448,192,13238,1,0,0:0:0:0:
64,192,13308,1,0,0:0:0:0:
448,192,13378,1,0,0:0:0:0:
320,192,13448,1,0,0:0:0:0:
192,192,13517,1,0,0:0:0:0:
64,192,13587,1,0,0:0:0:0:
192,192,13657,1,0,0:0:0:0:
64,192,13727,1,0,0:0:0:0:
320,192,13796,1,0,0:0:0:0:
192,192,13866,1,0,0:0:0:0:
320,192,13936,1,0,0:0:0:0:
64,192,14006,1,0,0:0:0:0:
448,192,14076,1,0,0:0:0:0:
64,192,14145,1,0,0:0:0:0:
320,192,14215,1,0,0:0:0:0:
192,192,14285,1,0,0:0:0:0:
448,192,14355,1,0,0:0:0:0:
64,192,14424,1,0,0:0:0:0:
320,192,14494,1,0,0:0:0:0:
64,192,14564,1,0,0:0:0:0:
320,192,14634,1,0,0:0:0:0:
64,192,14703,1,0,0:0:0:0:
448,192,14773,1,0,0:0:0:0:
64,192,14843,1,0,0:0:0:0:
448,192,14913,1,0,0:0:0:0:
64,192,14983,1,0,0:0:0:0:
320,192,15052,1,0,0:0:0:0:
192,192,15122,1,0,0:0:0:0:
448,192,15192,1,0,0:0:0:0:
320,192,15262,1,0,0:0:0:0:
192,192,15331,1,0,0:0:0:0:
64,192,15401,1,0,0:0:0:0:
448,192,15471,1,0,0:0:0:0:
192,192,15541,1,0,0:0:0:0:
320,192,15610,1,0,0:0:0:0:
64,192,15680,1,0,0:0:0:0:
448,192,15750,1,0,0:0:0:0:
64,192,15820,1,0,0:0:0:0:
320,192,15890,1,0,0:0:0:0:
64,192,15959,1,0,0:0:0:0:
320,192,16029,1,0,0:0:0:0:
192,192,16099,1,0,0:0:0:0:
448,192,16169,1,0,0:0:0:0:
192,192,16238,1,0,0:0:0:0:
448,192,16308,1,0,0:0:0:0:
192,192,16378,1,0,0:0:0:0:
320,192,16448,1,0,0:0:0:0:
192,192,16517,1,0,0:0:0:0:
320,192,16587,1,0,0:0:0:0:
192,192,16657,1,0,0:0:0:0:
448,192,16727,1,0,0:0:0:0:
64,192,16796,1,0,0:0:0:0:
320,192,16866,1,0,0:0:0:0:
192,192,16936,1,0,0:0:0:0:
448,192,17006,1,0,0:0:0:0:
64,192,17076,1,0,0:0:0:0:
448,192,17145,1,0,0:0:0:0:
64,192,17215,1,0,0:0:0:0:
192,192,17285,1,0,0:0:0:0:
64,192,17355,1,0,0:0:0:0:
320,192,17424,1,0,0:0:0:0:
192,192,17494,1,0,0:0:0:0:
448,192,17564,1,0,0:0:0:0:
192,192,17634,1,0,0:0:0:0:
448,192,17703,1,0,0:0:0:0:
192,192,17773,1,0,0:0:0:0:
320,192,17843,1,0,0:0:0:0:
64,192,17913,1,0,0:0:0:0:
320,192,17983,1,0,0:0:0:0:
64,192,18052,1,0,0:0:0:0:
192,192,18122,1,0,0:0:0:0:
64,192,18192,1,0,0:0:0:0:
448,192,18262,1,0,0:0:0:0:
64,192,18331,1,0,0:0:0:0:
192,192,18401,1,0,0:0:0:0:
64,192,18471,1,0,0:0:0:0:
448,192,18541,1,0,0:0:0:0:
192,192,18610,1,0,0:0:0:0:
448,192,18680,1,0,0:0:0:0:
64,192,18750,1,0,0:0:0:0:
320,192,18820,1,0,0:0:0:0:
192,192,18890,1,0,0:0:0:0:
448,192,18959,1,0,0:0:0:0:
64,192,19029,1,0,0:0:0:0:
448,192,19099,1,0,0:0:0:0:
64,192,19169,1,0,0:0:0:0:
192,192,19238,1,0,0:0:0:0:
320,192,19308,1,0,0:0:0:0:
448,192,19378,1,0,0:0:0:0:
64,192,19448,1,0,0:0:0:0:
320,192,19517,1,0,0:0:0:0:
192,192,19587,1,0,0:0:0:0:
320,192,19657,1,0,0:0:0:0:
192,192,19727,1,0,0:0:0:0:
448,192,19796,1,0,0:0:0:0:
64,192,19866,1,0,0:0:0:0:
320,192,19936,1,0,0:0:0:0:
192,192,20006,1,0,0:0:0:0:
448,192,20076,1,0,0:0:0:0:
64,192,20145,1,0,0:0:0:0:
192,192,20215,1,0,0:0:0:0:
320,192,20285,1,0,0:0:0:0:
448,192,20355,1,0,0:0:0:0:
64,192,20424,1,0,0:0:0:0:
192,192,20494,1,0,0:0:0:0:
64,192,20564,1,0,0:0:0:0:
320,192,20634,1,0,0:0:0:0:
320,192,20773,1,0,0:0:0:0:
320,192,20913,1,0,0:0:0:0:
320,192,21052,1,0,0:0:0:0:
320,192,21192,1,0,0:0:0:0:
320,192,21331,1,0,0:0:0:0:
320,192,21471,1,0,0:0:0:0:
320,192,21610,1,0,0:0:0:0:
192,192,21750,1,0,0:0:0:0:
320,192,21750,1,0,0:0:0:0:
448,192,26186,1,0,0:0:0:0:
320,192,26256,1,0,0:0:0:0:
448,192,26326,1,0,0:0:0:0:
320,192,26396,1,0,0:0:0:0:
448,192,26465,1,0,0:0:0:0:
192,192,26535,1,0,0:0:0:0:
448,192,26605,1,0,0:0:0:0:
192,192,26675,1,0,0:0:0:0:
320,192,26744,1,0,0:0:0:0:
64,192,26814,1,0,0:0:0:0:
320,192,26884,1,0,0:0:0:0:
64,192,26954,1,0,0:0:0:0:
320,192,27023,1,0,0:0:0:0:
192,192,27093,1,0,0:0:0:0:
320,192,27163,1,0,0:0:0:0:
192,192,27233,1,0,0:0:0:0:
448,192,27303,1,0,0:0:0:0:
64,192,27372,1,0,0:0:0:0:
320,192,27442,1,0,0:0:0:0:
192,192,27512,1,0,0:0:0:0:
448,192,27582,1,0,0:0:0:0:
64,192,27651,1,0,0:0:0:0:
448,192,27721,1,0,0:0:0:0:
64,192,27791,1,0,0:0:0:0:
320,192,27861,1,0,0:0:0:0:
192,192,27930,1,0,0:0:0:0:
448,192,28000,1,0,0:0:0:0:
320,192,28070,1,0,0:0:0:0:
192,192,28140,1,0,0:0:0:0:
64,192,28210,1,0,0:0:0:0:
320,192,28279,1,0,0:0:0:0:
192,192,28349,1,0,0:0:0:0:
448,192,28419,1,0,0:0:0:0:
64,192,28489,1,0,0:0:0:0:
192,192,28558,1,0,0:0:0:0:
64,192,28628,1,0,0:0:0:0:
320,192,28698,1,0,0:0:0:0:
192,192,28768,1,0,0:0:0:0:
448,192,28837,1,0,0:0:0:0:
64,192,28907,1,0,0:0:0:0:
320,192,28977,1,0,0:0:0:0:
192,192,29047,1,0,0:0:0:0:
448,192,29117,1,0,0:0:0:0:
64,192,29186,1,0,0:0:0:0:
192,192,29256,1,0,0:0:0:0:
64,192,29326,1,0,0:0:0:0:
448,192,29396,1,0,0:0:0:0:
64,192,29465,1,0,0:0:0:0:
192,192,29535,1,0,0:0:0:0:
320,192,29605,1,0,0:0:0:0:
448,192,29675,1,0,0:0:0:0:
192,192,29744,1,0,0:0:0:0:
448,192,29814,1,0,0:0:0:0:
192,192,29884,1,0,0:0:0:0:
320,192,29954,1,0,0:0:0:0:
64,192,30023,1,0,0:0:0:0:
320,192,30093,1,0,0:0:0:0:
64,192,30163,1,0,0:0:0:0:
192,192,30233,1,0,0:0:0:0:
64,192,30303,1,0,0:0:0:0:
320,192,30372,1,0,0:0:0:0:
192,192,30512,1,0,0:0:0:0:
448,192,30651,1,0,0:0:0:0:
192,192,30721,1,0,0:0:0:0:
320,192,30791,1,0,0:0:0:0:
192,192,30861,1,0,0:0:0:0:
448,192,30930,1,0,0:0:0:0:
64,192,31000,1,0,0:0:0:0:
320,192,31070,1,0,0:0:0:0:
64,192,31140,1,0,0:0:0:0:
448,192,31210,1,0,0:0:0:0:
192,192,31279,1,0,0:0:0:0:
320,192,31349,1,0,0:0:0:0:
192,192,31419,1,0,0:0:0:0:
448,192,31489,1,0,0:0:0:0:
320,192,31558,1,0,0:0:0:0:
192,192,31628,1,0,0:0:0:0:
320,192,31698,1,0,0:0:0:0:
448,192,31768,1,0,0:0:0:0:
64,192,31837,1,0,0:0:0:0:
192,192,31907,1,0,0:0:0:0:
64,192,31977,1,0,0:0:0:0:
192,192,32047,1,0,0:0:0:0:
320,192,32117,1,0,0:0:0:0:
448,192,32186,1,0,0:0:0:0:
320,192,32256,1,0,0:0:0:0:
448,192,32326,1,0,0:0:0:0:
64,192,32396,1,0,0:0:0:0:
320,192,32465,1,0,0:0:0:0:
192,192,32535,1,0,0:0:0:0:
448,192,32605,1,0,0:0:0:0:
320,192,32675,1,0,0:0:0:0:
192,192,32744,1,0,0:0:0:0:
64,192,32814,1,0,0:0:0:0:
192,192,32884,1,0,0:0:0:0:
320,192,32954,1,0,0:0:0:0:
448,192,33023,1,0,0:0:0:0:
320,192,33093,1,0,0:0:0:0:
192,192,33163,1,0,0:0:0:0:
64,192,33233,1,0,0:0:0:0:
192,192,33303,1,0,0:0:0:0:
64,192,33372,1,0,0:0:0:0:
192,192,33442,1,0,0:0:0:0:
320,192,33512,1,0,0:0:0:0:
192,192,33582,1,0,0:0:0:0:
320,192,33651,1,0,0:0:0:0:
192,192,33721,1,0,0:0:0:0:
320,192,33791,1,0,0:0:0:0:
448,192,33861,1,0,0:0:0:0:
320,192,33930,1,0,0:0:0:0:
448,192,34000,1,0,0:0:0:0:
192,192,34279,1,0,0:0:0:0:
192,192,34419,1,0,0:0:0:0:
192,192,34558,1,0,0:0:0:0:
192,192,34698,1,0,0:0:0:0:
192,192,34837,1,0,0:0:0:0:
192,192,34977,1,0,0:0:0:0:
64,192,35116,1,0,0:0:0:0:
320,192,35116,1,0,0:0:0:0:
192,192,35256,1,0,0:0:0:0:
320,192,35396,1,0,0:0:0:0:
448,192,35396,1,0,0:0:0:0:
64,192,35535,1,0,0:0:0:0:
192,192,35675,1,0,0:0:0:0:
320,192,35675,1,0,0:0:0:0:
448,192,35814,1,0,0:0:0:0:
64,192,35954,1,0,0:0:0:0:
320,192,35954,1,0,0:0:0:0:
192,192,36093,1,0,0:0:0:0:
320,192,36233,1,0,0:0:0:0:
448,192,36233,1,0,0:0:0:0:
192,192,36372,1,0,0:0:0:0:
64,192,36512,1,0,0:0:0:0:
320,192,36512,1,0,0:0:0:0:
448,192,36651,1,0,0:0:0:0:
192,192,36791,1,0,0:0:0:0:
320,192,36791,1,0,0:0:0:0:
64,192,36930,1,0,0:0:0:0:
192,192,37070,1,0,0:0:0:0:
448,192,37070,1,0,0:0:0:0:
320,192,37210,1,0,0:0:0:0:
64,192,37349,1,0,0:0:0:0:
192,192,37349,1,0,0:0:0:0:
320,192,37489,1,0,0:0:0:0:
192,192,37628,1,0,0:0:0:0:
448,192,37628,1,0,0:0:0:0:
320,192,37768,1,0,0:0:0:0:
64,192,37907,1,0,0:0:0:0:
192,192,37907,1,0,0:0:0:0:
448,192,38047,1,0,0:0:0:0:
64,192,38186,1,0,0:0:0:0:
320,192,38186,1,0,0:0:0:0:
192,192,38326,1,0,0:0:0:0:
320,192,38465,1,0,0:0:0:0:
448,192,38465,1,0,0:0:0:0:
192,192,38605,1,0,0:0:0:0:
64,192,38744,1,0,0:0:0:0:
320,192,38744,1,0,0:0:0:0:
192,192,38884,1,0,0:0:0:0:
64,192,39023,1,0,0:0:0:0:
448,192,39023,1,0,0:0:0:0:
192,192,39163,1,0,0:0:0:0:
64,192,39303,1,0,0:0:0:0:
320,192,39303,1,0,0:0:0:0:
64,192,39442,1,0,0:0:0:0:
320,192,39442,1,0,0:0:0:0:
64,192,39582,1,0,0:0:0:0:
320,192,39582,1,0,0:0:0:0:
192,192,39721,1,0,0:0:0:0:
320,192,39861,1,0,0:0:0:0:
448,192,39861,1,0,0:0:0:0:
192,192,40000,1,0,0:0:0:0:
64,192,40140,1,0,0:0:0:0:
320,192,40140,1,0,0:0:0:0:
192,192,40279,1,0,0:0:0:0:
320,192,40558,1,0,0:0:0:0:
64,192,40698,1,0,0:0:0:0:
448,192,40698,1,0,0:0:0:0:
192,192,40837,1,0,0:0:0:0:
320,192,40977,1,0,0:0:0:0:
448,192,41116,1,0,0:0:0:0:
320,192,41396,1,0,0:0:0:0:
192,192,41535,1,0,0:0:0:0:
64,192,41814,1,0,0:0:0:0:
192,192,41954,1,0,0:0:0:0:
320,192,42233,1,0,0:0:0:0:
448,192,42372,1,0,0:0:0:0:
320,192,42651,1,0,0:0:0:0:
192,192,42791,1,0,0:0:0:0:
64,192,43070,1,0,0:0:0:0:
192,192,43210,1,0,0:0:0:0:
320,192,43489,1,0,0:0:0:0:
64,0,43628,128,0,43907:1:0:0:0:
192,0,43628,128,0,43907:1:0:0:0:
64,192,44047,1,0,0:0:0:0:
320,192,44116,1,0,0:0:0:0:
64,192,44186,1,0,0:0:0:0:
320,192,44256,1,0,0:0:0:0:
64,192,44326,1,0,0:0:0:0:
448,192,44396,1,0,0:0:0:0:
64,192,44465,1,0,0:0:0:0:
448,192,44535,1,0,0:0:0:0:
64,192,44605,1,0,0:0:0:0:
320,192,44675,1,0,0:0:0:0:
64,192,44744,1,0,0:0:0:0:
320,192,44814,1,0,0:0:0:0:
64,192,44884,1,0,0:0:0:0:
192,192,44954,1,0,0:0:0:0:
64,192,45023,1,0,0:0:0:0:
192,192,45093,1,0,0:0:0:0:
64,192,45163,1,0,0:0:0:0:
448,192,45233,1,0,0:0:0:0:
320,192,45303,1,0,0:0:0:0:
448,192,45372,1,0,0:0:0:0:
320,192,45442,1,0,0:0:0:0:
448,192,45512,1,0,0:0:0:0:
64,192,45582,1,0,0:0:0:0:
448,192,45651,1,0,0:0:0:0:
64,192,45721,1,0,0:0:0:0:
448,192,45791,1,0,0:0:0:0:
192,192,45861,1,0,0:0:0:0:
448,192,45930,1,0,0:0:0:0:
192,192,46000,1,0,0:0:0:0:
448,192,46070,1,0,0:0:0:0:
320,192,46140,1,0,0:0:0:0:
448,192,46209,1,0,0:0:0:0:
320,192,46279,1,0,0:0:0:0:
192,192,46349,1,0,0:0:0:0:
64,192,46419,1,0,0:0:0:0:
192,192,46489,1,0,0:0:0:0:
320,192,46558,1,0,0:0:0:0:
448,192,46628,1,0,0:0:0:0:
64,192,46698,1,0,0:0:0:0:
320,192,46768,1,0,0:0:0:0:
192,192,46837,1,0,0:0:0:0:
448,192,46907,1,0,0:0:0:0:
64,192,46977,1,0,0:0:0:0:
320,192,47047,1,0,0:0:0:0:
192,192,47116,1,0,0:0:0:0:
448,192,47186,1,0,0:0:0:0:
64,192,47256,1,0,0:0:0:0:
192,192,47326,1,0,0:0:0:0:
320,192,47395,1,0,0:0:0:0:
448,192,47465,1,0,0:0:0:0:
192,192,47535,1,0,0:0:0:0:
320,192,47605,1,0,0:0:0:0:
64,192,47675,1,0,0:0:0:0:
448,192,47744,1,0,0:0:0:0:
64,192,47814,1,0,0:0:0:0:
320,192,47884,1,0,0:0:0:0:
192,192,47954,1,0,0:0:0:0:
448,192,48023,1,0,0:0:0:0:
320,192,48093,1,0,0:0:0:0:
192,192,48163,1,0,0:0:0:0:
320,192,48233,1,0,0:0:0:0:
320,192,48372,1,0,0:0:0:0:
320,192,48512,1,0,0:0:0:0:
448,192,48581,1,0,0:0:0:0:
64,192,48651,1,0,0:0:0:0:
448,192,48721,1,0,0:0:0:0:
64,192,48791,1,0,0:0:0:0:
320,192,48861,1,0,0:0:0:0:
192,192,48930,1,0,0:0:0:0:
448,192,49000,1,0,0:0:0:0:
64,192,49070,1,0,0:0:0:0:
320,192,49140,1,0,0:0:0:0:
192,192,49209,1,0,0:0:0:0:
448,192,49279,1,0,0:0:0:0:
64,192,49349,1,0,0:0:0:0:
320,192,49419,1,0,0:0:0:0:
64,192,49488,1,0,0:0:0:0:
320,192,49558,1,0,0:0:0:0:
64,192,49628,1,0,0:0:0:0:
448,192,49698,1,0,0:0:0:0:
320,192,49768,1,0,0:0:0:0:
192,192,49837,1,0,0:0:0:0:
64,192,49907,1,0,0:0:0:0:
320,192,49977,1,0,0:0:0:0:
192,192,50047,1,0,0:0:0:0:
320,192,50116,1,0,0:0:0:0:
64,192,50186,1,0,0:0:0:0:
448,192,50256,1,0,0:0:0:0:
192,192,50326,1,0,0:0:0:0:
320,192,50395,1,0,0:0:0:0:
64,192,50465,1,0,0:0:0:0:
192,192,50535,1,0,0:0:0:0:
320,192,50605,1,0,0:0:0:0:
448,192,50674,1,0,0:0:0:0:
320,192,50744,1,0,0:0:0:0:
192,192,50814,1,0,0:0:0:0:
64,192,50884,1,0,0:0:0:0:
448,192,50954,1,0,0:0:0:0:
64,192,51023,1,0,0:0:0:0:
448,192,51093,1,0,0:0:0:0:
192,192,51163,1,0,0:0:0:0:
320,192,51233,1,0,0:0:0:0:
64,192,51302,1,0,0:0:0:0:
192,192,51372,1,0,0:0:0:0:
320,192,51442,1,0,0:0:0:0:
448,192,51512,1,0,0:0:0:0:
64,192,51581,1,0,0:0:0:0:
320,192,51651,1,0,0:0:0:0:
192,192,51721,1,0,0:0:0:0:
448,192,51791,1,0,0:0:0:0:
64,192,51860,1,0,0:0:0:0:
192,192,51930,1,0,0:0:0:0:
64,192,52000,1,0,0:0:0:0:
320,192,52070,1,0,0:0:0:0:
192,192,52140,1,0,0:0:0:0:
448,192,52209,1,0,0:0:0:0:
192,192,52279,1,0,0:0:0:0:
448,192,52349,1,0,0:0:0:0:
64,192,52419,1,0,0:0:0:0:
64,192,52558,1,0,0:0:0:0:
64,192,52698,1,0,0:0:0:0:
64,192,52837,1,0,0:0:0:0:
320,192,52977,1,0,0:0:0:0:
64,192,53046,1,0,0:0:0:0:
448,192,53116,1,0,0:0:0:0:
192,192,53186,1,0,0:0:0:0:
320,192,53256,1,0,0:0:0:0:
64,192,53326,1,0,0:0:0:0:
448,192,53395,1,0,0:0:0:0:
192,192,53465,1,0,0:0:0:0:
320,192,53535,1,0,0:0:0:0:
64,192,53605,1,0,0:0:0:0:
192,192,53674,1,0,0:0:0:0:
64,192,53744,1,0,0:0:0:0:
448,192,53814,1,0,0:0:0:0:
320,192,53884,1,0,0:0:0:0:
192,192,53953,1,0,0:0:0:0:
64,192,54023,1,0,0:0:0:0:
448,192,54093,1,0,0:0:0:0:
192,192,54163,1,0,0:0:0:0:
320,192,54233,1,0,0:0:0:0:
64,192,54302,1,0,0:0:0:0:
448,192,54372,1,0,0:0:0:0:
320,192,54442,1,0,0:0:0:0:
192,192,54512,1,0,0:0:0:0:
64,192,54581,1,0,0:0:0:0:
448,192,54651,1,0,0:0:0:0:
192,192,54721,1,0,0:0:0:0:
320,192,54791,1,0,0:0:0:0:
64,192,54860,1,0,0:0:0:0:
320,192,54930,1,0,0:0:0:0:
192,192,55000,1,0,0:0:0:0:
448,192,55070,1,0,0:0:0:0:
192,192,55139,1,0,0:0:0:0:
320,192,55209,1,0,0:0:0:0:
64,192,55279,1,0,0:0:0:0:
448,192,55349,1,0,0:0:0:0:
192,192,55419,1,0,0:0:0:0:
320,192,55488,1,0,0:0:0:0:
64,192,55558,1,0,0:0:0:0:
448,192,55628,1,0,0:0:0:0:
192,192,55698,1,0,0:0:0:0:
320,192,55767,1,0,0:0:0:0:
64,192,55837,1,0,0:0:0:0:
192,192,55907,1,0,0:0:0:0:
64,192,55977,1,0,0:0:0:0:
448,192,56046,1,0,0:0:0:0:
192,192,56116,1,0,0:0:0:0:
448,192,56186,1,0,0:0:0:0:
192,192,56256,1,0,0:0:0:0:
320,192,56325,1,0,0:0:0:0:
192,192,56395,1,0,0:0:0:0:
448,192,56465,1,0,0:0:0:0:
64,192,56535,1,0,0:0:0:0:
320,192,56605,1,0,0:0:0:0:
192,192,56674,1,0,0:0:0:0:
448,192,56744,1,0,0:0:0:0:
320,192,56814,1,0,0:0:0:0:
192,192,56884,1,0,0:0:0:0:
64,192,56953,1,0,0:0:0:0:
448,192,57023,1,0,0:0:0:0:
64,192,57093,1,0,0:0:0:0:
192,192,57163,1,0,0:0:0:0:
448,192,57302,1,0,0:0:0:0:
64,192,57442,1,0,0:0:0:0:
192,192,57581,1,0,0:0:0:0:
64,192,57721,1,0,0:0:0:0:
320,192,57860,1,0,0:0:0:0:
64,192,58000,1,0,0:0:0:0:
448,192,58139,1,0,0:0:0:0:
64,192,58279,1,0,0:0:0:0:
320,192,58418,1,0,0:0:0:0:
448,192,58558,1,0,0:0:0:0:
320,192,58698,1,0,0:0:0:0:
448,192,58837,1,0,0:0:0:0:
192,192,58977,1,0,0:0:0:0:
448,192,59116,1,0,0:0:0:0:
64,192,59256,1,0,0:0:0:0:
448,192,59395,1,0,0:0:0:0:
320,192,59535,1,0,0:0:0:0:
192,192,59674,1,0,0:0:0:0:
64,192,59814,1,0,0:0:0:0:
192,192,59953,1,0,0:0:0:0:
320,192,60093,1,0,0:0:0:0:
192,192,60232,1,0,0:0:0:0:
448,192,60372,1,0,0:0:0:0:
192,192,60512,1,0,0:0:0:0:
64,192,60651,1,0,0:0:0:0:
320,192,60791,1,0,0:0:0:0:
192,192,60930,1,0,0:0:0:0:
320,0,61070,128,0,61349:1:0:0:0:
192,192,61488,1,0,0:0:0:0:
320,192,61488,1,0,0:0:0:0:
64,192,61628,1,0,0:0:0:0:
192,192,61628,1,0,0:0:0:0:
192,192,61767,1,0,0:0:0:0:
320,192,61767,1,0,0:0:0:0:
320,192,61907,1,0,0:0:0:0:
448,192,61907,1,0,0:0:0:0:
192,192,62046,1,0,0:0:0:0:
64,192,62186,1,0,0:0:0:0:
320,192,62186,1,0,0:0:0:0:
192,192,62325,1,0,0:0:0:0:
320,192,62465,1,0,0:0:0:0:
448,192,62465,1,0,0:0:0:0:
192,192,62605,1,0,0:0:0:0:
64,192,62744,1,0,0:0:0:0:
320,192,62744,1,0,0:0:0:0:
64,192,62884,1,0,0:0:0:0:
320,192,62884,1,0,0:0:0:0:
192,192,63023,1,0,0:0:0:0:
320,192,63163,1,0,0:0:0:0:
448,192,63163,1,0,0:0:0:0:
192,192,63302,1,0,0:0:0:0:
320,192,63302,1,0,0:0:0:0:
64,192,63442,1,0,0:0:0:0:
192,192,63442,1,0,0:0:0:0:
64,192,63581,1,0,0:0:0:0:
320,192,63581,1,0,0:0:0:0:
192,192,63721,1,0,0:0:0:0:
448,192,63721,1,0,0:0:0:0:
192,192,63860,1,0,0:0:0:0:
320,192,63860,1,0,0:0:0:0:
64,192,64000,1,0,0:0:0:0:
448,192,64000,1,0,0:0:0:0:
192,192,64139,1,0,0:0:0:0:
448,192,64139,1,0,0:0:0:0:
320,192,64279,1,0,0:0:0:0:
64,192,64418,1,0,0:0:0:0:
192,192,64418,1,0,0:0:0:0:
320,192,64558,1,0,0:0:0:0:
192,192,64698,1,0,0:0:0:0:
448,192,64698,1,0,0:0:0:0:
320,192,64837,1,0,0:0:0:0:
64,192,64977,1,0,0:0:0:0:
320,192,64977,1,0,0:0:0:0:
192,192,65116,1,0,0:0:0:0:
448,192,65116,1,0,0:0:0:0:
320,192,65256,1,0,0:0:0:0:
64,192,65395,1,0,0:0:0:0:
192,192,65395,1,0,0:0:0:0:
192,192,65535,1,0,0:0:0:0:
320,192,65535,1,0,0:0:0:0:
320,192,65674,1,0,0:0:0:0:
448,192,65674,1,0,0:0:0:0:
64,192,65814,1,0,0:0:0:0:
448,192,65814,1,0,0:0:0:0:
192,192,65953,1,0,0:0:0:0:
320,192,65953,1,0,0:0:0:0:
64,192,66093,1,0,0:0:0:0:
192,192,66093,1,0,0:0:0:0:
192,192,66232,1,0,0:0:0:0:
320,192,66232,1,0,0:0:0:0:
320,192,66372,1,0,0:0:0:0:
448,192,66372,1,0,0:0:0:0:
192,192,66511,1,0,0:0:0:0:
64,192,66651,1,0,0:0:0:0:
320,192,66651,1,0,0:0:0:0:
192,192,66791,1,0,0:0:0:0:
320,192,66930,1,0,0:0:0:0:
448,192,66930,1,0,0:0:0:0:
192,192,67070,1,0,0:0:0:0:
64,192,67209,1,0,0:0:0:0:
320,192,67209,1,0,0:0:0:0:
192,192,67349,1,0,0:0:0:0:
448,192,67349,1,0,0:0:0:0:
320,192,67488,1,0,0:0:0:0:
64,192,67628,1,0,0:0:0:0:
192,192,67628,1,0,0:0:0:0:
192,192,67767,1,0,0:0:0:0:
320,192,67767,1,0,0:0:0:0:
320,192,67907,1,0,0:0:0:0:
448,192,67907,1,0,0:0:0:0:
192,192,68046,1,0,0:0:0:0:
64,192,68186,1,0,0:0:0:0:
192,192,68186,1,0,0:0:0:0:
192,192,68325,1,0,0:0:0:0:
320,192,68325,1,0,0:0:0:0:
320,192,68465,1,0,0:0:0:0:
448,192,68465,1,0,0:0:0:0:
192,192,68604,1,0,0:0:0:0:
320,192,68744,1,0,0:0:0:0:
448,192,68744,1,0,0:0:0:0:
192,192,68884,1,0,0:0:0:0:
320,192,68884,1,0,0:0:0:0:
64,192,69023,1,0,0:0:0:0:
192,192,69023,1,0,0:0:0:0:
320,192,69163,1,0,0:0:0:0:
64,192,69302,1,0,0:0:0:0:
192,192,69302,1,0,0:0:0:0:
192,192,69442,1,0,0:0:0:0:
320,192,69442,1,0,0:0:0:0:
320,192,69581,1,0,0:0:0:0:
448,192,69581,1,0,0:0:0:0:
192,192,69721,1,0,0:0:0:0:
64,192,69860,1,0,0:0:0:0:
320,192,69860,1,0,0:0:0:0:
64,192,70000,1,0,0:0:0:0:
320,192,70000,1,0,0:0:0:0:
192,192,70139,1,0,0:0:0:0:
320,192,70279,1,0,0:0:0:0:
192,192,70418,1,0,0:0:0:0:
448,192,70418,1,0,0:0:0:0:
64,192,70558,1,0,0:0:0:0:
320,192,70558,1,0,0:0:0:0:
192,192,70697,1,0,0:0:0:0:
448,192,70697,1,0,0:0:0:0:
192,192,70837,1,0,0:0:0:0:
320,192,70837,1,0,0:0:0:0:
448,192,70976,1,0,0:0:0:0:
192,192,71116,1,0,0:0:0:0:
320,192,71116,1,0,0:0:0:0:
64,192,71256,1,0,0:0:0:0:
192,192,71395,1,0,0:0:0:0:
320,192,71395,1,0,0:0:0:0:
64,192,71535,1,0,0:0:0:0:
192,192,71674,1,0,0:0:0:0:
320,192,71674,1,0,0:0:0:0:
320,192,71814,1,0,0:0:0:0:
448,192,71814,1,0,0:0:0:0:
192,192,71953,1,0,0:0:0:0:
64,192,72093,1,0,0:0:0:0:
448,192,72093,1,0,0:0:0:0:
192,192,72232,1,0,0:0:0:0:
320,192,72232,1,0,0:0:0:0:
320,192,72372,1,0,0:0:0:0:
448,192,72372,1,0,0:0:0:0:
64,192,72511,1,0,0:0:0:0:
192,192,72511,1,0,0:0:0:0:
192,192,72651,1,0,0:0:0:0:
320,192,72651,1,0,0:0:0:0:
64,192,72790,1,0,0:0:0:0:
448,192,72790,1,0,0:0:0:0:
320,192,72930,1,0,0:0:0:0:
448,192,72930,1,0,0:0:0:0:
64,192,73069,1,0,0:0:0:0:
192,192,73069,1,0,0:0:0:0:
320,192,73209,1,0,0:0:0:0:
192,192,73349,1,0,0:0:0:0:
448,192,73349,1,0,0:0:0:0:
320,192,73488,1,0,0:0:0:0:
64,192,73628,1,0,0:0:0:0:
448,192,73628,1,0,0:0:0:0:
192,192,73767,1,0,0:0:0:0:
64,192,73907,1,0,0:0:0:0:
320,192,73907,1,0,0:0:0:0:
192,192,74046,1,0,0:0:0:0:
320,192,74046,1,0,0:0:0:0:
448,192,74186,1,0,0:0:0:0:
192,192,74325,1,0,0:0:0:0:
320,192,74325,1,0,0:0:0:0:
320,192,74465,1,0,0:0:0:0:
448,192,74465,1,0,0:0:0:0:
64,192,74604,1,0,0:0:0:0:
448,192,74604,1,0,0:0:0:0:
192,192,74744,1,0,0:0:0:0:
320,192,74744,1,0,0:0:0:0:
64,192,74883,1,0,0:0:0:0:
320,192,74883,1,0,0:0:0:0:
192,192,75023,1,0,0:0:0:0:
448,192,75023,1,0,0:0:0:0:
192,192,75162,1,0,0:0:0:0:
320,192,75162,1,0,0:0:0:0:
64,192,75302,1,0,0:0:0:0:
192,192,75302,1,0,0:0:0:0:
320,192,75441,1,0,0:0:0:0:
192,192,75581,1,0,0:0:0:0:
448,192,75581,1,0,0:0:0:0:
320,192,75721,1,0,0:0:0:0:
64,192,75860,1,0,0:0:0:0:
192,192,75860,1,0,0:0:0:0:
320,192,76000,1,0,0:0:0:0:
64,192,76139,1,0,0:0:0:0:
192,192,76139,1,0,0:0:0:0:
320,192,76279,1,0,0:0:0:0:
448,192,76279,1,0,0:0:0:0:
192,192,76418,1,0,0:0:0:0:
64,192,76558,1,0,0:0:0:0:
320,192,76558,1,0,0:0:0:0:
192,192,76697,1,0,0:0:0:0:
448,192,76697,1,0,0:0:0:0:
320,192,76837,1,0,0:0:0:0:
448,192,76837,1,0,0:0:0:0:
192,192,76976,1,0,0:0:0:0:
320,192,77116,1,0,0:0:0:0:
448,192,77116,1,0,0:0:0:0:
192,192,77255,1,0,0:0:0:0:
448,192,77255,1,0,0:0:0:0:
64,192,77395,1,0,0:0:0:0:
320,192,77395,1,0,0:0:0:0:
192,192,77534,1,0,0:0:0:0:
320,192,77674,1,0,0:0:0:0:
448,192,77674,1,0,0:0:0:0:
192,192,77814,1,0,0:0:0:0:
448,192,77814,1,0,0:0:0:0:
64,192,77953,1,0,0:0:0:0:
448,192,77953,1,0,0:0:0:0:
192,192,78093,1,0,0:0:0:0:
64,192,78232,1,0,0:0:0:0:
320,192,78232,1,0,0:0:0:0:
192,192,78372,1,0,0:0:0:0:
448,192,78372,1,0,0:0:0:0:
64,192,78511,1,0,0:0:0:0:
320,192,78511,1,0,0:0:0:0:
192,192,78651,1,0,0:0:0:0:
64,192,78790,1,0,0:0:0:0:
320,192,78790,1,0,0:0:0:0:
64,0,78930,128,0,79558:1:0:0:0:
320,0,78930,128,0,79558:1:0:0:0:
64,192,79767,1,0,0:0:0:0:
192,192,79837,1,0,0:0:0:0:
64,192,79906,1,0,0:0:0:0:
192,192,79976,1,0,0:0:0:0:
64,192,80046,1,0,0:0:0:0:
320,192,80186,1,0,0:0:0:0:
448,192,80325,1,0,0:0:0:0:
320,192,80395,1,0,0:0:0:0:
448,192,80465,1,0,0:0:0:0:
320,192,80534,1,0,0:0:0:0:
448,192,80604,1,0,0:0:0:0:
192,192,80744,1,0,0:0:0:0:
64,192,80883,1,0,0:0:0:0:
192,192,80953,1,0,0:0:0:0:
320,192,81023,1,0,0:0:0:0:
448,192,81093,1,0,0:0:0:0:
320,192,81162,1,0,0:0:0:0:
448,192,81232,1,0,0:0:0:0:
320,192,81302,1,0,0:0:0:0:
320,192,81441,1,0,0:0:0:0:
192,192,81511,1,0,0:0:0:0:
64,192,81581,1,0,0:0:0:0:
192,192,81651,1,0,0:0:0:0:
320,192,81720,1,0,0:0:0:0:
448,192,81790,1,0,0:0:0:0:
320,192,81860,1,0,0:0:0:0:
448,192,81999,1,0,0:0:0:0:
320,192,82139,1,0,0:0:0:0:
192,192,82209,1,0,0:0:0:0:
320,192,82279,1,0,0:0:0:0:
192,192,82348,1,0,0:0:0:0:
320,192,82418,1,0,0:0:0:0:
448,192,82558,1,0,0:0:0:0:
64,192,82627,1,0,0:0:0:0:
448,192,82697,1,0,0:0:0:0:
64,192,82767,1,0,0:0:0:0:
448,192,82837,1,0,0:0:0:0:
64,192,82976,1,0,0:0:0:0:
192,192,83046,1,0,0:0:0:0:
320,192,83116,1,0,0:0:0:0:
320,192,83255,1,0,0:0:0:0:
448,192,83325,1,0,0:0:0:0:
320,192,83395,1,0,0:0:0:0:
448,192,83465,1,0,0:0:0:0:
320,192,83534,1,0,0:0:0:0:
320,192,83674,1,0,0:0:0:0:
192,192,83744,1,0,0:0:0:0:
64,192,83813,1,0,0:0:0:0:
192,192,83883,1,0,0:0:0:0:
320,192,83953,1,0,0:0:0:0:
448,192,84092,1,0,0:0:0:0:
320,192,84162,1,0,0:0:0:0:
192,192,84232,1,0,0:0:0:0:
192,192,84371,1,0,0:0:0:0:
64,192,84441,1,0,0:0:0:0:
192,192,84511,1,0,0:0:0:0:
64,192,84581,1,0,0:0:0:0:
192,192,84651,1,0,0:0:0:0:
448,192,84790,1,0,0:0:0:0:
64,192,84860,1,0,0:0:0:0:
448,192,84930,1,0,0:0:0:0:
64,192,84999,1,0,0:0:0:0:
448,192,85069,1,0,0:0:0:0:
320,192,85209,1,0,0:0:0:0:
192,192,85278,1,0,0:0:0:0:
64,192,85348,1,0,0:0:0:0:
64,192,85488,1,0,0:0:0:0:
192,192,85558,1,0,0:0:0:0:
320,192,85627,1,0,0:0:0:0:
448,192,85697,1,0,0:0:0:0:
320,192,85767,1,0,0:0:0:0:
320,192,85906,1,0,0:0:0:0:
448,192,85976,1,0,0:0:0:0:
320,192,86046,1,0,0:0:0:0:
192,192,86116,1,0,0:0:0:0:
64,192,86185,1,0,0:0:0:0:
448,192,86325,1,0,0:0:0:0:
192,192,86395,1,0,0:0:0:0:
320,192,86464,1,0,0:0:0:0:
320,192,86604,1,0,0:0:0:0:
192,192,86674,1,0,0:0:0:0:
320,192,86744,1,0,0:0:0:0:
192,192,86813,1,0,0:0:0:0:
320,192,86883,1,0,0:0:0:0:
64,192,87023,1,0,0:0:0:0:
448,192,87092,1,0,0:0:0:0:
64,192,87162,1,0,0:0:0:0:
448,192,87232,1,0,0:0:0:0:
64,192,87302,1,0,0:0:0:0:
64,192,87441,1,0,0:0:0:0:
192,192,87511,1,0,0:0:0:0:
320,192,87581,1,0,0:0:0:0:
64,192,87720,1,0,0:0:0:0:
448,192,87720,1,0,0:0:0:0:
64,192,87999,1,0,0:0:0:0:
448,192,87999,1,0,0:0:0:0:
64,192,88278,1,0,0:0:0:0:
448,192,88278,1,0,0:0:0:0:
64,192,88557,1,0,0:0:0:0:
448,192,88557,1,0,0:0:0:0:
448,192,88697,1,0,0:0:0:0:
192,192,88767,1,0,0:0:0:0:
448,192,88836,1,0,0:0:0:0:
192,192,88906,1,0,0:0:0:0:
320,192,88976,1,0,0:0:0:0:
64,192,89046,1,0,0:0:0:0:
320,192,89116,1,0,0:0:0:0:
64,192,89185,1,0,0:0:0:0:
192,192,89255,1,0,0:0:0:0:
64,192,89325,1,0,0:0:0:0:
192,192,89395,1,0,0:0:0:0:
64,192,89464,1,0,0:0:0:0:
448,192,89534,1,0,0:0:0:0:
320,192,89604,1,0,0:0:0:0:
448,192,89674,1,0,0:0:0:0:
320,192,89743,1,0,0:0:0:0:
448,192,89813,1,0,0:0:0:0:
320,192,89883,1,0,0:0:0:0:
192,192,89953,1,0,0:0:0:0:
64,192,90023,1,0,0:0:0:0:
320,192,90092,1,0,0:0:0:0:
192,192,90162,1,0,0:0:0:0:
320,192,90232,1,0,0:0:0:0:
64,192,90302,1,0,0:0:0:0:
448,192,90371,1,0,0:0:0:0:
192,192,90441,1,0,0:0:0:0:
320,192,90511,1,0,0:0:0:0:
64,192,90581,1,0,0:0:0:0:
448,192,90650,1,0,0:0:0:0:
64,192,90720,1,0,0:0:0:0:
320,192,90790,1,0,0:0:0:0:
192,192,90860,1,0,0:0:0:0:
448,192,90929,1,0,0:0:0:0:
64,192,90999,1,0,0:0:0:0:
320,192,91069,1,0,0:0:0:0:
192,192,91139,1,0,0:0:0:0:
448,192,91209,1,0,0:0:0:0:
192,192,91278,1,0,0:0:0:0:
448,192,91348,1,0,0:0:0:0:
320,192,91418,1,0,0:0:0:0:
192,192,91488,1,0,0:0:0:0:
64,192,91557,1,0,0:0:0:0:
448,192,91627,1,0,0:0:0:0:
64,192,91697,1,0,0:0:0:0:
320,192,91767,1,0,0:0:0:0:
192,192,91836,1,0,0:0:0:0:
320,192,91906,1,0,0:0:0:0:
64,192,91976,1,0,0:0:0:0:
192,192,92046,1,0,0:0:0:0:
320,192,92115,1,0,0:0:0:0:
448,192,92185,1,0,0:0:0:0:
64,192,92255,1,0,0:0:0:0:
320,192,92325,1,0,0:0:0:0:
192,192,92395,1,0,0:0:0:0:
448,192,92464,1,0,0:0:0:0:
64,192,92534,1,0,0:0:0:0:
448,192,92604,1,0,0:0:0:0:
64,192,92674,1,0,0:0:0:0:
448,192,92743,1,0,0:0:0:0:
192,192,92813,1,0,0:0:0:0:
320,192,92883,1,0,0:0:0:0:
64,192,92953,1,0,0:0:0:0:
448,192,93022,1,0,0:0:0:0:
320,192,93092,1,0,0:0:0:0:
192,192,93162,1,0,0:0:0:0:
64,192,93232,1,0,0:0:0:0:
192,192,93301,1,0,0:0:0:0:
64,192,93371,1,0,0:0:0:0:
192,192,93441,1,0,0:0:0:0:
64,192,93511,1,0,0:0:0:0:
320,192,93581,1,0,0:0:0:0:
192,192,93650,1,0,0:0:0:0:
448,192,93720,1,0,0:0:0:0:
192,192,93790,1,0,0:0:0:0:
448,192,93860,1,0,0:0:0:0:
192,192,93929,1,0,0:0:0:0:
448,192,93999,1,0,0:0:0:0:
64,192,94069,1,0,0:0:0:0:
320,192,94139,1,0,0:0:0:0:
192,192,94208,1,0,0:0:0:0:
448,192,94278,1,0,0:0:0:0:
64,192,94348,1,0,0:0:0:0:
448,192,94418,1,0,0:0:0:0:
64,192,94488,1,0,0:0:0:0:
448,192,94557,1,0,0:0:0:0:
192,192,94627,1,0,0:0:0:0:
320,192,94697,1,0,0:0:0:0:
64,192,94767,1,0,0:0:0:0:
192,192,94836,1,0,0:0:0:0:
320,192,94906,1,0,0:0:0:0:
448,192,94976,1,0,0:0:0:0:
64,192,95046,1,0,0:0:0:0:
320,192,95115,1,0,0:0:0:0:
192,192,95185,1,0,0:0:0:0:
448,192,95255,1,0,0:0:0:0:
64,192,95325,1,0,0:0:0:0:
448,192,95394,1,0,0:0:0:0:
320,192,95464,1,0,0:0:0:0:
192,192,95534,1,0,0:0:0:0:
64,192,95604,1,0,0:0:0:0:
448,192,95674,1,0,0:0:0:0:
64,192,95743,1,0,0:0:0:0:
320,192,95813,1,0,0:0:0:0:
192,192,95883,1,0,0:0:0:0:
448,192,95953,1,0,0:0:0:0:
64,192,96022,1,0,0:0:0:0:
192,192,96092,1,0,0:0:0:0:
320,192,96162,1,0,0:0:0:0:
448,192,96232,1,0,0:0:0:0:
64,192,96301,1,0,0:0:0:0:
320,192,96371,1,0,0:0:0:0:
192,192,96441,1,0,0:0:0:0:
448,192,96511,1,0,0:0:0:0:
192,192,96580,1,0,0:0:0:0:
448,192,96650,1,0,0:0:0:0:
192,192,96720,1,0,0:0:0:0:
320,192,96790,1,0,0:0:0:0:
192,192,96860,1,0,0:0:0:0:
320,192,96929,1,0,0:0:0:0:
192,192,96999,1,0,0:0:0:0:
320,192,97069,1,0,0:0:0:0:
64,192,97139,1,0,0:0:0:0:
320,192,97208,1,0,0:0:0:0:
64,192,97278,1,0,0:0:0:0:
192,192,97348,1,0,0:0:0:0:
320,192,97418,1,0,0:0:0:0:
192,192,97487,1,0,0:0:0:0:
320,192,97557,1,0,0:0:0:0:
448,192,97627,1,0,0:0:0:0:
64,192,97697,1,0,0:0:0:0:
192,192,97766,1,0,0:0:0:0:
320,192,97836,1,0,0:0:0:0:
448,192,97906,1,0,0:0:0:0:
64,192,97976,1,0,0:0:0:0:
192,192,98046,1,0,0:0:0:0:
320,192,98115,1,0,0:0:0:0:
448,192,98185,1,0,0:0:0:0:
320,192,98255,1,0,0:0:0:0:
192,192,98325,1,0,0:0:0:0:
64,192,98394,1,0,0:0:0:0:
448,192,98464,1,0,0:0:0:0:
320,192,98534,1,0,0:0:0:0:
192,192,98604,1,0,0:0:0:0:
64,192,98673,1,0,0:0:0:0:
192,192,98743,1,0,0:0:0:0:
64,192,98813,1,0,0:0:0:0:
192,192,98883,1,0,0:0:0:0:
64,192,98953,1,0,0:0:0:0:
192,192,99022,1,0,0:0:0:0:
64,192,99092,1,0,0:0:0:0:
192,192,99162,1,0,0:0:0:0:
64,192,99232,1,0,0:0:0:0:
448,192,99301,1,0,0:0:0:0:
192,192,99371,1,0,0:0:0:0:
448,192,99441,1,0,0:0:0:0:
192,192,99511,1,0,0:0:0:0:
448,192,99580,1,0,0:0:0:0:
192,192,99650,1,0,0:0:0:0:
448,192,99720,1,0,0:0:0:0:
192,192,99790,1,0,0:0:0:0:
448,192,99859,1,0,0:0:0:0:
64,192,99929,1,0,0:0:0:0:
320,192,99999,1,0,0:0:0:0:
192,192,100069,1,0,0:0:0:0:
448,192,100139,1,0,0:0:0:0:
64,192,100208,1,0,0:0:0:0:
448,192,100278,1,0,0:0:0:0:
64,192,100348,1,0,0:0:0:0:
448,192,100418,1,0,0:0:0:0:
320,192,100487,1,0,0:0:0:0:
192,192,100557,1,0,0:0:0:0:
64,192,100627,1,0,0:0:0:0:
448,192,100697,1,0,0:0:0:0:
320,192,100766,1,0,0:0:0:0:
192,192,100836,1,0,0:0:0:0:
64,192,100906,1,0,0:0:0:0:
448,192,100976,1,0,0:0:0:0:
192,192,101045,1,0,0:0:0:0:
448,192,101115,1,0,0:0:0:0:
192,192,101185,1,0,0:0:0:0:
320,192,101255,1,0,0:0:0:0:
64,192,101325,1,0,0:0:0:0:
320,192,101394,1,0,0:0:0:0:
64,192,101464,1,0,0:0:0:0:
448,192,101534,1,0,0:0:0:0:
320,192,101604,1,0,0:0:0:0:
448,192,101673,1,0,0:0:0:0:
320,192,101743,1,0,0:0:0:0:
192,192,101813,1,0,0:0:0:0:
64,192,101883,1,0,0:0:0:0:
192,192,101952,1,0,0:0:0:0:
64,192,102022,1,0,0:0:0:0:
448,192,102092,1,0,0:0:0:0:
320,192,102162,1,0,0:0:0:0:
448,192,102231,1,0,0:0:0:0:
320,192,102301,1,0,0:0:0:0:
192,192,102371,1,0,0:0:0:0:
64,192,102441,1,0,0:0:0:0:
192,192,102511,1,0,0:0:0:0:
64,192,102580,1,0,0:0:0:0:
448,192,102650,1,0,0:0:0:0:
192,192,102720,1,0,0:0:0:0:
448,192,102790,1,0,0:0:0:0:
192,192,102859,1,0,0:0:0:0:
320,192,102929,1,0,0:0:0:0:
64,192,102999,1,0,0:0:0:0:
320,192,103069,1,0,0:0:0:0:
64,192,103138,1,0,0:0:0:0:
192,192,103208,1,0,0:0:0:0:
64,192,103278,1,0,0:0:0:0:
448,192,103348,1,0,0:0:0:0:
192,192,103418,1,0,0:0:0:0:
320,192,103487,1,0,0:0:0:0:
64,192,103557,1,0,0:0:0:0:
448,192,103627,1,0,0:0:0:0:
192,192,103697,1,0,0:0:0:0:
320,192,103766,1,0,0:0:0:0:
64,192,103836,1,0,0:0:0:0:
448,192,103906,1,0,0:0:0:0:
64,192,103976,1,0,0:0:0:0:
320,192,104045,1,0,0:0:0:0:
192,192,104115,1,0,0:0:0:0:
448,192,104185,1,0,0:0:0:0:
320,192,104255,1,0,0:0:0:0:
192,192,104324,1,0,0:0:0:0:
64,192,104394,1,0,0:0:0:0:
448,192,104464,1,0,0:0:0:0:
320,192,104534,1,0,0:0:0:0:
192,192,104604,1,0,0:0:0:0:
320,192,104673,1,0,0:0:0:0:
448,192,104743,1,0,0:0:0:0:
64,192,104813,1,0,0:0:0:0:
448,192,104883,1,0,0:0:0:0:
64,192,104952,1,0,0:0:0:0:
320,192,105022,1,0,0:0:0:0:
192,192,105092,1,0,0:0:0:0:
448,192,105162,1,0,0:0:0:0:
320,192,105231,1,0,0:0:0:0:
192,192,105301,1,0,0:0:0:0:
64,192,105371,1,0,0:0:0:0:
448,192,105441,1,0,0:0:0:0:
64,192,105580,1,0,0:0:0:0:
448,192,105580,1,0,0:0:0:0:
64,192,105859,1,0,0:0:0:0:
448,192,105859,1,0,0:0:0:0:
64,192,106138,1,0,0:0:0:0:
448,192,106138,1,0,0:0:0:0:
64,192,106417,1,0,0:0:0:0:
448,192,106417,1,0,0:0:0:0:
448,192,106557,1,0,0:0:0:0:
64,192,106627,1,0,0:0:0:0:
448,192,106696,1,0,0:0:0:0:
64,192,106766,1,0,0:0:0:0:
448,192,106836,1,0,0:0:0:0:
320,192,106906,1,0,0:0:0:0:
192,192,106976,1,0,0:0:0:0:
64,192,107045,1,0,0:0:0:0:
448,192,107115,1,0,0:0:0:0:
64,192,107185,1,0,0:0:0:0:
448,192,107255,1,0,0:0:0:0:
64,192,107324,1,0,0:0:0:0:
448,192,107394,1,0,0:0:0:0:
320,192,107464,1,0,0:0:0:0:
192,192,107534,1,0,0:0:0:0:
64,192,107603,1,0,0:0:0:0:
192,192,107673,1,0,0:0:0:0:
320,192,107743,1,0,0:0:0:0:
192,192,107813,1,0,0:0:0:0:
320,192,107883,1,0,0:0:0:0:
448,192,107952,1,0,0:0:0:0:
320,192,108022,1,0,0:0:0:0:
192,192,108092,1,0,0:0:0:0:
64,192,108162,1,0,0:0:0:0:
192,192,108231,1,0,0:0:0:0:
320,192,108301,1,0,0:0:0:0:
192,192,108371,1,0,0:0:0:0:
320,192,108441,1,0,0:0:0:0:
448,192,108510,1,0,0:0:0:0:
320,192,108580,1,0,0:0:0:0:
192,192,108650,1,0,0:0:0:0:
64,192,108720,1,0,0:0:0:0:
320,192,108789,1,0,0:0:0:0:
192,192,108859,1,0,0:0:0:0:
448,192,108929,1,0,0:0:0:0:
64,192,108999,1,0,0:0:0:0:
320,192,109069,1,0,0:0:0:0:
192,192,109138,1,0,0:0:0:0:
448,192,109208,1,0,0:0:0:0:
64,192,109278,1,0,0:0:0:0:
192,192,109348,1,0,0:0:0:0:
320,192,109417,1,0,0:0:0:0:
448,192,109487,1,0,0:0:0:0:
64,192,109557,1,0,0:0:0:0:
192,192,109627,1,0,0:0:0:0:
320,192,109696,1,0,0:0:0:0:
448,192,109766,1,0,0:0:0:0:
64,192,109836,1,0,0:0:0:0:
192,192,109906,1,0,0:0:0:0:
320,192,109975,1,0,0:0:0:0:
192,192,110045,1,0,0:0:0:0:
320,192,110115,1,0,0:0:0:0:
448,192,110185,1,0,0:0:0:0:
64,192,110255,1,0,0:0:0:0:
448,192,110324,1,0,0:0:0:0:
64,192,110394,1,0,0:0:0:0:
192,192,110464,1,0,0:0:0:0:
320,192,110534,1,0,0:0:0:0:
192,192,110603,1,0,0:0:0:0:
320,192,110673,1,0,0:0:0:0:
448,192,110743,1,0,0:0:0:0:
64,192,110813,1,0,0:0:0:0:
448,192,110882,1,0,0:0:0:0:
64,192,110952,1,0,0:0:0:0:
192,192,111022,1,0,0:0:0:0:
64,192,111092,1,0,0:0:0:0:
192,192,111161,1,0,0:0:0:0:
64,192,111231,1,0,0:0:0:0:
320,192,111301,1,0,0:0:0:0:
192,192,111371,1,0,0:0:0:0:
320,192,111441,1,0,0:0:0:0:
192,192,111510,1,0,0:0:0:0:
448,192,111580,1,0,0:0:0:0:
320,192,111650,1,0,0:0:0:0:
448,192,111720,1,0,0:0:0:0:
320,192,111789,1,0,0:0:0:0:
192,192,111859,1,0,0:0:0:0:
320,192,111929,1,0,0:0:0:0:
192,192,111999,1,0,0:0:0:0:
320,192,112068,1,0,0:0:0:0:
448,192,112138,1,0,0:0:0:0:
64,192,112208,1,0,0:0:0:0:
448,192,112278,1,0,0:0:0:0:
64,192,112348,1,0,0:0:0:0:
320,192,112417,1,0,0:0:0:0:
192,192,112487,1,0,0:0:0:0:
448,192,112557,1,0,0:0:0:0:
64,192,112627,1,0,0:0:0:0:
320,192,112696,1,0,0:0:0:0:
192,192,112766,1,0,0:0:0:0:
320,192,112836,1,0,0:0:0:0:
192,192,112906,1,0,0:0:0:0:
448,192,112975,1,0,0:0:0:0:
64,192,113045,1,0,0:0:0:0:
320,192,113115,1,0,0:0:0:0:
192,192,113185,1,0,0:0:0:0:
448,192,113254,1,0,0:0:0:0:
192,192,113324,1,0,0:0:0:0:
448,192,113394,1,0,0:0:0:0:
192,192,113464,1,0,0:0:0:0:
448,192,113534,1,0,0:0:0:0:
320,192,113603,1,0,0:0:0:0:
448,192,113673,1,0,0:0:0:0:
320,192,113743,1,0,0:0:0:0:
192,192,113813,1,0,0:0:0:0:
64,192,113882,1,0,0:0:0:0:
192,192,113952,1,0,0:0:0:0:
64,192,114022,1,0,0:0:0:0:
448,192,114092,1,0,0:0:0:0:
64,192,114161,1,0,0:0:0:0:
448,192,114231,1,0,0:0:0:0:
64,192,114301,1,0,0:0:0:0:
320,192,114371,1,0,0:0:0:0:
192,192,114440,1,0,0:0:0:0:
448,192,114510,1,0,0:0:0:0:
320,192,114580,1,0,0:0:0:0:
192,192,114650,1,0,0:0:0:0:
64,192,114720,1,0,0:0:0:0:
320,192,114789,1,0,0:0:0:0:
192,192,114859,1,0,0:0:0:0:
448,192,114929,1,0,0:0:0:0:
64,192,114999,1,0,0:0:0:0:
320,192,115068,1,0,0:0:0:0:
192,192,115138,1,0,0:0:0:0:
448,192,115208,1,0,0:0:0:0:
64,192,115278,1,0,0:0:0:0:
448,192,115347,1,0,0:0:0:0:
64,192,115417,1,0,0:0:0:0:
192,192,115487,1,0,0:0:0:0:
320,192,115557,1,0,0:0:0:0:
448,192,115626,1,0,0:0:0:0:
64,192,115696,1,0,0:0:0:0:
192,192,115766,1,0,0:0:0:0:
320,192,115836,1,0,0:0:0:0:
448,192,115906,1,0,0:0:0:0:
64,192,115975,1,0,0:0:0:0:
192,192,116045,1,0,0:0:0:0:
64,192,116115,1,0,0:0:0:0:
192,192,116185,1,0,0:0:0:0:
320,192,116254,1,0,0:0:0:0:
448,192,116324,1,0,0:0:0:0:
64,192,116394,1,0,0:0:0:0:
448,192,116464,1,0,0:0:0:0:
64,192,116533,1,0,0:0:0:0:
320,192,116603,1,0,0:0:0:0:
192,192,116673,1,0,0:0:0:0:
448,192,116743,1,0,0:0:0:0:
320,192,116813,1,0,0:0:0:0:
192,192,116882,1,0,0:0:0:0:
64,192,116952,1,0,0:0:0:0:
192,192,117022,1,0,0:0:0:0:
64,192,117092,1,0,0:0:0:0:
192,192,117161,1,0,0:0:0:0:
320,192,117231,1,0,0:0:0:0:
192,192,117301,1,0,0:0:0:0:
320,192,117371,1,0,0:0:0:0:
448,192,117440,1,0,0:0:0:0:
320,192,117510,1,0,0:0:0:0:
448,192,117580,1,0,0:0:0:0:
320,192,117650,1,0,0:0:0:0:
448,192,117719,1,0,0:0:0:0:
192,192,117789,1,0,0:0:0:0:
448,192,117859,1,0,0:0:0:0:
192,192,117929,1,0,0:0:0:0:
320,192,117999,1,0,0:0:0:0:
64,192,118068,1,0,0:0:0:0:
320,192,118138,1,0,0:0:0:0:
64,192,118208,1,0,0:0:0:0:
448,192,118278,1,0,0:0:0:0:
320,192,118347,1,0,0:0:0:0:
192,192,118417,1,0,0:0:0:0:
64,192,118487,1,0,0:0:0:0:
448,192,118557,1,0,0:0:0:0:
320,192,118626,1,0,0:0:0:0:
192,192,118696,1,0,0:0:0:0:
64,192,118766,1,0,0:0:0:0:
192,192,118836,1,0,0:0:0:0:
64,192,118905,1,0,0:0:0:0:
192,192,118975,1,0,0:0:0:0:
320,192,119045,1,0,0:0:0:0:
448,192,119115,1,0,0:0:0:0:
64,192,119185,1,0,0:0:0:0:
448,192,119254,1,0,0:0:0:0:
192,192,119324,1,0,0:0:0:0:
320,192,119394,1,0,0:0:0:0:
64,192,119464,1,0,0:0:0:0:
448,192,119533,1,0,0:0:0:0:
64,192,119603,1,0,0:0:0:0:
320,192,119673,1,0,0:0:0:0:
192,192,119743,1,0,0:0:0:0:
448,192,119812,1,0,0:0:0:0:
64,192,119882,1,0,0:0:0:0:
320,192,119952,1,0,0:0:0:0:
192,192,120022,1,0,0:0:0:0:
448,192,120091,1,0,0:0:0:0:
64,192,120161,1,0,0:0:0:0:
448,192,120231,1,0,0:0:0:0:
64,192,120301,1,0,0:0:0:0:
320,192,120371,1,0,0:0:0:0:
192,192,120440,1,0,0:0:0:0:
448,192,120510,1,0,0:0:0:0:
64,192,120580,1,0,0:0:0:0:
448,192,120650,1,0,0:0:0:0:
64,192,120719,1,0,0:0:0:0:
320,192,120789,1,0,0:0:0:0:
192,192,120859,1,0,0:0:0:0:
320,192,120929,1,0,0:0:0:0:
192,192,120998,1,0,0:0:0:0:
320,192,121068,1,0,0:0:0:0:
192,192,121138,1,0,0:0:0:0:
448,192,121208,1,0,0:0:0:0:
64,192,121278,1,0,0:0:0:0:
192,192,121347,1,0,0:0:0:0:
64,192,121417,1,0,0:0:0:0:
192,192,121487,1,0,0:0:0:0:
64,192,121557,1,0,0:0:0:0:
192,192,121626,1,0,0:0:0:0:
320,192,121696,1,0,0:0:0:0:
448,192,121766,1,0,0:0:0:0:
64,192,121836,1,0,0:0:0:0:
192,192,121905,1,0,0:0:0:0:
320,192,121975,1,0,0:0:0:0:
448,192,122045,1,0,0:0:0:0:
192,192,122115,1,0,0:0:0:0:
448,192,122184,1,0,0:0:0:0:
320,192,122324,1,0,0:0:0:0:
448,192,122464,1,0,0:0:0:0:
320,192,122603,1,0,0:0:0:0:
448,192,122743,1,0,0:0:0:0:
320,192,122882,1,0,0:0:0:0:
448,192,123022,1,0,0:0:0:0:
320,192,123161,1,0,0:0:0:0:
192,192,123301,1,0,0:0:0:0:
192,192,123440,1,0,0:0:0:0:
192,192,123719,1,0,0:0:0:0:
192,192,123998,1,0,0:0:0:0:
192,192,124138,1,0,0:0:0:0:
192,192,124277,1,0,0:0:0:0:
64,0,124417,128,0,124743:1:0:0:0:
448,0,124417,128,0,124743:1:0:0:0:
