osu file format v12

[General]
AudioFilename: 1-07 Highleg Mermaid.mp3
AudioLeadIn: 2000
PreviewTime: 98800
Countdown: 0
SampleSet: Soft
StackLeniency: 0.7
Mode: 0
LetterboxInBreaks: 0
EpilepsyWarning: 1
WidescreenStoryboard: 1

[Editor]
Bookmarks: 12478,37252,62026,99187,123961,148736,173510,198284,223058,247832,284994,309768,334542,359316
DistanceSpacing: 0.5
BeatDivisor: 4
GridSize: 4
TimelineZoom: 1

[Metadata]
Title:Highleg Mermaid
TitleUnicode:Highleg Mermaid
Artist:xenothium
ArtistUnicode:xenothium
Creator:HanzeR
Version:OVERJOY
Source:BMS
Tags:bof2013 groundbreaking captin1 expew saka1234 -_r_u_m_i_a_- ishimaru94
BeatmapID:368944
BeatmapSetID:149319

[Difficulty]
HPDrainRate:6
CircleSize:4
OverallDifficulty:9
ApproachRate:9
SliderMultiplier:2.4
SliderTickRate:2

[Events]
//Background and Video events
0,0,"BG.jpg",0,0
//Break Periods
//Storyboard Layer 0 (Background)
//Storyboard Layer 1 (Fail)
//Storyboard Layer 2 (Pass)
//Storyboard Layer 3 (Foreground)
Sprite,Foreground,Centre,"SB\LE SLIDER BALL OF LIGHT.png",320,240 M,0,96130,,483,265 S,0,96130,,0.84 F,0,96130,97292,1 M,0,97292,97630,439,350,245,430 F,0,97679,,0 M,0,281937,,92,220 F,0,281937,,1 M,0,283098,,140,200 M,0,283098,283389,140,200,312,140 M,0,283485,283582,320,230 M,0,283679,,225,359 M,0,283872,284066,409,184,526,127 M,0,284163,284356,225,359,109,409 M,0,284453,284550,417,324,470,351 M,0,284647,284743,222,223,173,189 M,0,284840,284889,327,382,349,430 M,0,284889,284937,349,430,295,407
Sprite,Foreground,Centre,"SB\go.png",326,232 L,96518,12 M,0,0,97,326,232,326,237 L,282324,12 M,0,0,97,326,232,326,237 M,0,97292,97679,326,232,317,97 F,0,97292,97679,1,0 R,0,97292,97679,0,2 F,0,282324,,1 R,0,282324,,0 M,0,283098,283485,326,232,317,97 F,0,283098,283485,1,0 R,0,283098,283485,0,2
Sprite,Foreground,Centre,"SB\ing.png",408,222 L,96711,10 M,0,0,97,408,222,408,227 L,282518,10 M,0,0,97,408,222,408,227 M,0,97292,97679,408,222,513,221 F,0,97292,97679,1,0 R,0,97292,97679,0,1.5 F,0,282518,,1 R,0,282518,,0 M,0,283098,283485,408,222,513,221 F,0,283098,283485,1,0 R,0,283098,283485,0,1.5
Sprite,Foreground,Centre,"SB\crazy.png",320,286 L,96905,8 M,0,0,97,320,285,320,295 L,97292,2 R,0,0,97,0,-0.15 R,0,97,194,0,0.15 L,282711,8 M,0,0,97,320,285,320,295 L,283098,2 R,0,0,97,0,-0.15 R,0,97,194,0,0.15 F,0,96905,,1 S,0,96905,,0.65 M,0,97292,97679,320,286,315,415 F,0,97292,97679,1,0 F,0,282711,,1 R,0,282711,,0 M,0,283098,283485,320,286,315,415 M,0,283098,283485,320,286,315,415 F,0,283098,283485,1,0
Sprite,Foreground,Centre,"SB\he.png",230,225 L,96324,14 M,0,0,97,230,225,230,230 L,282130,14 M,0,0,97,230,225,230,230 F,0,96324,97292,1 M,0,97292,97679,230,225,147,134 F,0,97292,97679,1,0 R,0,97292,97679,0,-1.5 R,0,97679,,0 F,0,282130,,1 M,0,283098,283485,230,225,147,134 F,0,283098,283485,1,0 F,0,283098,283485,1,0 R,0,283098,283485,0,-1.5
//Storyboard Sound Samples
//Background Colour Transformations
3,100,163,162,255

[TimingPoints]
131,387.096774193548,4,3,1,70,1,0
421,-111.111111111111,4,3,1,70,0,0
711,-125,4,3,1,70,0,0
905,-200,4,3,1,70,0,0
1485,-133.333333333333,4,3,1,70,0,0
1679,-100,4,3,1,70,0,0
3227,-100,4,3,1,70,0,0
3518,-111.111111111111,4,3,1,70,0,0
3808,-125,4,3,1,70,0,0
4098,-200,4,3,1,70,0,0
4582,-133.333333333333,4,3,1,70,0,0
4776,-100,4,3,1,70,0,0
6614,-111.111111111111,4,3,1,70,0,0
6905,-125,4,3,1,70,0,0
7195,-200,4,3,1,70,0,0
7679,-133.333333333333,4,3,1,70,0,0
7872,-100,4,3,1,70,0,0
8453,-111.111111111111,4,3,1,70,0,0
8743,-125,4,3,1,70,0,0
9034,-200,4,3,1,70,0,0
9324,-100,4,3,1,70,0,0
12518,-100,4,3,1,70,0,1
12614,-100,4,3,1,70,0,0
24130,-100,4,3,1,70,0,0
24905,-66.6666666666667,4,3,1,70,0,0
25292,-100,4,3,1,70,0,1
25485,-100,4,3,1,70,0,0
37292,-100,4,2,1,70,0,0
49098,-80,4,3,1,70,0,0
49389,-66.6666666666667,4,3,1,70,0,0
49679,-100,4,2,1,70,0,0
52776,-80,4,3,1,70,0,0
53163,-66.6666666666667,4,3,1,70,0,1
53550,-80,4,3,1,70,0,0
53937,-66.6666666666667,4,3,1,70,0,1
54324,-80,4,3,1,70,0,0
54711,-66.6666666666667,4,3,1,70,0,1
55098,-66.6666666666667,4,3,1,70,0,0
55872,-100,4,2,1,70,0,0
61679,-100,4,2,1,20,0,0
62066,-133.333333333333,4,3,1,40,0,0
86840,-100,4,3,1,70,0,0
94582,-100,4,1,1,70,0,0
96130,-200,4,2,1,50,0,1
97292,-100,4,3,1,70,0,0
97679,-50,4,3,1,70,0,1
97776,-50,4,3,1,70,0,0
99227,-100,4,1,1,70,0,1
122453,-66.6666666666667,4,3,1,70,0,1
122647,-66.6666666666667,4,3,1,70,0,0
122743,-66.6666666666667,4,3,1,70,0,1
122937,-66.6666666666667,4,3,1,70,0,0
123034,-66.6666666666667,4,3,1,70,0,1
123227,-66.6666666666667,4,3,1,70,0,0
123324,-66.6666666666667,4,3,1,70,0,1
123518,-66.6666666666667,4,3,1,70,0,0
123614,-66.6666666666667,4,3,1,70,0,1
123905,-66.6666666666667,4,3,1,70,0,0
124001,-66.6666666666667,4,3,1,70,0,1
124098,-66.6666666666667,4,3,1,70,0,0
130195,-133.333333333333,4,2,1,70,0,0
136389,-133.333333333333,4,3,1,70,0,0
148776,-100,4,3,1,50,0,0
170453,-100,4,3,1,70,0,1
172001,-100,4,2,1,50,0,0
173453,-100,4,3,1,70,0,0
173550,-133.333333333333,4,3,1,70,0,1
173647,-133.333333333333,4,3,1,50,0,0
185937,-100,4,3,1,70,0,0
186227,-111.111111111111,4,3,1,70,0,0
186518,-125,4,3,1,70,0,0
186808,-200,4,3,1,70,0,0
187098,-100,4,3,1,70,0,0
189324,-111.111111111111,4,3,1,70,0,0
189614,-125,4,3,1,70,0,0
189905,-200,4,3,1,70,0,0
190389,-100,4,3,1,70,0,0
192421,-111.111111111111,4,3,1,70,0,0
192711,-125,4,3,1,70,0,0
193001,-200,4,3,1,70,0,0
193485,-100,4,3,1,70,0,0
193969,-111.111111111111,4,3,1,70,0,0
194260,-125,4,3,1,70,0,0
194550,-200,4,3,1,70,0,0
195034,-100,4,3,1,70,0,0
196776,-100,4,3,1,70,0,1
196872,-100,4,2,1,20,0,0
197163,-100,4,2,1,30,0,0
197550,-100,4,2,1,40,0,0
197937,-100,4,2,1,50,0,0
198324,-133.333333333333,4,3,1,70,0,1
198421,-133.333333333333,4,3,1,70,0,0
210711,-66.6666666666667,4,3,1,70,0,0
211098,-100,4,3,1,70,0,1
211292,-100,4,3,1,70,0,0
213227,-80,4,3,1,70,0,0
213518,-66.6666666666667,4,3,1,70,0,0
213711,-100,4,3,1,70,0,0
216324,-80,4,3,1,70,0,0
216614,-66.6666666666667,4,3,1,70,0,0
216808,-100,4,3,1,70,0,0
219421,-80,4,3,1,70,0,0
219614,-66.6666666666667,4,3,1,70,0,0
219711,-57.1428571428571,4,3,1,70,0,0
219808,-57.1428571428571,4,3,1,70,0,0
219905,-50,4,3,1,70,0,0
223098,-100,4,2,1,70,0,0
228905,-66.6666666666667,4,3,1,70,0,0
229292,-100,4,2,1,70,0,0
234905,-80,4,3,1,70,0,0
235098,-66.6666666666667,4,3,1,70,0,0
235485,-100,4,2,1,70,0,0
238582,-80,4,3,1,70,0,0
238969,-66.6666666666667,4,3,1,70,0,1
239356,-80,4,3,1,70,0,0
239743,-66.6666666666667,4,3,1,70,0,1
240130,-80,4,3,1,70,0,0
240518,-66.6666666666667,4,3,1,70,0,1
240905,-100,4,3,1,70,0,0
241679,-100,4,2,1,70,0,0
247872,-133.333333333333,4,2,1,70,0,0
254066,-200,4,3,1,70,0,0
257163,-133.333333333333,4,3,1,70,0,0
258324,-133.333333333333,4,2,1,70,0,0
260260,-133.333333333333,4,3,1,70,0,0
272647,-100,4,3,1,70,0,0
280389,-100,4,1,1,70,0,0
281937,-100,4,2,1,50,0,1
282711,-100,4,2,1,50,0,0
283098,-100,4,3,1,70,0,0
283485,-100,4,3,1,70,0,0
284840,-50,4,3,1,70,0,0
285034,-100,4,1,1,70,0,1
295872,-80,4,1,1,70,0,1
296163,-80,4,1,1,70,0,1
296840,-100,4,1,1,70,0,1
308163,-100,4,1,1,70,0,0
308260,-50,4,1,1,70,0,1
308453,-50,4,1,1,70,0,0
308550,-50,4,1,1,70,0,1
308743,-50,4,1,1,70,0,0
308840,-50,4,1,1,70,0,1
309034,-50,4,1,1,70,0,0
309130,-50,4,1,1,70,0,1
309324,-50,4,1,1,70,0,0
309421,-50,4,1,1,70,0,1
309614,-50,4,1,1,70,0,0
309808,-80,4,1,1,70,0,1
331485,-80,4,3,1,70,0,1
331872,-68.9655172413793,4,3,1,70,0,1
332260,-60.6060606060606,4,3,1,70,0,1
332647,-54.054054054054,4,3,1,70,0,1
333034,-50,4,1,1,70,0,1
333324,-57.1428571428571,4,1,1,70,0,1
333614,-66.6666666666667,4,1,1,70,0,1
333905,-80,4,1,1,70,0,1
334195,-100,4,1,1,70,0,1
334582,-133.333333333333,4,2,1,70,0,1
334776,-133.333333333333,4,2,1,70,0,0
334969,-133.333333333333,4,2,1,70,0,1
335163,-133.333333333333,4,2,1,70,0,0
335356,-133.333333333333,4,2,1,70,0,1
335550,-133.333333333333,4,2,1,70,0,0
335743,-133.333333333333,4,2,1,70,0,1
335937,-133.333333333333,4,2,1,70,0,0
356260,-133.333333333333,4,2,1,70,0,0
357808,-80,4,2,1,70,0,0
359356,-80,4,2,1,70,0,1
359453,-80,4,2,1,70,0,0

[Colours]
Combo1 : 192,192,192
Combo2 : 125,190,255
Combo3 : 169,226,135
Combo4 : 128,128,255

[HitObjects]
76,52,131,6,0,P|129:48|170:116,1,120,4|0,1:1|0:0,0:0:0:0:
148,176,421,2,0,L|106:294,1,107.999996704102,2|0,0:2|0:0,0:0:0:0:
208,252,711,2,0,L|220:360,1,96,2|0,0:2|0:0,0:0:0:0:
300,304,1001,2,0,L|344:371,1,60,2|0,0:2|0:0,0:0:0:0:
388,280,1292,1,4,0:2:0:0:
448,144,1485,6,0,P|440:120|445:92,1,45.0000017166138
512,120,1679,2,0,P|460:72|480:12,1,120,2|0,2:0|0:0,0:0:0:0:
376,120,1969,2,0,L|248:136,1,120,2|0,2:0|0:0,0:0:0:0:
176,128,2260,1,0,0:0:0:0:
40,340,2453,2,0,B|32:308|32:308|44:276,1,60,2|0,2:0|0:0,0:0:0:0:
176,128,2647,2,0,B|184:160|184:160|172:192,1,60,2|0,2:0|0:0,0:0:0:0:
116,304,2840,2,0,B|132:280|132:280|236:260,1,120,2|0,2:0|0:0,0:0:0:0:
388,340,3227,6,0,P|352:320|344:232,1,120,2|0,0:2|0:0,0:0:0:0:
432,200,3518,2,0,P|465:218|473:301,1,107.999996704102,2|0,2:0|0:0,0:0:0:0:
404,336,3808,2,0,P|368:316|360:228,1,96,2|0,2:0|0:0,0:0:0:0:
416,192,4098,2,0,P|437:204|442:257,1,60,0|0,2:0|0:0,0:0:0:0:
336,172,4389,1,4,2:0:0:0:
380,96,4582,6,0,P|406:68|441:67,1,45.0000017166138,2|0,2:0|0:0,0:0:0:0:
440,92,4776,2,0,P|382:94|333:24,1,120,2|0,2:0|0:0,0:0:0:0:
160,76,5066,2,0,P|199:119|283:103,1,120,2|0,2:0|0:0,0:0:0:0:
232,48,5356,1,0,0:0:0:0:
124,176,5550,2,0,L|136:252,1,60,2|0,1:0|0:0,0:0:0:0:
192,296,5743,2,0,P|220:300|256:284,3,40,2|2|2|0,2:0|2:0|2:0|0:0,0:0:0:0:
48,300,6130,1,0,0:0:0:0:
220,220,6324,6,0,P|280:228|320:288,1,120,4|0,1:0|0:0,0:0:0:0:
323,172,6614,2,0,P|336:231|293:289,1,107.999996704102,2|0,2:0|0:0,0:0:0:0:
401,303,6905,2,0,P|341:294|301:235,1,96,2|0,2:0|0:0,0:0:0:0:
265,294,7195,2,0,P|292:272|334:280,1,60
424,224,7485,1,4,2:0:0:0:
280,128,7679,2,0,B|264:104|276:68,1,45.0000017166138,2|0,2:0|0:0,0:0:0:0:
356,100,7872,2,0,P|412:72|432:4,1,120,2|0,0:2|0:0,0:0:0:0:
208,44,8163,6,0,L|80:24,1,120,2|0,2:0|0:0,0:0:0:0:
140,112,8453,2,0,L|35:188,1,107.999996704102,2|0,2:0|0:0,0:0:0:0:
164,192,8743,2,0,L|101:305,1,96,2|0,2:0|0:0,0:0:0:0:
220,256,9034,2,0,L|241:329,1,60,4|0,2:0|0:0,0:0:0:0:
316,264,9324,5,0,0:0:0:0:
348,240,9421,1,0,1:0:0:0:
388,236,9518,1,0,0:0:0:0:
428,252,9614,1,0,0:0:0:0:
456,284,9711,1,2,2:0:0:0:
484,252,9808,5,0,0:0:0:0:
492,212,9905,1,0,0:0:0:0:
480,172,10001,1,2,2:0:0:0:
452,144,10098,1,0,0:0:0:0:
412,132,10195,1,0,0:0:0:0:
372,148,10292,1,2,2:0:0:0:
328,144,10389,1,0,0:0:0:0:
296,116,10485,1,0,0:0:0:0:
288,80,10582,6,0,P|288:56|312:20,1,60,0|0,1:0|0:0,0:0:0:0:
224,304,10776,6,8,P|224:328|200:364,1,60,8|0,1:0|1:0,0:0:0:0:
256,192,10969,5,4,1:1:0:0:
256,192,11066,12,0,12421,0:0:0:0:
70,363,12518,6,0,L|25:310,1,60,4|0,1:0|0:0,0:0:0:0:
108,288,12711,2,0,L|89:221,1,60,2|0,2:0|0:0,0:0:0:0:
175,229,12905,2,0,L|197:96,1,120,2|0,2:0|0:0,0:0:0:0:
260,64,13195,1,2,2:0:0:0:
292,36,13292,2,0,P|308:64|304:100,1,60,2|0,0:1|0:0,0:0:0:0:
304,188,13485,1,0,0:0:0:0:
282,173,13582,2,0,P|322:175|392:112,1,120,2|0,0:1|0:0,0:0:0:0:
416,232,13872,5,2,0:1:0:0:
416,232,13969,1,0,0:0:0:0:
416,232,14066,2,0,L|428:296,1,60
476,124,14260,2,0,L|464:60,1,60,2|0,2:0|0:0,0:0:0:0:
344,284,14453,2,0,B|312:316|312:316|224:328,1,120,2|0,2:0|0:0,0:0:0:0:
144,328,14743,5,0,0:0:0:0:
124,324,14840,2,0,L|44:308,1,60,2|2,0:1|0:1,0:0:0:0:
112,236,15034,1,0,0:0:0:0:
100,219,15130,2,0,L|54:151,1,60,2|0,0:1|0:0,0:0:0:0:
152,148,15324,2,0,L|178:17,1,120,2|2,0:1|0:1,0:0:0:0:
140,136,15614,6,0,P|120:116|116:72,1,60
204,79,15808,2,0,P|216:52|256:33,1,60,2|0,2:0|0:0,0:0:0:0:
383,135,16001,2,0,P|315:135|275:83,1,120,2|0,2:0|0:0,0:0:0:0:
340,36,16292,1,0,0:0:0:0:
352,32,16389,2,0,L|436:20,1,60,2|0,0:1|0:0,0:0:0:0:
292,208,16582,1,0,0:0:0:0:
280,212,16679,2,0,L|196:224,1,60,2|0,0:1|0:0,0:0:0:0:
404,332,16872,1,2,0:1:0:0:
416,328,16969,2,0,L|500:316,1,60
364,264,17163,6,0,P|336:284|328:328,1,60
248,288,17356,2,0,P|242:321|267:358,1,60,2|0,2:0|0:0,0:0:0:0:
368,164,17550,1,2,2:0:0:0:
368,164,17743,2,0,L|300:132,1,60
48,36,17937,1,2,0:1:0:0:
32,48,18034,2,0,P|12:80|28:128,1,60,2|0,0:1|0:0,0:0:0:0:
96,104,18227,2,0,P|104:140|149:163,1,60,2|0,0:1|0:0,0:0:0:0:
180,100,18421,2,0,P|212:120|260:104,1,60,2|0,0:1|0:0,0:0:0:0:
44,200,18614,5,0,0:0:0:0:
44,200,18711,2,0,B|44:220|44:220|60:232|60:232|48:276|76:320,1,120,0|2,0:0|0:2,0:0:0:0:
144,268,19001,1,0,0:0:0:0:
136,260,19098,2,0,P|172:276|212:260,1,60,2|0,0:2|0:0,0:0:0:0:
264,236,19292,1,0,0:0:0:0:
304,220,19389,1,0,0:0:0:0:
268,204,19485,2,0,B|292:256|292:256|272:324,1,120,2|0,0:1|0:0,0:0:0:0:
360,304,19776,2,0,L|428:272,1,60,2|0,0:1|0:0,0:0:0:0:
504,236,19969,2,0,L|436:204,1,60,2|0,0:1|0:0,0:0:0:0:
360,164,20163,5,0,0:0:0:0:
344,144,20260,2,0,B|320:92|320:92|340:24,1,120,0|2,0:0|2:0,0:0:0:0:
408,88,20550,1,0,0:0:0:0:
408,88,20647,2,0,L|460:44,1,60,2|0,0:2|0:0,0:0:0:0:
240,108,20937,5,0,0:0:0:0:
240,108,21034,2,0,L|211:39,1,60,2|2,0:1|0:1,0:0:0:0:
152,116,21227,2,0,L|83:87,1,60,0|2,0:0|0:1,0:0:0:0:
104,184,21421,2,0,L|35:212,1,60,0|2,0:0|0:1,0:0:0:0:
104,272,21614,2,0,L|75:340,1,60,0|2,0:0|0:1,0:0:0:0:
196,304,21808,6,0,B|232:216|232:216|204:232,1,120,0|2,0:0|2:0,0:0:0:0:
192,240,22098,1,0,0:0:0:0:
216,236,22195,2,0,L|296:220,1,60,2|0,2:0|0:0,0:0:0:0:
468,300,22389,2,0,L|388:316,1,60
336,336,22582,2,0,P|348:264|400:240,1,120,2|0,0:1|0:0,0:0:0:0:
480,192,22872,2,0,B|396:168|396:168|364:128,1,120,2|0,0:1|0:0,0:0:0:0:
416,40,23163,2,0,B|436:68|436:68|440:116,1,60,2|0,0:1|0:0,0:0:0:0:
308,192,23356,2,0,L|180:176,1,120,0|2,0:0|0:2,0:0:0:0:
168,96,23647,5,0,0:0:0:0:
180,84,23743,2,0,B|192:72|192:72|184:40|196:4,1,60,2|0,0:2|0:0,0:0:0:0:
108,160,23937,2,0,B|96:172|96:172|104:204|92:240,1,60
10,275,24130,6,0,L|42:318,3,30,2|2|2|0,0:2|0:2|0:2|0:0,0:0:0:0:
132,296,24324,6,0,L|165:340,3,30,2|2|2|0,0:2|0:2|0:2|0:0,0:0:0:0:
248,316,24518,6,0,L|281:360,3,30,2|2|2|0,0:2|0:2|0:2|0:0,0:0:0:0:
366,326,24711,6,0,L|399:370,3,30,2|2|2|0,0:2|0:2|0:2|0:0,0:0:0:0:
436,276,24905,6,0,P|396:196|480:256,1,270.000010299683,2|0,0:0|0:0,0:0:0:0:
324,152,25292,6,0,P|300:100|324:20,1,120,4|0,1:0|0:0,0:0:0:0:
332,136,25582,1,0,0:0:0:0:
324,152,25679,2,0,P|304:168|264:180,1,60,2|0,0:1|0:0,0:0:0:0:
396,84,25872,1,0,0:0:0:0:
404,68,25969,2,0,P|424:52|464:40,1,60,2|0,0:1|0:0,0:0:0:0:
200,68,26260,2,0,P|176:52|164:12,1,60,2|0,0:1|0:0,0:0:0:0:
160,68,26453,2,0,P|192:104|164:192,1,120,0|2,0:0|0:2,0:0:0:0:
48,156,26743,5,0,0:0:0:0:
60,144,26840,2,0,L|120:132,1,60,2|0,0:2|0:0,0:0:0:0:
248,240,27034,2,0,L|188:252,1,60
92,232,27227,1,2,0:1:0:0:
92,232,27324,2,0,L|58:282,1,60,2|0,0:1|0:0,0:0:0:0:
136,312,27518,2,0,L|148:372,1,60,2|0,0:1|0:0,0:0:0:0:
228,344,27711,2,0,L|278:377,1,60,2|0,0:1|0:0,0:0:0:0:
312,300,27905,5,0,0:0:0:0:
312,300,28001,2,0,B|404:280|404:280|388:312,1,120,0|2,0:0|2:0,0:0:0:0:
408,312,28292,1,0,0:0:0:0:
424,308,28389,2,0,P|436:272|420:236,1,60,2|0,2:0|0:0,0:0:0:0:
308,180,28582,2,0,P|337:203|377:200,1,60
476,128,28776,2,0,P|443:147|432:185,1,60,2|0,0:1|0:0,0:0:0:0:
392,76,28969,1,0,0:0:0:0:
392,76,29066,2,0,L|268:92,1,120,2|0,0:1|0:0,0:0:0:0:
160,128,29356,2,0,L|232:160,1,60,2|0,0:1|0:0,0:0:0:0:
128,48,29550,6,0,B|100:20|100:20|64:40|64:120,1,120,0|2,0:0|2:0,0:0:0:0:
40,176,29840,1,0,0:0:0:0:
40,176,29937,2,0,B|28:212|28:212|36:240,1,60,2|0,2:0|0:0,0:0:0:0:
152,348,30130,2,0,B|164:312|164:312|156:284,1,60
112,220,30324,1,2,0:1:0:0:
112,220,30421,2,0,B|140:204|140:204|196:220,1,60,2|0,0:1|0:0,0:0:0:0:
228,256,30614,2,0,L|296:268,1,60,2|0,0:1|0:0,0:0:0:0:
500,340,30808,2,0,L|432:328,1,60,2|0,0:1|0:0,0:0:0:0:
348,352,31001,2,0,B|373:272|373:272|365:236,1,120,2|0,0:1|0:0,0:0:0:0:
300,188,31292,6,0,B|292:152|292:152|320:64,1,120,2|2,2:0|2:0,0:0:0:0:
392,44,31582,1,0,0:0:0:0:
392,44,31679,2,0,B|396:76|396:76|384:112,1,60
216,116,31872,2,0,L|68:128,1,120,2|0,0:1|0:0,0:0:0:0:
56,96,32163,1,2,0:1:0:0:
96,68,32260,2,0,P|128:96|108:184,1,120,0|2,0:0|0:1,0:0:0:0:
52,304,32550,5,0,0:0:0:0:
32,288,32647,2,0,P|20:256|32:216,1,60
212,280,32840,2,0,B|128:272|128:272|96:240,1,120,2|2,2:0|2:0,0:0:0:0:
268,220,33130,1,0,0:0:0:0:
288,236,33227,2,0,P|300:268|288:308,1,60
396,352,33421,2,2,B|372:308|372:308|388:208,1,120,2|0,0:1|0:0,1:0:0:0:
446,158,33711,2,0,L|499:234,1,60,2|0,0:1|0:0,0:0:0:0:
368,108,33905,2,0,L|351:199,1,60,2|0,0:1|0:0,0:0:0:0:
352,20,34098,2,0,L|237:100,1,120,2|0,0:1|0:0,0:0:0:0:
128,100,34389,6,0,B|152:112|173:105|173:105|164:60|207:20,1,120,2|2,2:0|2:0,0:0:0:0:
118,177,34679,1,0,0:0:0:0:
101,174,34776,2,0,P|69:154|61:109,1,60
6,333,34969,2,0,P|31:317|60:319,1,60,2|0,0:1|0:0,0:0:0:0:
148,268,35163,1,0,0:0:0:0:
132,263,35260,2,0,L|0:227,1,120,2|0,0:1|0:0,0:0:0:0:
156,356,35550,2,0,L|216:332,1,60,2|0,0:1|0:0,0:0:0:0:
256,212,35743,5,0,1:0:0:0:
256,192,35840,12,0,37195,0:0:0:0:
140,32,37292,6,0,P|184:72|164:140,1,120,4|2,1:0|0:0,0:0:0:0:
156,136,37582,1,0,0:0:0:0:
268,72,37679,2,0,L|404:84,1,120,4|0,0:0|0:0,0:0:0:0:
504,184,37969,2,0,L|368:172,1,120,4|0,0:0|0:0,0:0:0:0:
268,168,38260,1,4,0:0:0:0:
468,88,38453,2,0,P|464:56|436:24,1,60,2|2,0:0|0:0,0:0:0:0:
268,168,38647,2,0,P|272:200|300:232,1,60,2|2,0:0|0:0,0:0:0:0:
468,264,38840,5,0,0:0:0:0:
468,264,38937,2,0,B|376:256|376:256|388:284,1,120,4|0,0:0|0:0,0:0:0:0:
200,348,39227,2,0,B|276:332|276:332|312:296,1,120,6|0,0:0|0:0,0:0:0:0:
176,272,39518,2,0,P|132:296|124:372,1,120,4|0,0:0|0:0,0:0:0:0:
244,220,39808,1,2,0:0:0:0:
132,296,40001,2,0,L|82:329,1,60,2|0,0:0|0:0,0:0:0:0:
58,247,40195,2,0,L|0:235,1,60,2|0,0:0|0:0,0:0:0:0:
44,160,40389,2,0,B|24:120|24:120|24:88|24:88|-8:24,2,120,2|4|4,0:0|0:0|0:0,0:0:0:0:
104,104,40969,5,2,0:0:0:0:
116,120,41066,2,0,P|176:128|220:72,1,120,4|0,0:0|0:0,0:0:0:0:
296,32,41356,1,4,0:0:0:0:
324,148,41550,2,0,L|344:232,1,60,0|0,0:0|0:0,0:0:0:0:
432,92,41743,2,0,L|412:8,1,60,2|2,0:0|0:0,0:0:0:0:
264,272,41937,5,0,0:0:0:0:
264,272,42034,2,0,L|376:332,1,120,4|0,0:0|0:0,0:0:0:0:
392,244,42324,2,0,L|515:215,1,120,4|0,0:0|0:0,0:0:0:0:
220,340,42614,2,0,L|96:368,1,120,4|0,0:0|0:0,0:0:0:0:
104,272,42905,2,0,L|40:240,1,60,8|0,3:0|0:0,0:0:0:0:
92,172,43098,2,0,L|69:104,1,60,8|0,3:0|0:0,0:0:0:0:
156,104,43292,2,0,L|187:40,1,60,8|0,3:0|0:0,0:0:0:0:
248,108,43485,6,0,P|292:144|372:120,1,120,2|4,0:0|0:0,0:0:0:0:
451,40,43776,1,0,0:0:0:0:
444,88,43872,2,0,L|418:238,1,120,4|0,0:0|0:0,0:0:0:0:
400,316,44163,2,0,B|356:276|356:276|432:280,1,120,4|0,0:0|0:0,0:0:0:0:
444,312,44453,1,4,0:0:0:0:
300,336,44647,2,0,B|280:348|280:348|224:352,1,60
12,288,44840,2,0,B|32:276|32:276|88:272,1,60,2|2,0:0|0:0,0:0:0:0:
185,292,45034,5,0,0:0:0:0:
160,264,45130,2,0,B|134:227|134:227|147:144,1,120,4|0,0:0|0:0,0:0:0:0:
216,16,45421,2,0,B|240:51|240:51|228:135,1,120,4|0,0:0|0:0,0:0:0:0:
160,72,45711,1,4,0:0:0:0:
360,108,45905,1,0,0:0:0:0:
404,96,46001,2,0,L|476:72,1,60,2|0,0:0|0:0,0:0:0:0:
460,306,46195,2,0,L|404:288,1,60,2|0,0:0|0:0,0:0:0:0:
312,192,46389,2,0,L|396:192,1,60,2|0,0:0|0:0,0:0:0:0:
452,192,46582,5,0,0:0:0:0:
256,328,46776,1,4,0:0:0:0:
60,192,46969,1,4,0:0:0:0:
113,66,47163,1,0,0:0:0:0:
140,88,47260,2,0,B|159:122|159:122|143:216,1,120,4|0,0:0|0:0,0:0:0:0:
96,296,47550,2,0,B|88:256|88:256|128:288|176:272,1,120,4|0,0:0|0:0,0:0:0:0:
216,224,47840,5,0,0:0:0:0:
252,216,47937,2,0,L|324:204,1,60,2|2,0:0|0:0,0:0:0:0:
403,353,48130,2,0,L|344:344,1,60,0|4,0:0|0:0,0:0:0:0:
456,212,48421,1,0,0:0:0:0:
488,268,48518,2,0,P|428:268|392:216,1,120,4|0,0:0|0:0,0:0:0:0:
408,192,48808,2,0,L|460:76,1,120,4|0,0:0|0:0,0:0:0:0:
304,136,49098,6,0,P|355:124|361:69,1,75,8|0,0:0|0:0,0:0:0:0:
496,24,49292,6,0,B|456:82|456:82|396:-8|304:44,1,225,8|0,0:0|0:0,0:0:0:0:
252,72,49679,6,0,P|220:120|240:184,1,120,4|0,0:0|0:0,0:0:0:0:
200,160,49969,1,0,0:0:0:0:
168,140,50066,2,0,L|56:56,1,120,4|0,0:0|0:0,0:0:0:0:
64,160,50356,2,0,B|80:208|80:208|48:288,1,120,4|0,0:0|0:0,0:0:0:0:
136,284,50647,2,0,P|180:248|252:264,1,120,4|0,0:0|0:0,0:0:0:0:
260,340,50937,5,0,0:0:0:0:
260,340,51034,2,0,L|168:312,1,60,2|2,0:0|0:0,0:0:0:0:
452,252,51227,2,0,L|544:224,1,60,2|6,0:0|0:0,0:0:0:0:
364,300,51518,1,0,0:2:0:0:
336,276,51614,2,0,B|312:232|312:232|332:148,1,120,4|0,0:0|0:0,0:0:0:0:
412,20,51905,2,0,B|436:64|436:64|416:148,1,120,4|0,0:0|0:0,0:0:0:0:
408,168,52195,1,2,0:0:0:0:
212,112,52389,2,0,L|270:98,1,60,2|2,0:0|0:0,0:0:0:0:
96,64,52582,2,0,L|12:44,1,60,2|0,0:0|0:0,0:0:0:0:
129,199,52776,6,0,P|59:147|80:232,1,225,2|0,1:0|0:0,0:0:0:0:
156,284,53163,6,0,P|272:252|388:368,1,270.000010299683,4|0,1:0|0:0,0:0:0:0:
488,296,53550,6,0,B|428:280|408:232|408:232|452:184|432:104,1,225,2|0,1:0|0:0,0:0:0:0:
484,60,53937,6,0,P|479:179|364:152,1,270.000010299683,4|0,1:0|0:0,0:0:0:0:
200,52,54324,6,0,B|220:100|266:136|266:136|280:80|351:66,1,225,2|0,1:0|0:0,0:0:0:0:
266,136,54711,6,0,B|208:152|166:114|166:114|71:75|6:161,1,270.000010299683,4|0,1:0|0:0,0:0:0:0:
100,248,55098,6,0,P|122:184|79:226,2,180.000006866455,2|2|0,1:0|1:0|0:0,0:0:0:0:
28,296,55679,5,0,0:0:0:0:
232,280,55872,6,0,B|272:268|272:268|348:316,1,120,4|0,1:0|0:0,0:0:0:0:
416,356,56163,1,0,0:0:0:0:
424,320,56260,2,0,L|452:196,1,120,4|0,0:0|0:0,0:0:0:0:
348,116,56550,2,0,B|360:144|384:148|384:148|412:116|480:124,1,120,4|0,0:2|0:0,0:0:0:0:
276,64,56840,2,0,L|220:24,1,60,4|0,0:0|0:0,0:0:0:0:
172,88,57034,2,0,L|104:99,1,60,2|2,0:0|0:0,0:0:0:0:
108,176,57227,2,0,L|67:232,1,60,2|2,0:0|0:0,0:0:0:0:
160,248,57421,6,4,P|216:256|260:192,1,120,0|0,0:0|0:0,0:0:0:0:
244,188,57711,1,0,0:0:0:0:
272,204,57808,2,0,L|295:326,1,120,4|0,0:0|0:0,0:0:0:0:
368,260,58098,1,4,0:0:0:0:
388,228,58195,2,0,L|456:248,1,60,0|0,0:0|0:0,0:0:0:0:
440,160,58389,1,4,0:0:0:0:
440,160,58485,2,0,L|502:126,1,60,4|2,0:0|0:0,0:0:0:0:
428,68,58679,1,2,0:0:0:0:
428,68,58776,2,0,L|448:0,1,60,2|2,0:0|0:0,0:0:0:0:
312,52,58969,5,0,1:0:0:0:
308,88,59066,1,0,1:0:0:0:
284,112,59163,1,0,1:0:0:0:
252,124,59260,1,0,1:0:0:0:
216,120,59356,1,0,1:0:0:0:
188,100,59453,1,0,1:0:0:0:
176,64,59550,2,2,L|200:-4,1,60,0|0,1:0|1:0,0:0:0:0:
56,132,59743,6,0,L|32:200,1,60,0|0,1:0|1:0,1:0:0:0:
128,188,59937,2,0,L|104:256,1,60,0|0,1:0|1:0,1:0:0:0:
200,240,60130,2,0,L|176:308,1,60,0|0,1:0|1:0,1:0:0:0:
272,284,60324,2,0,L|248:352,1,60,0|0,1:0|1:0,1:0:0:0:
348,328,60518,1,0,1:0:0:0:
256,192,60614,12,0,61679,0:0:0:0:
56,140,62066,6,0,P|116:148|168:88,1,135.000005149841,4|0,0:1|0:0,0:0:0:0:
160,56,62453,2,0,L|176:164,1,90.0000034332277,2|0,0:2|0:0,0:0:0:0:
56,248,62840,1,0,0:0:0:0:
144,224,63034,1,0,0:0:0:0:
232,248,63227,1,2,0:2:0:0:
284,324,63421,1,0,0:0:0:0:
192,324,63614,2,0,P|144:340|104:328,1,90.0000034332277
316,244,64001,2,0,P|364:228|404:240,1,90.0000034332277,2|0,0:2|0:0,0:0:0:0:
232,248,64389,2,0,L|192:44,1,180.000006866455,0|2,0:0|0:2,0:0:0:0:
324,148,65356,5,0,0:2:0:0:
480,204,65550,1,2,0:2:0:0:
460,40,65743,1,0,0:0:0:0:
392,88,65937,2,0,B|409:153|409:153|392:199|392:199|411:269,1,180.000006866455,0|2,0:0|0:2,0:0:0:0:
480,304,66518,1,0,0:0:0:0:
216,196,66711,2,0,L|131:165,1,90.0000034332277
203,294,67098,2,0,L|288:264,1,90.0000034332277,2|0,0:2|0:0,0:0:0:0:
148,64,67485,2,0,P|64:64|28:180,1,180.000006866455,0|2,0:0|0:2,0:0:0:0:
224,112,68066,5,0,0:0:0:0:
224,112,68260,2,0,P|272:116|316:88,1,90.0000034332277,0|2,0:0|0:2,0:0:0:0:
347,169,68647,1,0,0:0:0:0:
336,176,68743,2,0,P|372:144|384:93,1,90.0000034332277,2|0,0:2|0:0,0:0:0:0:
464,136,69034,2,0,P|467:88|439:43,1,90.0000034332277,2|0,0:2|0:0,0:0:0:0:
432,212,69324,2,0,B|400:240|400:240|384:360,1,135.000005149841,0|2,0:0|0:2,0:0:0:0:
304,292,69808,5,0,0:0:0:0:
304,292,70001,2,0,P|260:320|196:304,1,90.0000034332277,2|0,0:2|0:0,0:0:0:0:
80,280,70292,2,0,L|176:256,1,90.0000034332277,2|0,0:2|0:0,0:0:0:0:
264,152,70582,2,0,P|219:152|183:178,1,90.0000034332277,2|0,0:2|0:0,0:0:0:0:
248,236,70872,1,0,0:0:0:0:
228,24,71163,1,2,0:2:0:0:
56,104,71356,5,0,0:0:0:0:
40,120,71550,2,0,P|96:124|156:52,1,135.000005149841,2|2,0:2|0:2,0:0:0:0:
264,108,72034,1,0,0:0:0:0:
264,108,72130,2,0,P|225:125|211:202,1,90.0000034332277,2|0,0:2|0:0,0:0:0:0:
317,172,72421,2,0,P|346:202|423:189,1,90.0000034332277,0|0,0:2|0:0,0:0:0:0:
345,93,72711,2,0,P|363:54|324:-13,1,90.0000034332277,2|0,0:2|0:2,0:0:0:0:
384,292,73098,6,0,B|422:281|422:281|460:254|460:254|518:239,2,135.000005149841,2|2|2,0:2|0:2|0:2,0:0:0:0:
300,308,73969,1,0,2:0:0:0:
276,316,74260,1,2,2:0:0:0:
252,324,74453,2,0,L|164:288,1,90.0000034332277,2|0,0:0|0:0,0:0:0:0:
36,224,74840,2,0,P|84:224|124:168,1,90.0000034332277,0|0,1:0|0:0,0:0:0:0:
140,160,75130,1,2,0:2:0:0:
132,116,75227,1,2,0:2:0:0:
56,148,75421,1,2,0:0:0:0:
212,116,75614,6,0,P|244:88|260:28,1,90.0000034332277,0|0,1:0|0:0,0:0:0:0:
324,120,75905,1,2,0:2:0:0:
324,120,76001,2,0,B|424:96,1,90.0000034332277,2|0,0:2|0:0,0:0:0:0:
400,188,76292,1,2,0:2:0:0:
400,188,76389,2,0,B|438:210|438:210|444:208|444:208|448:216|448:216|488:244,1,90.0000034332277,2|2,0:2|0:2,0:0:0:0:
404,304,76679,1,2,0:2:0:0:
376,292,76776,1,0,0:0:0:0:
348,284,76872,2,0,L|256:312,1,90.0000034332277,2|0,0:2|0:0,0:0:0:0:
220,240,77163,2,0,P|188:268|188:328,1,90.0000034332277
24,304,77550,6,0,P|66:303|105:257,1,90.0000034332277,2|0,0:0|0:0,0:0:0:0:
92,116,77937,2,0,B|52:140|52:140|36:256,1,135.000005149841,0|2,1:0|0:2,0:0:0:0:
176,136,78324,2,0,P|208:112|228:56,1,90.0000034332277,2|2,0:2|0:0,0:0:0:0:
296,116,78614,1,0,0:0:0:0:
328,112,78711,2,0,L|436:92,1,90.0000034332277,0|0,1:0|0:0,0:0:0:0:
392,184,79098,6,0,B|380:192|380:192|392:200|392:200|368:236|392:280,1,90.0000034332277,0|2,1:0|0:2,0:0:0:0:
460,240,79389,1,2,0:2:0:0:
468,272,79485,2,0,L|488:336,1,45.0000017166138,0|0,1:0|0:0,0:0:0:0:
300,224,79776,1,0,0:0:0:0:
300,224,79872,2,0,P|260:204|204:220,1,90.0000034332277,0|2,0:0|0:0,0:0:0:0:
200,304,80163,1,0,0:0:0:0:
216,324,80260,2,0,P|256:320|248:280,1,90.0000034332277,2|0,2:0|0:0,0:0:0:0:
136,228,80647,6,0,B|130:203|140:172|140:172|208:136|184:52,1,180.000006866455,2|0,0:0|1:0,0:0:0:0:
112,96,81130,1,0,0:0:0:0:
112,96,81227,2,0,B|80:84|80:84|24:112,1,90.0000034332277,2|2,0:2|0:2,0:0:0:0:
272,100,81614,2,0,B|304:112|304:112|360:84,1,90.0000034332277,2|2,0:0|0:2,0:0:0:0:
436,60,82001,1,2,0:2:0:0:
412,148,82195,6,0,B|392:180|392:180|440:216|416:296,1,135.000005149841,2|0,0:0|0:0,0:0:0:0:
412,288,82582,2,0,P|372:320|324:316,1,90.0000034332277,0|2,1:0|0:2,0:0:0:0:
196,292,82969,2,0,P|236:260|284:264,1,90.0000034332277,2|2,0:2|0:0,0:0:0:0:
348,248,83356,1,0,1:0:0:0:
260,340,83550,1,0,0:0:0:0:
164,260,83743,2,0,L|100:160,1,90.0000034332277,2|0,0:0|0:0,0:0:0:0:
28,104,84130,2,0,P|116:104|184:24,1,180.000006866455,0|2,1:0|0:2,0:0:0:0:
216,136,84711,1,2,0:0:0:0:
216,136,84905,2,0,P|256:164|320:156,1,90.0000034332277,0|0,1:0|0:0,0:0:0:0:
444,72,85292,5,2,0:0:0:0:
348,56,85485,1,2,2:0:0:0:
448,164,85679,1,2,2:0:0:0:
296,166,85872,1,0,0:0:0:0:
248,296,86066,5,0,0:0:0:0:
284,312,86163,1,0,0:0:0:0:
324,312,86260,1,0,0:0:0:0:
360,300,86356,1,0,0:0:0:0:
381,265,86453,6,0,L|373:237,3,22.5000008583069,0|0|0|0,0:0|0:0|0:0|0:0,0:0:0:0:
224,260,86647,6,0,L|228:276,7,11.2500004291535
248,296,86840,6,2,B|220:328|220:328|140:352,1,120,2|0,1:0|0:0,0:0:0:0:
100,356,87130,1,2,1:0:0:0:
76,264,87421,2,0,L|0:220,1,60,2|0,2:0|0:0,0:0:0:0:
80,164,87614,2,0,L|57:79,1,60,2|0,2:0|0:0,0:0:0:0:
152,96,87808,2,0,L|196:19,1,60,2|0,2:0|0:0,0:0:0:0:
252,88,88001,2,0,L|336:65,1,60,2|0,2:0|0:0,0:0:0:0:
208,164,88195,1,0,0:0:0:0:
476,108,88389,6,0,P|436:148|360:124,1,120,2|0,0:1|0:0,0:0:0:0:
368,124,88679,1,2,0:1:0:0:
412,296,88969,2,0,L|396:376,1,60,2|0,2:0|0:0,0:0:0:0:
364,240,89163,2,0,L|380:160,1,60,2|0,2:0|0:0,0:0:0:0:
312,284,89356,2,0,L|296:364,1,60,2|0,2:0|0:0,0:0:0:0:
264,228,89550,2,0,L|280:148,1,60,2|0,2:0|0:0,0:0:0:0:
212,272,89743,2,2,L|196:352,1,60,2|0,2:0|0:0,2:0:0:0:
44,204,89937,6,0,B|60:128|60:128|112:80,1,120,2|0,1:0|0:0,0:0:0:0:
112,88,90227,1,2,0:1:0:0:
456,160,90518,2,0,L|384:136,1,60,2|0,0:2|0:0,0:0:0:0:
400,220,90711,2,0,L|328:244,1,60,2|0,0:2|0:0,0:0:0:0:
348,88,90905,2,0,L|276:64,1,60,2|0,0:2|0:0,0:0:0:0:
300,300,91098,2,0,L|228:324,1,60,2|0,0:2|0:0,0:0:0:0:
224,28,91292,2,0,L|152:4,1,60,2|0,0:2|0:0,0:0:0:0:
24,296,91485,6,0,P|80:300|132:244,1,120,2|0,0:1|0:0,0:0:0:0:
124,236,91776,1,2,0:1:0:0:
293,262,92066,2,0,L|358:292,1,60,2|0,0:2|0:0,0:0:0:0:
326,154,92260,2,0,L|356:89,1,60
218,121,92453,2,0,L|153:91,1,60,2|0,0:2|0:0,0:0:0:0:
185,229,92647,2,0,L|155:294,1,60,2|0,0:2|0:0,0:0:0:0:
256,192,92840,1,0,0:0:0:0:
444,240,93034,6,0,B|455:197|455:197|470:172|470:172|483:122,1,120,2|0,1:0|0:0,0:0:0:0:
488,96,93324,2,0,B|460:60|460:60|364:40,1,120,2|0,1:0|0:0,0:0:0:0:
128,212,93614,2,0,L|200:232,1,60,2|0,1:0|0:0,0:0:0:0:
124,40,93808,2,0,P|56:72|64:192,2,180,2|2|2,1:0|0:1|0:1,0:0:0:0:
120,124,94582,6,0,P|132:160|112:204,1,60
200,208,94776,2,0,P|183:241|137:258,1,60
200,324,94969,2,0,P|163:336|120:316,1,60
32,268,95163,2,0,B|48:260|48:260|92:272,1,60
432,308,95356,2,0,P|414:331|387:343,1,60
360,268,95550,2,0,P|331:271|304:260,1,60
336,190,95743,2,0,P|313:172|302:145,1,60
384,124,95937,2,0,P|380:94|392:67,1,60
424,204,96130,6,2,L|415:209,47,7.5
360,268,97292,6,0,L|390:302,1,30,2|0,0:0|0:0,0:0:0:0:
321,279,97389,2,0,L|351:313,1,30,2|0,0:0|0:0,0:0:0:0:
277,290,97485,2,0,L|307:325,1,30,2|0,0:0|0:0,0:0:0:0:
237,302,97582,2,0,L|267:337,1,30,2|0,0:0|0:0,0:0:0:0:
176,352,97679,5,4,1:0:0:0:
256,192,97776,12,0,99130,0:0:0:0:
344,272,99227,6,0,B|296:332|224:320|224:320|260:272,1,180,6|0,1:0|0:0,0:0:0:0:
288,212,99614,2,0,P|320:148|300:96,1,120,2|0,1:0|0:0,0:0:0:0:
288,92,99905,1,2,0:0:0:0:
392,196,100098,1,2,0:0:0:0:
416,188,100195,2,0,L|504:156,1,60,2|0,0:0|0:0,0:0:0:0:
388,88,100389,2,8,L|396:-5,1,60,2|0,0:0|0:0,0:0:0:0:
288,92,100582,2,0,L|206:45,1,60,2|0,0:0|0:0,0:0:0:0:
40,36,100776,6,0,B|64:160|64:160|128:112,1,180,2|0,0:0|0:0,0:0:0:0:
124,112,101163,2,0,B|96:168|96:168|112:248,1,120,2|0,0:0|0:0,0:0:0:0:
96,248,101453,1,2,0:0:0:0:
220,344,101647,1,2,0:0:0:0:
220,344,101743,2,0,B|236:363|236:363|296:394,1,60,2|0,0:0|0:0,0:0:0:0:
180,264,101937,2,0,B|192:241|192:241|200:175,1,60,2|0,0:0|0:0,0:0:0:0:
123,332,102130,2,0,B|88:336|88:336|66:348,1,60,2|0,0:0|0:0,0:0:0:0:
264,276,102324,6,0,B|392:248|392:248|368:316,1,180,2|0,0:0|0:0,0:0:0:0:
464,272,102711,2,0,L|500:152,1,120,2|0,0:0|0:0,0:0:0:0:
508,128,103001,1,2,0:0:0:0:
253,103,103195,1,2,0:0:0:0:
276,140,103292,2,0,L|325:228,1,60,2|0,0:0|0:0,0:0:0:0:
363,123,103485,2,0,L|460:150,1,60,2|0,0:0|0:0,0:0:0:0:
409,51,103679,2,0,L|497:1,1,60,2|0,0:0|0:0,0:0:0:0:
232,20,103872,6,0,B|178:27|152:66|152:66|180:104|164:152,1,180,2|0,0:0|0:0,0:0:0:0:
136,216,104260,2,0,P|96:184|100:104,1,120,2|0,0:0|0:0,0:0:0:0:
104,100,104550,1,2,0:0:0:0:
216,208,104743,1,2,0:0:0:0:
216,208,104840,2,0,P|220:229|196:270,1,60,2|0,0:0|0:0,0:0:0:0:
128,304,105034,2,0,L|56:280,1,60,2|0,0:0|0:0,0:0:0:0:
296,268,105227,2,0,L|368:292,1,60,2|0,0:0|0:0,0:0:0:0:
436,308,105421,5,2,0:0:0:0:
436,308,105808,2,0,P|436:252|492:212,1,120,2|0,0:0|0:0,0:0:0:0:
508,220,106098,1,2,0:0:0:0:
483,213,106195,2,0,L|426:194,1,60,2|0,0:0|0:0,0:0:0:0:
360,116,106389,2,0,L|424:92,1,60,2|0,0:0|0:0,0:0:0:0:
276,100,106582,2,0,L|304:37,1,60,2|0,0:0|0:0,0:0:0:0:
204,144,106776,2,0,L|180:79,1,60,2|0,0:0|0:0,0:0:0:0:
104,160,106969,6,0,P|136:208|76:320,1,180,2|0,0:0|0:0,0:0:0:0:
72,304,107356,2,0,P|128:292|192:332,1,120,2|0,0:0|0:0,0:0:0:0:
220,236,107647,1,2,0:0:0:0:
324,324,107840,1,2,0:0:0:0:
324,324,107937,2,0,L|268:348,1,60,2|0,0:0|0:0,0:0:0:0:
352,260,108130,2,0,L|408:236,1,60,2|0,0:0|0:0,0:0:0:0:
284,240,108324,2,0,L|228:264,1,60,2|0,0:0|0:0,0:0:0:0:
496,340,108518,6,0,B|468:328|468:296|468:296|504:240|468:176,1,180,2|0,0:0|0:0,0:0:0:0:
352,144,108905,2,0,P|288:140|248:76,1,120,2|0,0:0|0:0,0:0:0:0:
264,72,109195,1,2,0:0:0:0:
140,224,109389,1,2,0:0:0:0:
140,224,109485,2,0,L|66:252,1,60,2|0,0:0|0:0,0:0:0:0:
83,161,109679,2,0,L|11:129,1,60,2|0,0:0|0:0,0:0:0:0:
86,74,109872,2,2,L|57:0,1,60
216,188,110066,6,0,P|228:224|176:300,1,120,6|0,1:0|0:0,0:0:0:0:
56,328,110356,2,0,B|80:308|116:316|116:316|124:348|168:368,1,120,6|0,1:0|0:0,0:0:0:0:
296,284,110647,2,0,L|436:260,1,120,6|0,1:0|0:0,0:0:0:0:
500,292,110937,1,0,0:0:0:0:
500,292,111034,2,0,B|485:300|485:300|474:328|440:345,1,60,2|0,0:0|0:0,0:0:0:0:
456,200,111227,2,0,B|443:189|443:189|412:188|385:162,1,60,2|0,0:0|0:0,0:0:0:0:
436,52,111421,2,0,B|448:68|448:68|440:116,1,60,2|0,0:0|0:0,0:0:0:0:
304,167,111614,6,0,B|298:198|298:198|258:207|233:227|233:227|228:272|169:309,1,180,6|0,0:0|0:0,0:0:0:0:
124,344,112001,2,0,P|104:280|136:228,1,120,2|0,0:0|0:0,0:0:0:0:
148,224,112292,1,2,0:0:0:0:
100,120,112485,1,2,0:0:0:0:
84,148,112582,2,0,L|12:164,1,60,2|0,0:0|0:0,0:0:0:0:
184,80,112776,2,0,L|121:40,1,60,2|0,0:0|0:0,0:0:0:0:
304,68,112969,2,0,L|284:-8,1,60,2|0,0:0|0:0,0:0:0:0:
412,32,113163,6,0,B|436:128|436:128|404:204,1,180,2|0,0:0|0:0,0:0:0:0:
476,240,113550,2,0,P|508:288|480:360,1,120,2|0,0:0|0:0,0:0:0:0:
420,296,113840,2,0,B|344:264|344:264|288:272,1,120,2|0,0:0|0:0,0:0:0:0:
220,272,114130,2,0,B|220:280|220:280|227:276|227:276|229:303|244:322,1,60,2|0,0:0|0:0,0:0:0:0:
208,188,114324,2,2,P|152:216|144:296,1,120,2|2,0:0|0:0,0:0:0:0:
144,288,114614,1,0,0:0:0:0:
188,104,114711,6,0,P|92:44|4:80,1,180,2|0,0:0|0:0,0:0:0:0:
256,48,115098,2,0,B|272:40|272:40|260:52|260:52|304:32|352:64,1,120,2|0,0:0|0:0,0:0:0:0:
416,96,115389,1,2,0:0:0:0:
394,212,115582,1,2,0:0:0:0:
388,236,115679,2,2,L|366:317,1,60
289,323,115872,2,0,L|289:263,1,60,2|0,0:0|0:0,0:0:0:0:
459,309,116066,2,0,L|428:360,1,60,2|0,0:0|0:0,0:0:0:0:
200,336,116260,6,0,B|176:328|160:300|160:300|112:364|32:344,1,180,2|0,0:0|0:0,0:0:0:0:
52,172,116647,2,0,P|92:244|72:276,1,120,2|0,0:0|0:0,0:0:0:0:
52,256,116937,1,2,0:0:0:0:
132,112,117130,1,2,0:0:0:0:
144,84,117227,2,0,L|176:12,1,60,2|0,0:0|0:0,0:0:0:0:
232,88,117421,2,0,L|305:59,1,60,2|0,0:0|0:0,0:0:0:0:
300,144,117614,2,0,L|372:176,1,60,2|0,0:0|0:0,0:0:0:0:
368,84,117808,6,0,B|424:112|424:112|448:240,1,180,6|0,0:0|0:0,0:0:0:0:
456,304,118195,2,0,B|432:328|432:328|404:272|340:280,1,120,8|0,0:0|0:0,0:0:0:0:
360,356,118485,1,2,0:0:0:0:
205,305,118679,1,2,0:0:0:0:
205,305,118776,2,0,P|189:333|197:377,1,60,2|0,0:0|0:0,0:0:0:0:
120,296,118969,2,0,P|88:304|63:341,1,60,8|0,0:0|0:0,0:0:0:0:
65,229,119163,2,0,P|36:213|-7:221,1,60,2|0,0:0|0:0,0:0:0:0:
16,124,119356,6,0,P|96:128|160:44,1,180
216,140,119743,2,0,B|296:128|296:128|344:92,1,120,8|0,0:0|0:0,0:0:0:0:
348,84,120034,1,2,0:0:0:0:
512,64,120227,1,2,0:0:0:0:
482,56,120324,2,0,L|403:39,1,60,2|0,0:0|0:0,0:0:0:0:
437,129,120518,2,0,L|370:172,1,60,8|0,0:0|0:0,0:0:0:0:
453,219,120711,2,0,L|436:297,1,60,2|0,0:0|0:0,0:0:0:0:
344,304,120905,5,8,0:3:0:0:
308,272,121001,1,8,0:3:0:0:
260,268,121098,1,8,0:3:0:0:
216,284,121195,1,8,0:3:0:0:
192,324,121292,1,8,0:3:0:0:
152,300,121389,1,8,0:3:0:0:
148,252,121485,5,8,0:3:0:0:
176,212,121582,1,8,0:3:0:0:
188,164,121679,1,8,0:3:0:0:
168,120,121776,1,8,0:3:0:0:
124,92,121872,1,8,0:3:0:0:
76,100,121969,1,8,0:3:0:0:
44,136,122066,2,8,P|64:148|100:144,1,60
256,48,122260,2,8,P|236:36|200:40,1,60
272,128,122453,6,0,B|308:128|332:92|332:92|461:160,1,180.000006866455,2|0,0:0|0:0,0:0:0:0:
488,96,122743,6,0,P|508:164|396:212,1,180.000006866455,4|0,1:0|0:0,0:0:0:0:
248,232,123034,6,0,B|223:260|188:242|188:242|241:141,1,180.000006866455,2|0,0:0|0:0,0:0:0:0:
345,193,123324,6,0,B|326:228|326:228|324:277|279:308|279:308|259:346,1,180.000006866455,4|0,1:0|0:0,0:0:0:0:
156,312,123614,6,0,B|111:327|81:287|81:287|130:217|75:140|0:155,1,270.000010299683,2|0,1:0|0:0,0:0:0:0:
24,232,124001,5,4,1:0:0:0:
256,192,124098,12,0,129614,0:0:0:0:
316,8,130195,6,0,L|332:116,1,90.0000034332277
156,192,130582,2,0,L|140:84,1,90.0000034332277,2|0,0:0|0:0,0:0:0:0:
72,180,130969,1,0,0:0:0:0:
84,336,131163,1,0,0:0:0:0:
220,248,131356,1,2,0:0:0:0:
24,260,131550,1,0,0:0:0:0:
200,324,131743,2,0,P|264:316|296:272,1,90.0000034332277
392,116,132130,5,2,0:0:0:0:
384,204,132324,2,0,L|368:352,1,135.000005149841,4|0,0:0|0:0,0:0:0:0:
468,168,132711,2,0,P|484:100|392:24,1,180.000006866455,4|0,0:0|0:0,0:0:0:0:
332,60,133292,2,0,P|292:84|228:68,1,90.0000034332277,0|0,0:0|0:0,0:0:0:0:
468,168,133679,1,2,0:0:0:0:
332,60,133872,1,0,0:0:0:0:
184,148,134066,1,0,0:0:0:0:
156,232,134260,2,0,L|124:336,1,90.0000034332277,0|2,0:0|0:0,0:0:0:0:
212,352,134647,1,0,0:0:0:0:
95,158,134840,5,4,0:0:0:0:
112,80,135034,1,4,0:0:0:0:
189,52,135227,1,4,0:0:0:0:
268,68,135421,1,4,0:0:0:0:
252,103,135614,5,4,0:0:0:0:
196,88,135808,1,4,0:0:0:0:
139,106,136001,1,4,0:0:0:0:
122,161,136195,1,4,0:0:0:0:
208,168,136389,6,0,P|252:184|308:156,1,90.0000034332277,2|0,0:0|0:0,0:0:0:0:
340,108,136679,1,0,0:0:0:0:
340,108,136776,2,0,L|456:80,1,90.0000034332277,8|0,0:0|0:0,0:0:0:0:
488,188,137066,1,0,0:0:0:0:
488,188,137163,2,0,L|428:168,1,45.0000017166138,2|0,0:0|0:0,0:0:0:0:
336,332,137356,2,0,L|396:312,1,45.0000017166138,2|0,0:0|0:0,0:0:0:0:
452,288,137550,2,0,P|424:252|344:260,1,90.0000034332277,8|0,0:0|0:0,0:0:0:0:
304,252,137840,5,0,0:0:0:0:
260,284,137937,1,2,0:0:0:0:
260,284,138130,1,0,0:0:0:0:
260,284,138324,2,0,B|232:308|232:308|164:324,1,90.0000034332277,8|0,0:0|0:0,0:0:0:0:
128,332,138614,1,0,0:0:0:0:
76,340,138711,2,0,L|144:264,1,90.0000034332277,0|2,0:0|0:0,0:0:0:0:
40,216,139001,1,0,0:0:0:0:
40,216,139098,2,0,B|47:260|47:260|90:214,1,90.0000034332277,8|0,0:0|0:0,0:0:0:0:
84,152,139389,5,0,0:0:0:0:
84,152,139485,2,0,B|101:148|101:148|156:88,1,90.0000034332277,2|0,0:0|0:0,0:0:0:0:
65,39,139776,1,0,0:0:0:0:
40,32,139872,2,0,P|31:78|62:68,1,90.0000034332277,8|0,0:0|0:0,0:0:0:0:
196,36,140163,1,0,0:0:0:0:
208,32,140260,2,0,P|236:20|284:36,1,45.0000017166138,2|0,0:0|0:0,0:0:0:0:
272,136,140453,2,0,P|251:113|249:63,1,45.0000017166138,2|0,0:0|0:0,0:0:0:0:
335,76,140647,2,0,B|321:84|317:68|317:68|342:37|332:6,1,90.0000034332277,8|0,0:0|0:0,0:0:0:0:
416,56,140937,5,0,0:0:0:0:
432,108,141034,1,2,0:0:0:0:
432,108,141227,1,0,0:0:0:0:
432,108,141421,2,0,B|427:145|427:145|403:196,1,90.0000034332277,8|0,0:0|0:0,0:0:0:0:
332,216,141711,1,0,0:0:0:0:
325,195,141808,2,0,P|324:177|338:148,1,45.0000017166138
472,228,142001,2,0,P|462:248|445:262,1,45.0000017166138,2|0,0:0|0:0,0:0:0:0:
284,308,142195,2,0,L|404:284,1,90.0000034332277,8|0,0:0|0:0,0:0:0:0:
228,248,142485,5,0,0:0:0:0:
228,248,142582,2,0,P|200:288|208:332,1,90.0000034332277,2|0,0:0|0:0,0:0:0:0:
128,256,142872,1,0,0:0:0:0:
128,256,142969,2,0,L|8:280,1,90.0000034332277,8|0,0:0|0:0,0:0:0:0:
164,180,143260,1,0,0:0:0:0:
164,180,143356,2,0,P|176:156|172:120,1,45.0000017166138,2|0,0:0|0:0,0:0:0:0:
96,136,143550,2,0,P|87:110|59:87,1,45.0000017166138,2|0,0:0|0:0,0:0:0:0:
156,64,143743,2,0,L|264:48,1,90.0000034332277,8|0,0:0|0:0,0:0:0:0:
328,40,144034,5,0,0:0:0:0:
364,60,144130,1,2,0:0:0:0:
364,60,144324,1,2,0:0:0:0:
364,60,144518,2,0,B|352:104|352:104|368:160,1,90.0000034332277,8|0,0:0|0:0,0:0:0:0:
368,320,144808,1,0,0:0:0:0:
392,288,144905,2,0,L|432:228,1,45.0000017166138
488,280,145098,2,0,L|528:220,1,45.0000017166138,2|0,0:0|0:0,0:0:0:0:
336,220,145292,2,0,B|312:212|312:212|228:232,1,90.0000034332277,8|0,0:0|0:0,0:0:0:0:
168,244,145582,5,0,0:0:0:0:
168,244,145679,2,0,P|164:275|126:304,1,45.0000017166138,4|0,2:0|0:0,0:0:0:0:
96,244,145872,2,0,P|71:264|23:257,1,45.0000017166138,4|0,0:2|0:0,0:0:0:0:
44,192,146066,2,0,P|12:188|-16:150,1,45.0000017166138,4|0,0:2|0:0,0:0:0:0:
44,120,146260,2,0,P|23:95|30:47,1,45.0000017166138,4|0,0:2|0:0,0:0:0:0:
344,140,146453,6,0,P|347:108|385:79,1,45.0000017166138,4|0,0:2|0:0,0:0:0:0:
416,140,146646,2,0,P|440:119|488:126,1,45.0000017166138,4|0,0:2|0:0,0:0:0:0:
468,192,146840,2,0,P|499:195|528:233,1,45.0000017166138,4|0,0:2|0:0,0:0:0:0:
468,264,147034,2,0,P|488:288|481:336,1,45.0000017166138,4|0,0:2|0:0,0:0:0:0:
252,324,147227,6,0,L|212:372,1,45.0000017166138,4|0,0:2|0:0,0:2:0:0:
292,240,147421,6,0,L|332:288,1,45.0000017166138,4|0,0:2|0:0,0:2:0:0:
248,36,147614,6,0,L|208:84,1,45.0000017166138,4|0,0:2|0:0,0:2:0:0:
272,124,147808,6,0,L|312:172,1,45.0000017166138,4|0,0:2|0:0,0:2:0:0:
260,324,148001,6,0,L|300:372,1,45.0000017166138,4|0,0:2|0:0,0:2:0:0:
220,240,148195,6,0,L|180:288,1,45.0000017166138,4|0,0:2|0:0,0:2:0:0:
264,36,148388,6,0,L|304:84,1,45.0000017166138,4|0,0:2|0:0,0:2:0:0:
240,124,148582,6,0,L|200:172,1,45.0000017166138,4|0,0:2|0:0,0:2:0:0:
452,192,148776,6,0,B|472:104|472:104|432:120,1,120,6|0,1:0|0:0,0:0:0:0:
372,152,149066,1,0,0:0:0:0:
372,152,149163,2,0,P|312:160|268:112,1,120,2|2,1:0|2:0,0:0:0:0:
208,164,149453,1,2,2:0:0:0:
172,156,149550,2,0,L|96:128,1,60,2|0,1:0|0:0,0:0:0:0:
36,108,149743,1,2,1:0:0:0:
32,320,149937,6,0,B|23:305|23:305|39:302|39:302|10:253|46:200,1,120,2|0,1:0|0:0,0:0:0:0:
220,248,150227,1,0,0:0:0:0:
220,248,150324,2,0,B|176:236|176:236|100:256,1,120,2|0,1:0|0:0,0:0:0:0:
204,328,150614,1,0,0:0:0:0:
240,332,150711,2,0,L|312:340,1,60,2|0,1:0|0:0,0:0:0:0:
308,192,150905,2,0,B|304:216|304:216|320:264,1,60,2|2,2:0|2:0,0:0:0:0:
400,344,151098,2,0,B|416:308|416:308|384:208,1,120,2|0,1:0|0:0,0:0:0:0:
448,168,151389,2,0,L|404:296,1,120,2|0,1:0|0:0,0:0:0:0:
368,132,151679,2,0,L|312:92,1,60
388,44,151872,6,0,L|512:52,1,120,2|0,1:0|0:0,0:0:0:0:
368,132,152163,2,0,L|244:124,1,120,2|0,1:0|0:0,0:0:0:0:
84,92,152453,2,0,B|92:68|92:68|124:32,1,60,2|2,2:0|2:0,0:0:0:0:
160,116,152647,2,0,B|120:236|120:236|96:160,1,180,2|0,1:0|0:0,0:0:0:0:
184,284,153034,2,0,P|152:312|60:292,1,120,2|0,1:0|0:0,0:0:0:0:
212,208,153324,1,0,0:0:0:0:
212,208,153421,2,0,P|248:228|256:268,1,60,2|0,1:0|0:0,0:0:0:0:
260,340,153614,1,0,0:0:0:0:
288,312,153711,2,0,L|412:292,1,120,2|0,1:0|0:0,0:0:0:0:
484,264,154001,6,0,B|488:268|488:268|480:272|480:272|492:300|476:336,1,60,2|2,2:0|2:0,0:0:0:0:
420,216,154195,2,0,B|411:207|411:207|428:199|428:199|400:148|440:104,1,120,2|0,1:0|0:0,0:0:0:0:
472,116,154485,1,0,0:0:0:0:
491,155,154582,2,4,P|420:188|360:100,1,180,2|0,1:0|0:0,2:0:0:0:
280,136,154969,2,0,P|288:80|348:44,1,120,2|2,1:0|2:0,0:0:0:0:
192,108,155260,1,2,2:0:0:0:
192,108,155356,2,0,P|158:62|175:-5,1,120,2|2,1:0|1:0,0:0:0:0:
96,128,155647,5,0,0:0:0:0:
96,128,155743,2,0,L|80:188,1,60
164,192,155937,2,0,L|148:252,1,60,2|2,2:0|2:0,0:0:0:0:
60,264,156130,1,4,2:0:0:0:
232,252,156324,1,0,0:0:0:0:
268,244,156421,1,0,0:0:0:0:
304,236,156518,1,0,0:0:0:0:
488,304,156711,6,0,L|420:284,1,60,2|0,1:0|0:0,0:0:0:0:
388,216,156905,1,2,2:0:0:0:
408,188,157001,1,0,0:0:0:0:
428,160,157098,1,2,2:0:0:0:
448,128,157195,1,0,0:0:0:0:
468,100,157292,2,0,L|500:44,3,60,2|0|2|0,1:0|0:0|1:0|0:0,0:0:0:0:
392,68,157679,2,0,P|336:100|284:84,1,120,4|0,2:0|0:0,0:0:0:0:
220,32,157969,5,0,0:0:0:0:
212,68,158066,2,0,B|200:144|200:144|168:188,1,120,0|2,0:0|1:0,0:0:0:0:
124,112,158356,1,0,0:0:0:0:
92,96,158453,2,0,L|32:64,1,60,2|0,1:0|0:0,0:0:0:0:
60,192,158647,2,0,L|-44:192,1,60,2|0,1:0|0:0,0:0:0:0:
92,288,158840,2,0,L|32:320,1,60,2|0,2:0|0:0,0:0:0:0:
144,192,159034,2,0,L|264:192,2,120,2|4|0,2:0|2:0|0:0,0:0:0:0:
288,268,159614,6,0,L|256:332,1,60,4|0,2:0|0:0,0:0:0:0:
392,232,159808,2,0,L|360:296,1,60,4|0,2:0|0:0,0:0:0:0:
472,164,160001,2,0,L|445:110,1,60,4|0,2:0|0:0,0:0:0:0:
368,128,160195,2,0,L|341:74,1,60,4|0,2:0|0:0,0:0:0:0:
365,286,160389,6,0,L|391:339,1,60,4|0,2:0|0:0,0:0:0:0:
469,322,160583,2,0,L|495:375,1,60,4|0,2:0|0:0,0:0:0:0:
257,112,160776,2,0,L|239:169,1,60,4|0,2:0|0:0,0:0:0:0:
306,211,160970,2,0,L|288:268,1,60,4|0,2:0|0:0,0:0:0:0:
464,84,161163,6,0,B|436:44|436:44|424:132|328:132,1,180,6|0,1:0|0:0,0:0:0:0:
252,16,161550,2,0,P|316:12|360:56,1,120,2|2,1:0|2:0,0:0:0:0:
288,88,161840,1,2,2:0:0:0:
288,88,161937,2,0,L|236:140,1,60,2|0,1:0|0:0,0:0:0:0:
96,88,162130,1,0,0:0:0:0:
108,24,162227,2,0,P|156:60|144:132,1,120,2|0,1:0|0:0,0:0:0:0:
92,164,162518,2,0,P|76:204|92:236,1,60
40,328,162711,6,0,B|64:300|64:300|164:280,1,120,2|0,1:0|0:0,0:0:0:0:
160,208,163001,1,0,0:0:0:0:
160,208,163098,2,0,B|188:216|188:216|220:244,1,60,2|0,1:0|0:0,0:0:0:0:
268,352,163292,2,0,B|240:344|240:344|208:316,1,60,0|2,2:0|2:0,0:0:0:0:
280,272,163485,2,0,L|428:288,1,120,2|0,1:0|0:0,0:0:0:0:
488,260,163776,2,0,L|340:244,1,120,2|0,1:0|0:0,0:0:0:0:
308,172,164066,6,0,P|292:144|300:96,1,60
280,88,164260,2,0,P|284:152|232:192,1,120,2|0,1:0|0:0,0:0:0:0:
384,148,164550,1,0,0:0:0:0:
384,148,164647,2,0,L|452:136,1,60,2|0,1:0|0:0,0:0:0:0:
364,64,164840,2,0,L|403:7,1,60,2|2,2:0|2:0,0:0:0:0:
208,120,165034,2,0,P|144:116|112:72,1,120,2|0,1:0|0:0,0:0:0:0:
116,28,165324,1,0,0:0:0:0:
160,48,165421,2,0,B|172:88|172:88|128:172,1,120,2|0,1:0|0:0,0:0:0:0:
44,148,165711,5,0,0:0:0:0:
44,148,165808,2,0,L|64:220,1,60,2|0,1:0|0:0,0:0:0:0:
140,236,166001,1,0,0:0:0:0:
140,236,166098,2,0,L|120:308,1,60,2|0,1:0|0:0,0:0:0:0:
44,284,166292,1,0,0:0:0:0:
220,268,166485,1,0,0:0:0:0:
248,264,166582,2,0,B|278:258|278:258|300:264|300:264|376:248,1,120,2|0,1:0|0:0,0:0:0:0:
392,184,166872,2,0,P|436:232|420:296,1,120,2|0,1:0|0:0,0:0:0:0:
328,132,167163,2,0,P|320:104|344:56,1,60,2|2,2:0|2:0,0:0:0:0:
400,100,167356,5,0,0:0:0:0:
240,100,167550,2,0,P|216:84|200:40,1,60,2|0,1:0|0:0,0:0:0:0:
152,132,167743,2,0,P|123:137|81:117,1,60,2|0,1:0|0:0,0:0:0:0:
116,220,167937,2,0,P|100:244|56:260,1,60,2|0,1:0|0:0,0:0:0:0:
156,304,168130,2,0,P|161:332|141:374,1,60,2|0,2:0|0:0,0:0:0:0:
312,260,168324,2,0,L|168:232,2,120,2|4|0,2:0|2:0|0:0,0:0:0:0:
404,288,168808,1,0,0:0:0:0:
384,304,168905,2,0,B|360:324|360:324|352:360,1,60
480,268,169098,2,0,B|504:248|504:248|512:212,1,60,2|2,1:0|1:0,0:0:0:0:
424,124,169292,6,0,B|404:212|404:212|476:180,1,120,2|2,1:0|1:0,0:0:0:0:
480,64,169582,1,0,0:0:0:0:
480,64,169679,2,0,L|412:20,1,60,2|0,2:0|0:0,0:0:0:0:
256,144,169872,2,0,L|324:100,1,60,2|0,2:0|0:0,0:0:0:0:
224,60,170066,2,0,B|120:36|120:36|36:88,1,180,4|0,2:0|0:0,0:0:0:0:
48,152,170453,5,4,2:0:0:0:
56,180,170550,1,0,0:0:0:0:
64,208,170647,1,4,2:0:0:0:
72,236,170744,1,0,0:0:0:0:
108,204,170840,5,4,2:0:0:0:
116,232,170937,1,0,0:0:0:0:
124,260,171034,1,4,2:0:0:0:
132,288,171131,1,0,0:0:0:0:
160,252,171227,5,4,2:0:0:0:
168,280,171324,1,0,0:0:0:0:
176,308,171421,1,4,2:0:0:0:
184,336,171518,1,0,0:0:0:0:
212,304,171614,5,0,0:0:0:0:
220,256,171711,1,0,0:0:0:0:
256,224,171808,1,4,2:0:0:0:
304,220,171905,1,0,0:0:0:0:
298,301,172001,6,2,L|296:316,8,15
392,220,172292,6,2,L|394:234,8,15
336,112,172582,6,2,L|333:126,8,15
448,64,172969,6,0,L|418:61,1,30,2|0,0:2|0:0,0:0:0:0:
252,136,173163,6,0,L|222:133,1,30,2|0,0:2|0:0,0:0:0:0:
68,56,173356,6,0,L|38:58,1,30,2|0,0:2|0:0,0:0:0:0:
260,224,173550,5,4,1:0:0:0:
152,72,173743,1,0,0:0:0:0:
92,140,173937,2,0,L|104:248,1,90.0000034332277,8|0,0:0|0:0,0:0:0:0:
72,252,174227,1,0,0:0:0:0:
44,276,174324,1,0,0:0:0:0:
40,312,174421,1,0,0:0:0:0:
56,344,174518,1,2,0:0:0:0:
88,360,174614,1,0,0:0:0:0:
124,356,174711,6,0,L|188:336,1,45.0000017166138,8|0,0:0|0:0,0:0:0:0:
224,272,174905,2,0,L|160:252,1,45.0000017166138
252,348,175098,2,0,B|280:364|280:364|364:336,1,90.0000034332277,2|0,0:0|0:0,0:0:0:0:
464,280,175485,2,0,B|436:264|436:264|352:292,1,90.0000034332277,8|0,0:0|0:0,0:0:0:0:
348,268,175776,1,0,0:0:0:0:
360,252,175872,1,0,0:0:0:0:
372,232,175969,1,0,0:0:0:0:
384,212,176066,1,2,0:0:0:0:
396,192,176163,1,0,0:0:0:0:
408,172,176260,6,0,L|440:112,1,45.0000017166138,8|0,0:0|0:0,0:0:0:0:
356,68,176453,2,0,L|336:2,1,45.0000017166138
252,64,176647,2,0,L|155:12,1,90.0000034332277,2|2,0:0|0:0,0:0:0:0:
32,132,177034,2,0,P|88:140|152:80,1,135.000005149841,8|0,0:0|0:0,0:0:0:0:
140,116,177421,2,0,L|124:220,1,90.0000034332277,0|2,0:0|0:0,0:0:0:0:
160,272,177711,2,0,P|192:248|204:212,1,45.0000017166138,0|8,0:0|0:0,0:0:0:0:
52,216,177905,1,0,0:0:0:0:
32,228,178001,1,0,0:0:0:0:
76,296,178195,5,2,0:0:0:0:
204,168,178389,1,0,0:0:0:0:
248,308,178582,2,0,P|291:309|336:288,1,90.0000034332277,8|0,0:0|0:0,0:0:0:0:
356,260,178872,1,0,0:0:0:0:
392,252,178969,1,0,0:0:0:0:
420,276,179066,1,0,0:0:0:0:
412,312,179163,2,0,B|392:336|408:376,1,45.0000017166138,2|0,0:0|0:0,0:0:0:0:
464,208,179356,2,0,P|496:168|488:108,1,90.0000034332277,8|0,0:0|0:0,0:0:0:0:
300,168,179647,5,0,0:0:0:0:
336,160,179743,2,0,L|448:140,1,90.0000034332277,2|2,0:0|0:0,0:0:0:0:
268,76,180130,2,0,P|196:80|156:36,1,135.000005149841,8|0,0:0|0:0,0:0:0:0:
144,72,180518,2,0,P|156:88|160:124,1,45.0000017166138
84,124,180711,2,0,P|81:143|58:172,1,45.0000017166138,2|0,0:0|0:0,0:0:0:0:
8,112,180905,1,8,0:0:0:0:
168,200,181098,5,0,0:0:0:0:
179,234,181195,1,0,0:0:0:0:
156,261,181292,1,2,0:0:0:0:
120,255,181389,1,0,0:0:0:0:
109,221,181485,1,0,0:0:0:0:
131,193,181582,1,0,0:0:0:0:
168,200,181679,6,0,L|224:160,1,45.0000017166138,8|0,0:0|0:0,0:0:0:0:
88,332,181872,2,0,L|20:289,1,45.0000017166138
208,264,182066,2,0,L|184:368,3,90.0000034332277,0|2|8|0,0:0|0:0|0:0|0:0,0:0:0:0:
288,312,182840,2,0,P|324:284|396:300,1,90.0000034332277,2|0,0:0|0:0,0:0:0:0:
504,264,183130,2,0,P|458:258|419:196,1,90.0000034332277,2|0,2:0|0:0,0:0:0:0:
488,60,183421,2,0,B|512:108|512:108|484:208,1,135.000005149841,2|2,2:0|2:0,0:0:0:0:
424,120,183808,1,2,2:0:0:0:
424,120,184001,2,0,L|328:88,1,90.0000034332277,4|0,2:0|0:0,0:0:0:0:
240,84,184292,5,0,0:0:0:0:
252,108,184389,2,0,B|228:132|228:132|212:204,1,90.0000034332277,2|0,2:0|0:0,0:0:0:0:
140,96,184679,2,0,B|164:72|164:72|176:17,1,90.0000034332277,2|0,2:0|0:0,0:0:0:0:
152,120,184969,1,2,2:0:0:0:
68,160,185163,2,0,B|64:176|64:176|76:224,1,45.0000017166138,2|0,1:0|0:0,0:0:0:0:
104,316,185356,1,0,2:0:0:0:
116,304,185421,1,2,2:0:0:0:
127,291,185485,1,2,2:0:0:0:
139,279,185550,2,0,B|158:250|158:250|140:172,1,90.0000034332277
92,268,185937,6,2,B|104:316|104:316|132:332|132:332|144:376,1,120,2|0,2:0|0:0,2:0:0:0:
216,324,186227,6,0,L|240:180,1,107.999996704102,2|0,2:0|0:0,0:0:0:0:
300,292,186518,2,0,L|376:179,1,96,2|0,2:0|0:0,0:0:0:0:
396,308,186808,2,0,L|452:274,1,60,2|0,2:0|0:0,0:0:0:0:
460,360,187098,1,4,2:0:0:0:
440,188,187292,6,0,P|436:156|460:120,1,60
504,104,187485,2,0,P|440:104|404:64,1,120,2|0,2:0|0:0,0:0:0:0:
324,24,187776,2,0,P|316:89|266:115,1,120,2|0,2:0|0:0,0:0:0:0:
261,48,188066,1,0,0:0:0:0:
320,184,188260,2,0,B|312:200|312:200|272:220,1,60,2|0,2:0|0:0,0:0:0:0:
168,116,188453,2,0,B|184:124|184:124|204:164,1,60,2|0,2:0|0:0,0:0:0:0:
200,332,188647,2,0,L|144:208,1,120,2|2,2:0|2:0,0:0:0:0:
112,336,188937,1,0,0:0:0:0:
300,328,189034,6,0,L|432:368,1,120,2|0,2:0|0:0,0:0:0:0:
300,240,189324,2,0,L|432:200,1,107.999996704102,2|0,2:0|0:0,0:0:0:0:
376,328,189614,2,0,L|508:368,1,96,2|0,2:0|0:0,0:0:0:0:
372,244,189905,2,0,L|438:224,1,60,2|0,2:0|0:0,0:0:0:0:
488,280,190195,1,4,2:0:0:0:
376,160,190389,6,0,B|344:168|344:168|312:164,1,60
423,2,190582,2,0,B|452:72|452:72|439:141,1,120,2|0,2:0|0:0,0:0:0:0:
296,188,190872,2,0,L|152:156,1,120,2|0,2:0|0:0,0:0:0:0:
16,140,191163,1,2,2:0:0:0:
112,56,191356,2,0,B|100:84|100:84|104:104|104:104|80:188,1,120,2|0,1:0|0:0,0:0:0:0:
16,140,191614,2,0,L|32:76,1,40,2|2,2:0|2:0,0:0:0:0:
184,88,191743,1,2,2:0:0:0:
28,220,191937,1,2,2:0:0:0:
28,340,192130,6,0,B|100:312|100:312|168:328,1,120,2|0,2:0|0:0,0:0:0:0:
112,236,192421,2,0,B|185:258|185:258|229:312,1,107.999996704102,2|0,2:0|0:0,0:0:0:0:
240,204,192711,2,0,B|278:258|278:258|279:318,1,96,2|0,2:0|0:0,0:0:0:0:
356,268,193001,2,0,B|354:308|354:308|333:337,1,60,2|0,2:0|0:0,0:0:0:0:
416,364,193292,1,4,2:0:0:0:
324,184,193485,6,0,B|300:151|300:151|299:115,1,60
400,20,193679,2,0,B|416:76|416:76|392:96|384:132,1,120,2|0,2:0|0:0,0:0:0:0:
328,60,193969,2,0,P|264:60|224:112,1,107.999996704102,2|0,2:0|0:0,0:0:0:0:
192,20,194260,2,0,P|151:60|158:119,1,96,2|0,2:0|0:0,0:0:0:0:
64,92,194550,2,0,P|63:131|96:156,1,60,2|0,2:0|0:0,0:0:0:0:
156,176,194840,1,4,2:0:0:0:
52,276,195034,6,0,L|86:227,1,60,0|2,0:0|2:0,0:0:0:0:
140,296,195227,1,4,2:0:0:0:
176,324,195324,1,0,0:0:0:0:
228,320,195421,1,0,0:0:0:0:
268,292,195518,1,2,2:0:0:0:
304,260,195614,1,0,0:0:0:0:
352,256,195711,1,0,0:0:0:0:
396,276,195808,1,2,2:0:0:0:
416,320,195905,1,0,0:0:0:0:
412,272,196001,5,0,0:0:0:0:
436,232,196098,1,2,2:0:0:0:
480,216,196195,1,0,0:0:0:0:
440,192,196292,1,0,0:0:0:0:
404,160,196389,1,4,2:0:0:0:
392,108,196485,1,0,0:0:0:0:
396,60,196582,1,8,1:0:0:0:
424,20,196679,1,8,1:0:0:0:
444,64,196776,6,0,L|474:115,1,60,4|2,1:0|0:0,0:0:0:0:
312,80,196969,6,2,L|237:86,1,60
438,60,197163,6,2,L|454:117,1,60
266,135,197356,6,2,L|192:122,1,60
433,55,197550,6,2,L|433:114,1,60
208,176,197743,6,2,L|139:144,1,60
430,49,197937,6,2,L|415:107,1,60
141,199,198130,6,2,L|83:150,1,60,2|2,0:0|0:0,0:0:0:0:
340,156,198324,5,4,1:0:0:0:
340,156,198518,2,0,L|360:256,1,90.0000034332277
388,320,198808,2,0,P|332:324|304:304,1,90.0000034332277,2|0,2:0|0:0,0:0:0:0:
428,252,199098,2,0,P|484:248|512:268,1,90.0000034332277,2|0,0:1|0:0,0:0:0:0:
388,320,199389,1,2,0:1:0:0:
56,348,199679,1,2,0:1:0:0:
64,276,199872,5,0,0:0:0:0:
64,276,200066,2,0,B|66:244|66:244|75:238|75:238|81:183,1,90.0000034332277,2|0,2:0|0:0,0:0:0:0:
92,32,200356,2,0,B|102:61|102:61|97:70|97:70|117:95|115:122,1,90.0000034332277,2|0,2:0|0:0,0:0:0:0:
164,180,200647,1,2,0:1:0:0:
160,196,200743,1,2,0:1:0:0:
196,104,200937,2,0,P|232:84|292:96,1,90.0000034332277,2|2,0:1|0:1,0:0:0:0:
320,20,201324,1,2,0:1:0:0:
248,164,201614,6,0,P|232:208|256:272,1,90.0000034332277,2|0,0:2|0:0,0:0:0:0:
372,232,201905,2,0,P|388:188|364:124,1,90.0000034332277,2|0,0:2|0:0,0:0:0:0:
296,336,202195,2,0,L|404:304,1,90.0000034332277,2|0,0:1|0:0,0:0:0:0:
496,128,202485,1,2,0:1:0:0:
288,252,202776,2,0,L|192:240,1,90.0000034332277,2|0,0:1|0:0,0:0:0:0:
64,336,203163,2,0,P|108:336|152:292,1,90.0000034332277,2|0,0:2|0:0,0:0:0:0:
164,160,203453,2,0,P|127:185|117:246,1,90.0000034332277,2|0,0:2|0:0,0:0:0:0:
52,148,203743,5,2,0:1:0:0:
32,124,203840,1,2,0:1:0:0:
164,160,204034,1,2,0:1:0:0:
52,32,204227,1,2,0:1:0:0:
108,96,204421,1,2,0:1:0:0:
281,91,204711,6,0,L|192:84,1,90.0000034332277,2|0,0:2|0:0,0:0:0:0:
332,96,205001,2,0,L|247:127,1,90.0000034332277,2|0,0:2|0:0,0:0:0:0:
368,100,205292,2,0,L|304:164,1,90.0000034332277,2|0,0:1|0:0,0:0:0:0:
400,104,205582,2,0,L|369:188,1,90.0000034332277,2|0,0:1|0:0,0:0:0:0:
440,108,205872,1,2,0:1:0:0:
464,284,206260,6,0,L|493:199,1,90.0000034332277,2|0,0:2|0:0,0:0:0:0:
450,316,206550,2,0,L|442:225,1,90.0000034332277,2|0,0:2|0:0,0:0:0:0:
439,342,206840,2,0,L|398:272,1,45.0000017166138,2|2,0:1|0:1,0:0:0:0:
344,252,207130,1,2,0:1:0:0:
264,292,207324,1,2,0:1:0:0:
439,341,207518,1,2,0:1:0:0:
240,252,207808,6,0,L|268:360,1,90.0000034332277,2|0,0:2|0:0,0:0:0:0:
176,316,208098,2,0,L|79:259,1,90.0000034332277,2|0,0:2|0:0,0:0:0:0:
56,248,208389,1,2,0:1:0:0:
68,84,208679,2,0,B|76:116|76:116|52:168,1,90.0000034332277,2|0,0:1|0:0,0:0:0:0:
96,160,208969,2,0,L|188:132,1,90.0000034332277,2|0,0:1|0:0,0:0:0:0:
296,32,209356,6,0,P|264:72|268:116,1,90.0000034332277,2|0,0:2|0:0,0:0:0:0:
400,148,209647,2,0,P|373:104|330:92,1,90.0000034332277,2|0,0:2|0:0,0:0:0:0:
280,184,209937,2,2,P|310:177|325:156,1,45.0000017166138,2|2,0:1|0:2,0:0:0:0:
464,24,210130,2,2,P|433:30|418:51,1,45.0000017166138,2|2,0:1|0:2,0:0:0:0:
281,194,210324,2,2,P|311:202|334:188,1,45.0000017166138,2|2,0:1|0:2,0:0:0:0:
512,127,210518,2,2,P|485:120|462:133,1,45.0000017166138,0|2,0:1|0:2,0:0:0:0:
396,256,210711,6,0,P|440:321|431:215,1,270.000010299683,2|0,0:0|0:0,0:0:0:0:
218,305,211098,6,0,P|276:295|328:324,1,120,4|0,1:0|0:0,0:0:0:0:
192,228,211389,1,0,0:0:0:0:
192,228,211485,2,0,P|168:236|144:268,1,60,2|0,0:1|0:0,0:0:0:0:
84,356,211679,1,0,0:0:0:0:
84,356,211776,2,0,L|148:340,1,60,2|0,0:1|0:0,0:0:0:0:
60,216,211969,1,0,0:0:0:0:
48,188,212066,2,0,P|44:164|58:126,1,60,2|0,0:1|0:0,0:0:0:0:
116,48,212260,6,0,B|136:88|136:88|124:188,1,120,0|2,0:0|2:0,0:0:0:0:
208,148,212550,2,0,L|280:120,1,60,0|2,0:0|2:0,0:0:0:0:
328,64,212743,2,0,L|256:36,1,60
352,136,212937,1,0,0:0:0:0:
376,128,213034,2,0,P|400:104|404:68,1,60,2|0,0:1|0:0,0:0:0:0:
363,220,213227,1,2,0:1:0:0:
395,234,213324,2,0,P|431:234|461:210,1,75,2|0,0:1|0:0,0:0:0:0:
328,312,213518,2,0,P|358:342|405:347,1,90.0000034332277,2|0,0:1|0:0,0:0:0:0:
280,240,213711,6,0,B|246:267|246:267|226:361,1,120,2|0,0:1|0:0,0:0:0:0:
156,300,214001,2,0,L|100:328,1,60,2|0,0:2|0:0,0:0:0:0:
88,240,214195,1,0,0:0:0:0:
72,224,214292,2,0,L|16:168,1,60,2|0,0:2|0:0,0:0:0:0:
108,60,214485,1,0,0:0:0:0:
120,80,214582,2,0,L|96:148,1,60,2|0,0:1|0:0,0:0:0:0:
160,196,214776,1,0,0:0:0:0:
168,176,214872,2,0,B|180:144|180:144|260:100,1,120,2|0,0:1|0:0,0:0:0:0:
232,20,215163,2,0,B|242:16|242:16|241:28|241:28|290:16|337:69,1,120,2|0,0:1|0:0,0:0:0:0:
440,148,215453,5,0,0:0:0:0:
440,148,215550,2,0,L|383:99,1,60,2|0,0:2|0:0,0:0:0:0:
276,192,215743,1,2,0:2:0:0:
300,192,215840,2,0,L|364:192,1,60
440,236,216034,1,0,0:0:0:0:
440,236,216130,2,0,L|383:284,1,60,2|2,0:1|0:1,0:0:0:0:
244,241,216324,5,0,0:0:0:0:
244,241,216421,2,0,L|300:192,1,75,2|0,0:1|0:0,0:0:0:0:
256,320,216614,2,0,P|208:316|172:272,1,90.0000034332277,2|0,0:1|0:0,0:0:0:0:
76,224,216808,2,0,B|100:268|100:268|80:372,1,120,2|0,0:1|0:0,0:0:0:0:
8,160,217098,2,0,P|0:140|32:80,1,60,2|0,0:2|0:0,0:0:0:0:
128,92,217292,1,2,0:2:0:0:
128,92,217389,2,0,P|116:110|48:118,1,60
12,16,217582,1,0,0:0:0:0:
12,16,217679,2,0,P|32:20|63:81,1,60,2|0,0:1|0:0,0:0:0:0:
156,184,217872,5,0,0:0:0:0:
156,184,217969,2,0,L|276:152,1,120,2|0,0:1|0:0,0:0:0:0:
344,216,218260,2,0,B|340:196|340:196|352:176|348:140,1,60,2|0,0:1|0:0,0:0:0:0:
316,28,218453,2,0,B|320:48|320:48|308:68|312:104,1,60
424,232,218647,2,0,P|412:264|364:288,1,60,2|0,2:0|0:0,0:0:0:0:
296,340,218840,2,0,P|330:340|369:377,1,60,2|0,2:0|0:0,0:0:0:0:
440,348,219034,1,0,0:0:0:0:
216,328,219227,5,2,0:1:0:0:
216,328,219324,2,0,L|240:260,1,60,2|0,0:1|0:0,0:0:0:0:
152,276,219518,2,0,L|178:202,1,75,2|0,0:1|0:0,0:0:0:0:
84,228,219711,2,0,L|120:122,1,105.000001001358,2|0,0:1|0:0,0:0:0:0:
16,176,219905,2,0,L|56:61,1,120,2|0,0:1|0:0,0:0:0:0:
256,192,220098,12,0,223001,0:0:0:0:
72,328,223098,6,0,B|56:240|56:240|92:260,1,120,0|2,0:0|0:2,0:0:0:0:
156,300,223389,1,2,0:2:0:0:
156,300,223485,2,0,P|216:308|256:260,1,120,4|0,0:2|0:0,0:0:0:0:
421,293,223776,2,0,P|361:285|321:333,1,120,4|0,0:2|0:0,0:0:0:0:
384,344,224066,1,4,0:2:0:0:
460,224,224260,2,0,P|476:192|472:156,1,60
448,48,224453,2,0,P|432:80|436:116,1,60,2|2,0:2|0:2,0:0:0:0:
396,176,224647,5,0,0:0:0:0:
396,176,224743,2,0,L|260:164,1,120,4|0,0:2|0:0,0:0:0:0:
148,64,225034,2,0,P|196:96|188:168,1,120,4|0,0:2|0:0,0:0:0:0:
112,196,225324,2,0,B|96:116|96:116|136:140,1,120,4|0,0:2|0:0,0:0:0:0:
184,232,225614,2,0,B|170:256|170:256|125:287,1,60,2|0,0:2|0:0,0:0:0:0:
20,304,225808,2,0,B|33:279|33:279|78:248,1,60,2|0,0:2|0:0,0:0:0:0:
148,356,226001,2,0,L|76:332,1,60,2|0,0:2|0:0,0:0:0:0:
256,328,226195,5,0,0:0:0:0:
72,188,226389,1,4,0:2:0:0:
440,188,226582,1,4,0:2:0:0:
412,304,226776,1,0,0:0:0:0:
391,325,226872,2,0,B|370:347|370:347|392:227,1,120,4|0,0:2|0:0,0:0:0:0:
360,180,227163,2,0,P|388:120|436:112,1,120,4|0,0:2|0:0,0:0:0:0:
496,120,227453,1,0,0:0:0:0:
436,112,227550,2,0,L|364:104,1,60,2|2,0:2|0:2,0:0:0:0:
268,100,227743,5,0,0:0:0:0:
300,120,227840,2,0,P|244:132|188:88,1,120,4|0,0:2|0:0,0:0:0:0:
100,24,228130,2,0,B|116:72|116:72|92:144,1,120,4|0,0:2|0:0,0:0:0:0:
44,200,228421,2,0,B|44:220|44:220|60:232|60:232|48:276|76:320,1,120,4|0,0:2|0:0,0:0:0:0:
180,308,228711,5,8,3:0:0:0:
228,308,228808,1,0,0:0:0:0:
244,262,228905,2,0,P|155:205|180:308,1,270.000010299683,8|0,0:0|0:0,0:0:0:0:
320,308,229292,6,0,P|376:296|432:336,1,120,4|0,0:2|0:0,0:0:0:0:
488,204,229582,1,0,0:0:0:0:
476,224,229679,2,0,B|460:256|460:256|436:148,1,120,4|0,0:0|0:0,0:0:0:0:
348,104,229969,2,0,L|376:228,1,120,4|0,0:0|0:0,0:0:0:0:
426,93,230260,2,0,B|418:53|418:53|390:33,1,60,4|0,0:0|0:0,0:0:0:0:
293,231,230453,2,0,B|301:271|301:271|329:291,1,60
348,104,230647,2,0,L|276:60,1,60,2|2,0:0|0:0,0:0:0:0:
118,177,230840,5,0,0:0:0:0:
140,172,230937,2,0,L|273:148,1,120,4|0,0:0|0:0,0:0:0:0:
178,88,231227,2,0,L|44:66,1,120,4|0,0:0|0:0,0:0:0:0:
99,295,231518,2,0,L|203:236,1,120,4|0,0:0|0:0,0:0:0:0:
24,260,231808,2,2,P|12:292|28:332,1,60,2|0,0:0|0:0,0:0:0:0:
88,200,232001,2,0,L|36:144,1,60,2|0,0:0|0:0,0:0:0:0:
220,336,232195,2,0,L|288:348,1,60,2|0,0:0|0:0,0:0:0:0:
424,200,232389,5,0,0:0:0:0:
88,200,232582,1,4,0:0:0:0:
256,256,232776,1,4,0:0:0:0:
468,128,232969,1,0,0:0:0:0:
456,108,233066,2,0,B|424:68|424:68|340:40,1,120,4|0,0:0|0:0,0:0:0:0:
312,148,233356,2,0,L|392:128,1,60,4|0,0:0|0:0,0:0:0:0:
240,48,233550,1,0,0:0:0:0:
249,95,233647,1,0,0:0:0:0:
284,60,233743,2,0,B|233:71|233:71|155:29,1,120,2|0,0:0|0:0,0:0:0:0:
152,136,234034,6,0,L|41:208,1,120,4|0,0:0|0:0,0:0:0:0:
42,119,234324,2,0,P|72:78|59:-10,1,120,4|0,0:0|0:0,0:0:0:0:
127,239,234614,2,0,P|184:225|238:249,1,120,4|0,0:0|0:0,0:0:0:0:
108,324,234905,6,0,P|64:304|52:272,1,75,8|0,0:0|0:0,0:0:0:0:
288,184,235098,6,8,B|340:244|300:308|300:308|332:368|444:356,1,270.000010299683,8|0,0:0|0:0,0:0:0:0:
480,296,235485,6,0,B|500:252|500:252|484:168,1,120,4|2,1:0|0:2,0:0:0:0:
436,48,235776,1,2,0:2:0:0:
371,68,235872,2,0,P|411:108|483:96,1,120,4|0,0:0|0:0,0:0:0:0:
296,100,236163,2,0,L|172:64,1,120,4|0,0:0|0:0,0:0:0:0:
88,208,236453,2,0,B|112:176|112:176|212:148,1,120,4|0,0:0|0:0,0:0:0:0:
104,96,236743,1,0,0:0:0:0:
80,88,236840,2,0,L|8:68,1,60,2|2,0:0|0:0,0:0:0:0:
188,300,237034,5,0,0:0:0:0:
212,280,237130,2,0,B|244:252|244:252|164:240,1,120,4|0,0:0|0:0,0:0:0:0:
108,312,237421,2,0,P|140:368|192:380,1,120,4|0,0:0|0:0,0:0:0:0:
384,328,237711,2,0,L|264:340,1,120,4|0,0:0|0:0,0:0:0:0:
328,256,238001,2,0,L|396:220,1,60,2|0,0:0|0:0,0:0:0:0:
436,124,238195,2,0,L|444:183,1,60,2|0,0:0|0:0,0:0:0:0:
512,284,238389,2,0,L|454:266,1,60,2|0,0:0|0:0,0:0:0:0:
360,40,238582,6,0,P|428:88|372:208,1,225,2|0,1:0|0:0,0:0:0:0:
352,124,238969,6,0,B|283:164|228:149|228:149|202:66|105:58,1,270.000010299683,4|0,1:0|0:0,0:0:0:0:
136,153,239356,6,0,B|171:206|140:269|140:269|152:261|161:246|161:246|144:245|144:341,1,225,2|0,1:0|0:0,0:0:0:0:
32,316,239743,6,0,B|72:312|100:292|100:292|120:296|144:312|144:312|200:272|200:272|236:284|296:256,1,270.000010299683,4|0,1:0|0:0,0:0:0:0:
468,348,240130,6,0,B|432:319|358:322|358:322|388:268|345:212,1,225,2|0,1:0|0:0,0:0:0:0:
328,72,240518,6,0,P|450:60|442:197,1,270.000010299683,4|0,1:0|0:0,0:0:0:0:
374,135,240905,6,0,P|408:107|392:148,2,120,2|2|0,1:0|1:0|0:0,0:0:0:0:
288,140,241485,1,0,0:0:0:0:
56,184,241679,6,0,B|36:144|36:144|52:64,1,120,4|2,1:0|0:0,0:0:0:0:
128,148,241969,1,2,0:0:0:0:
144,180,242066,2,0,L|112:320,1,120,4|0,0:0|0:0,0:0:0:0:
221,349,242356,2,0,B|236:276|236:276|216:236,1,120,4|2,0:0|0:0,0:0:0:0:
40,264,242647,1,4,0:0:0:0:
380,346,242840,2,0,B|388:324|388:324|384:288,1,60
328,228,243034,2,0,B|360:211|360:211|385:211,1,60,2|2,0:0|0:0,0:0:0:0:
460,216,243227,6,0,P|392:208|360:152,1,120,0|0,0:0|0:0,0:0:0:0:
460,28,243518,1,0,0:0:0:0:
460,28,243614,2,0,L|432:152,1,120,4|0,0:0|0:0,0:0:0:0:
376,56,243905,1,4,0:0:0:0:
357,46,244001,2,0,L|268:5,1,60,0|0,0:0|0:0,0:0:0:0:
296,112,244195,2,0,L|207:152,1,60,4|0,0:0|0:0,0:0:0:0:
216,56,244389,2,0,L|127:15,1,60
192,204,244582,2,0,L|103:244,1,60
88,172,244776,5,0,1:0:0:0:
60,196,244872,1,0,1:0:0:0:
48,232,244969,1,0,1:0:0:0:
52,268,245066,1,0,1:0:0:0:
76,296,245163,1,0,1:0:0:0:
108,312,245260,1,0,1:0:0:0:
140,300,245356,1,0,1:0:0:0:
176,304,245453,1,0,1:0:0:0:
208,324,245550,5,0,1:0:0:0:
236,300,245647,1,0,1:0:0:0:
268,284,245743,1,0,1:0:0:0:
304,284,245840,1,0,1:0:0:0:
340,296,245937,1,0,1:0:0:0:
372,312,246034,1,0,1:0:0:0:
392,348,246130,1,0,1:0:0:0:
412,316,246227,1,0,1:0:0:0:
424,288,246324,5,0,0:0:0:0:
64,220,246518,6,2,L|52:212,2,15
448,164,246711,6,2,L|460:172,2,15
176,304,246905,6,2,L|161:306,2,15
336,80,247098,6,2,L|350:77,2,15
300,244,247292,6,2,L|292:255,2,15
200,144,247485,6,2,L|207:132,2,15
52,328,247872,6,0,P|116:308|156:332,1,90.0000034332277,0|2,0:0|0:0,0:0:0:0:
272,340,248260,1,2,0:0:0:0:
272,340,248356,2,0,P|216:302|212:256,1,90.0000034332277,2|0,0:0|0:0,0:0:0:0:
288,264,248647,2,0,L|384:256,1,90.0000034332277,2|0,0:0|0:0,0:0:0:0:
428,320,248937,1,2,0:0:0:0:
332,180,249130,1,2,0:0:0:0:
332,180,249227,1,0,0:0:0:0:
404,96,249421,6,0,P|420:140|400:192,2,90.0000034332277,0|2|0,0:0|0:0|0:0,0:0:0:0:
324,100,249905,2,0,P|281:80|258:29,1,90.0000034332277,2|0,0:0|0:0,0:0:0:0:
204,124,250195,2,0,L|92:108,1,90.0000034332277,2|0,0:0|0:0,0:0:0:0:
88,108,250485,1,2,0:0:0:0:
108,92,250582,2,0,P|128:132|108:188,1,90.0000034332277,0|0,0:0|0:0,0:0:0:0:
48,232,250969,5,0,0:0:0:0:
56,332,251163,2,0,B|69:311|69:311|98:298|98:298|128:251,1,90.0000034332277,2|0,0:0|0:0,0:0:0:0:
212,200,251453,2,0,B|204:216|204:216|188:228|188:228|204:252|192:292,1,90.0000034332277,2|0,0:0|0:0,0:0:0:0:
160,352,251743,2,0,L|264:364,1,90.0000034332277,2|0,0:0|0:0,0:0:0:0:
396,300,252034,2,0,L|292:288,1,90.0000034332277,2|0,0:0|0:0,0:0:0:0:
280,288,252324,1,2,0:0:0:0:
376,220,252518,6,0,L|476:172,1,90.0000034332277,0|2,0:0|0:0,0:0:0:0:
388,132,252905,1,0,0:0:0:0:
393,125,253001,2,0,P|396:81|372:44,1,90.0000034332277,2|0,0:0|0:0,0:0:0:0:
316,100,253292,2,0,P|256:126|196:100,1,135.000005149841,2|0,0:0|0:0,0:0:0:0:
140,44,253679,2,0,P|116:80|124:136,1,90.0000034332277,2|0,0:0|0:0,0:0:0:0:
60,208,254066,6,0,B|140:264|208:188|208:188|384:220|392:360|256:460|120:360|128:220|304:188|304:188|372:264|452:208,1,900,0|0,0:0|0:0,0:0:0:0:
384,156,257163,6,0,B|332:88|256:120|256:120|192:104|192:28|256:8|320:28|320:104|256:120|256:120|180:88|128:156,1,540.000020599366
256,200,258518,5,0,0:0:0:0:
180,248,258711,1,0,0:0:0:0:
180,248,258905,2,0,L|136:348,1,90.0000034332277,2|0,0:0|0:0,0:0:0:0:
256,280,259195,2,0,L|256:372,1,90.0000034332277,2|0,0:0|0:0,0:0:0:0:
332,248,259485,2,0,L|376:348,1,90.0000034332277,2|0,0:0|0:0,0:0:0:0:
428,248,259776,1,2,0:0:0:0:
472,108,259969,1,2,0:0:0:0:
472,92,260066,2,0,L|484:36,1,45.0000017166138,2|0,0:0|0:0,0:0:0:0:
392,96,260260,6,0,L|372:224,1,90.0000034332277,2|0,0:0|0:0,0:0:0:0:
332,40,260647,2,0,P|292:32|244:64,1,90.0000034332277,8|0,0:0|0:0,0:0:0:0:
117,150,260937,1,0,3:0:0:0:
160,156,261034,1,0,3:0:0:0:
204,135,261130,1,0,3:0:0:0:
230,95,261227,1,2,3:0:0:0:
50,223,261421,6,0,L|35:322,1,90.0000034332277,8|0,0:0|0:0,3:0:0:0:
124,285,261808,2,0,L|182:365,1,90.0000034332277,0|0,0:0|0:0,3:0:0:0:
220,272,262195,2,0,L|299:283,1,45.0000017166138,0|0,0:0|0:0,3:0:0:0:
352,336,262389,1,0,0:0:0:0:
388,308,262485,1,0,0:0:0:0:
348,292,262582,1,0,0:0:0:0:
464,348,262776,2,0,L|476:292,1,45.0000017166138
412,148,262969,2,0,L|428:240,1,90.0000034332277
388,308,263356,5,2,0:0:0:0:
504,192,263550,1,0,0:0:0:0:
432,48,263743,2,0,L|316:16,1,90.0000034332277,8|0,0:0|0:0,0:0:0:0:
208,170,264034,1,0,0:0:0:0:
252,168,264131,1,0,0:0:0:0:
292,140,264227,1,0,0:0:0:0:
311,96,264324,1,2,0:0:0:0:
172,147,264518,2,0,L|156:264,1,90.0000034332277,8|0,0:0|0:0,0:0:0:0:
236,284,264905,5,0,0:0:0:0:
232,92,265098,1,8,0:0:0:0:
60,152,265292,1,8,0:0:0:0:
92,300,265485,5,0,0:0:0:0:
128,312,265582,1,0,0:0:0:0:
160,324,265679,1,0,0:0:0:0:
196,336,265776,1,0,0:0:0:0:
232,348,265872,1,2,0:0:0:0:
308,300,266066,1,8,0:0:0:0:
232,256,266260,1,0,0:0:0:0:
376,352,266453,6,0,L|472:328,1,90.0000034332277,2|0,0:0|0:0,0:0:0:0:
468,212,266840,2,8,B|460:172|460:172|448:152|448:152|432:68,1,135.000005149841,8|0,0:0|0:0,0:0:0:0:
428,60,267227,2,0,P|408:108|432:164,1,90.0000034332277,0|2,0:0|0:0,0:0:0:0:
400,316,267614,2,0,L|508:284,1,90.0000034332277,8|0,0:0|0:0,0:0:0:0:
312,132,268001,6,0,L|260:92,1,45.0000017166138,2|0,0:0|0:0,0:0:0:0:
216,56,268195,2,0,P|196:96|224:160,1,90.0000034332277,0|8,0:0|0:0,0:0:0:0:
232,208,268485,1,0,0:0:0:0:
232,208,268582,2,0,P|201:175|131:179,1,90.0000034332277
76,260,268872,1,0,0:0:0:0:
76,260,268969,2,8,L|172:240,1,90.0000034332277,2|8,0:0|0:0,0:0:0:0:
76,176,269356,1,0,0:0:0:0:
168,320,269550,5,2,0:0:0:0:
328,264,269743,1,0,0:0:0:0:
464,356,269937,2,0,L|360:332,1,90.0000034332277,8|0,0:0|0:0,0:0:0:0:
328,264,270227,1,0,0:0:0:0:
367,238,270324,2,0,L|415:204,1,45.0000017166138
472,160,270518,1,2,0:0:0:0:
476,248,270711,1,8,0:0:0:0:
396,136,270905,1,0,0:0:0:0:
456,76,271098,5,2,0:0:0:0:
468,60,271195,1,0,0:0:0:0:
480,44,271292,1,0,0:0:0:0:
316,164,271485,2,0,P|256:172|208:112,1,135.000005149841,8|0,0:0|0:0,0:0:0:0:
104,28,271872,1,0,0:0:0:0:
132,64,271969,1,0,0:0:0:0:
132,108,272066,1,2,0:0:0:0:
108,144,272163,1,0,0:0:0:0:
64,160,272260,6,0,L|80:196,3,22.5000008583069
40,316,272453,6,0,L|32:298,7,11.2500004291535
44,296,272647,6,0,B|80:268|80:268|164:296,1,120,2|0,1:0|0:0,0:0:0:0:
180,300,272937,1,2,1:0:0:0:
475,368,273227,2,0,L|511:291,1,60,2|0,0:2|0:0,0:0:0:0:
418,288,273421,2,0,L|419:203,1,60,2|0,0:2|0:0,0:0:0:0:
336,248,273614,2,0,L|301:170,1,60,2|0,0:2|0:0,0:0:0:0:
251,257,273808,2,0,L|186:201,1,60,2|0,0:2|0:0,0:0:0:0:
180,300,274001,2,0,L|98:277,1,60,2|0,0:2|0:0,0:0:0:0:
384,156,274195,6,0,L|436:40,1,120,2|0,0:1|0:0,0:0:0:0:
448,16,274485,1,2,0:1:0:0:
316,84,274776,2,0,P|288:100|244:92,1,60,2|0,0:2|0:0,0:0:0:0:
248,184,274969,2,0,P|216:175|191:138,1,60,2|0,0:2|0:0,0:0:0:0:
132,212,275163,2,0,P|116:184|124:140,1,60,2|0,0:2|0:0,0:0:0:0:
48,12,275356,2,0,P|73:33|80:77,1,60,2|0,0:2|0:0,0:0:0:0:
164,35,275550,2,0,P|166:67|140:103,1,60,2|0,0:2|0:0,0:0:0:0:
48,328,275743,6,0,B|24:340|24:340|44:240,1,120,2|0,0:1|0:0,0:0:0:0:
48,212,276034,1,2,0:1:0:0:
184,280,276324,2,0,L|128:304,1,60,2|0,0:2|0:0,0:0:0:0:
288,324,276518,2,0,L|232:348,1,60,2|0,0:2|0:0,0:0:0:0:
320,220,276711,2,0,L|264:244,1,60,2|0,0:2|0:0,0:0:0:0:
424,264,276905,2,0,L|368:288,1,60,2|0,0:2|0:0,0:0:0:0:
396,184,277098,5,2,0:2:0:0:
396,184,277292,2,0,B|428:156|428:156|440:64,1,120,2|0,0:1|0:0,0:0:0:0:
368,48,277582,1,2,0:1:0:0:
199,43,277872,2,0,P|166:36|134:57,1,60,2|0,0:2|0:0,0:0:0:0:
312,43,278066,2,0,P|341:36|368:47,1,60,2|0,0:2|0:0,0:0:0:0:
173,118,278260,2,0,P|147:134|136:161,1,60,2|0,0:2|0:0,0:0:0:0:
339,119,278454,2,0,P|366:137|374:174,1,60,2|0,0:2|0:0,0:0:0:0:
256,224,278647,1,2,0:2:0:0:
256,104,278840,6,0,L|256:244,1,120,2|0,0:1|0:0,0:0:0:0:
224,244,279130,2,0,P|156:260|96:232,1,120,2|0,0:1|0:0,0:0:0:0:
272,220,279421,2,0,P|300:208|336:216,1,60,2|0,0:1|0:0,0:0:0:0:
456,320,279614,2,0,P|424:344|428:284,1,120,2|0,0:1|0:0,0:0:0:0:
472,236,279905,2,0,P|492:188|468:116,1,120,2|0,0:1|0:0,0:0:0:0:
452,104,280195,1,2,0:1:0:0:
376,136,280389,6,0,P|391:163|430:173,1,60
354,55,280582,2,0,P|338:27|299:17,1,60
276,220,280776,6,0,P|278:251|309:277,1,60
290,135,280969,2,0,P|287:103|256:77,1,60
151,259,281163,6,0,P|140:288|156:324,1,60
200,190,281356,2,0,P|210:160|194:124,1,60
30,233,281550,6,0,P|7:255|7:295,1,60
104,192,281743,2,0,P|126:169|126:129,1,60
32,148,281937,6,2,L|24:136,47,15
98,106,283098,6,0,L|98:69,1,30,2|0,0:0|0:0,3:0:0:0:
128,83,283195,2,0,L|142:50,1,30,2|0,0:0|0:0,3:0:0:0:
168,72,283292,2,0,L|195:49,1,30,2|0,0:0|0:0,3:0:0:0:
209,75,283389,2,0,L|242:66,1,30,2|0,0:0|0:0,3:0:0:0:
256,156,283485,5,4,1:0:0:0:
164,280,283679,1,8,0:0:0:0:
348,104,283872,2,0,L|468:52,1,120,8|0,0:0|0:0,0:0:0:0:
164,280,284163,2,0,L|44:332,1,120,8|0,0:0|0:0,0:0:0:0:
356,240,284453,2,0,L|408:276,1,60,8|0,0:0|0:0,0:0:0:0:
156,144,284647,2,0,L|104:108,1,60,8|0,0:0|0:0,0:0:0:0:
268,300,284840,6,8,P|288:336|236:328,1,120
40,184,285034,6,0,P|12:128|60:24,1,180,6|0,0:0|0:0,0:0:0:0:
184,52,285421,2,0,P|232:84|312:64,1,120,2|0,0:0|0:0,0:0:0:0:
424,24,285711,1,2,0:0:0:0:
356,240,285905,1,2,0:0:0:0:
368,212,286001,2,0,L|392:136,1,60,2|0,0:0|0:0,0:0:0:0:
420,292,286195,2,0,P|408:312|368:328,1,60,2|0,0:0|0:0,0:0:0:0:
428,84,286389,2,0,P|448:96|464:136,1,60,2|0,0:0|0:0,0:0:0:0:
268,300,286582,6,0,B|208:284|208:284|176:352|92:336,1,180,2|0,0:0|0:0,0:0:0:0:
132,152,286969,2,0,P|152:226|110:264,1,120,2|0,0:0|0:0,0:0:0:0:
94,203,287260,1,2,0:0:0:0:
28,56,287453,1,2,0:0:0:0:
56,48,287550,2,0,L|140:16,1,60,2|0,0:0|0:0,0:0:0:0:
216,112,287743,2,0,L|300:144,1,60,2|0,0:0|0:0,0:0:0:0:
376,64,287937,2,0,L|460:32,1,60,2|0,0:0|0:0,0:0:0:0:
360,300,288130,6,0,B|355:269|355:269|379:259|379:259|331:205|368:144,1,180,2|0,0:0|0:0,0:0:0:0:
429,194,288518,2,0,P|458:255|433:315,1,120,2|0,0:0|0:0,0:0:0:0:
288,344,288808,2,0,L|124:320,1,120,2|2,0:0|0:0,0:0:0:0:
24,296,289098,2,0,L|92:272,1,60,2|0,0:0|0:0,0:0:0:0:
232,200,289292,2,0,L|164:176,1,60,2|0,0:0|0:0,0:0:0:0:
24,128,289485,2,0,L|92:104,1,60,2|0,0:0|0:0,0:0:0:0:
312,40,289679,6,0,B|364:24|364:24|320:100|364:148,1,180,2|0,0:0|0:0,0:0:0:0:
420,196,290066,2,0,P|444:148|420:88,1,120,2|0,0:0|0:0,0:0:0:0:
336,224,290356,1,2,0:0:0:0:
336,224,290550,1,2,0:0:0:0:
348,252,290647,2,0,L|380:320,1,60,2|0,0:0|0:0,0:0:0:0:
240,308,290840,2,0,L|215:379,1,60,2|0,0:0|0:0,0:0:0:0:
108,292,291034,2,0,L|39:324,1,60,2|0,0:0|0:0,0:0:0:0:
24,180,291227,6,0,B|44:124|4:88|4:88|24:44|88:44,1,180,2|0,0:0|0:0,0:0:0:0:
220,216,291614,2,0,L|88:192,1,120,2|0,0:0|0:0,0:0:0:0:
96,48,291905,1,2,0:0:0:0:
232,60,292098,1,2,0:0:0:0:
260,60,292195,2,0,L|360:64,1,60,2|0,0:0|0:0,0:0:0:0:
472,152,292389,2,0,L|372:156,1,60,2|0,0:0|0:0,0:0:0:0:
220,216,292582,2,0,L|279:218,1,60,2|0,0:0|0:0,0:0:0:0:
480,340,292776,6,0,B|440:316|440:316|412:344|376:348|376:348|352:324|312:320,1,180,2|0,0:0|0:0,0:0:0:0:
144,316,293163,2,0,P|212:316|260:364,1,120,2|0,0:0|0:0,0:0:0:0:
68,284,293453,2,0,B|48:220|48:220|68:148,1,120,2|0,0:0|0:0,0:0:0:0:
88,24,293743,2,0,L|17:60,1,60,2|0,0:0|0:0,0:0:0:0:
144,156,293937,2,0,L|120:232,1,60,2|0,0:0|0:0,0:0:0:0:
260,56,294130,2,0,L|296:126,1,60,2|0,0:0|0:0,0:0:0:0:
352,248,294324,6,0,B|416:216|416:216|380:172|408:96,1,180,2|0,0:0|0:0,0:0:0:0:
448,48,294711,2,0,P|484:108|472:160,1,120,2|0,0:0|0:0,0:0:0:0:
400,340,295001,2,0,L|268:324,1,120,2|2,0:0|0:0,0:0:0:0:
144,312,295292,2,0,L|200:292,1,60,2|0,0:0|0:0,0:0:0:0:
208,172,295485,2,0,L|233:118,1,60,2|0,0:0|0:0,0:0:0:0:
120,72,295679,2,0,L|100:16,1,60,2|0,0:0|0:0,0:0:0:0:
0,268,295872,6,0,B|32:260|32:260|64:272|64:272|100:224|192:224,1,150,6|0,0:0|0:0,0:0:0:0:
208,172,296163,2,0,P|168:144|64:172,1,150,6|0,0:0|0:0,0:0:0:0:
220,256,296453,2,0,B|268:244|268:244|348:144,1,150,6|0,0:0|0:0,0:0:0:0:
264,88,296743,1,2,0:0:0:0:
224,68,296840,2,0,L|140:24,1,60,2|0,0:0|0:0,0:0:0:0:
74,162,297034,2,0,L|158:118,1,60,2|0,0:0|0:0,0:0:0:0:
400,24,297227,2,0,L|316:68,1,60,2|0,0:0|0:0,0:0:0:0:
360,296,297421,6,0,B|408:356|480:344|480:344|444:296,1,180,2|0,0:0|0:0,0:0:0:0:
416,232,297808,2,0,P|384:172|408:124,1,120,2|0,0:0|0:0,0:0:0:0:
447,176,298098,1,2,0:0:0:0:
264,296,298292,1,2,0:0:0:0:
236,320,298389,2,0,L|172:372,1,60,2|0,0:0|0:0,0:0:0:0:
108,244,298582,2,0,L|25:235,1,60,2|0,0:0|0:0,0:0:0:0:
92,104,298776,2,0,L|39:39,1,60,2|0,0:0|0:0,0:0:0:0:
204,208,298969,6,0,B|176:128|176:128|196:32,1,180,2|0,0:0|0:0,0:0:0:0:
288,48,299356,2,0,P|332:72|348:148,1,120,2|0,0:0|0:0,0:0:0:0:
356,220,299647,1,2,0:0:0:0:
464,68,299840,1,2,0:0:0:0:
480,108,299937,2,0,L|512:184,1,60,2|0,0:0|0:0,0:0:0:0:
356,220,300130,2,0,L|324:296,1,60,2|0,0:0|0:0,0:0:0:0:
488,312,300324,2,0,L|520:388,1,60,2|0,0:0|0:0,0:0:0:0:
368,132,300518,6,0,P|304:140|264:240,1,180,2|0,0:0|0:0,0:0:0:0:
112,352,300905,2,0,B|192:336|192:336|248:284,1,120,2|0,0:0|0:0,0:0:0:0:
184,240,301195,2,0,P|116:232|88:164,1,120,2|2,0:0|0:0,0:0:0:0:
20,44,301485,2,0,L|32:124,1,60,2|0,0:0|0:0,0:0:0:0:
152,100,301679,2,0,L|217:148,1,60,2|0,0:0|0:0,0:0:0:0:
292,56,301872,2,0,L|372:44,1,60,2|0,0:0|0:0,0:0:0:0:
488,200,302066,6,0,P|404:200|360:112,1,180,2|0,0:0|0:0,0:0:0:0:
460,12,302453,2,0,B|464:48|464:48|436:148,1,120,2|0,0:0|0:0,0:0:0:0:
458,330,302743,2,0,L|340:312,1,120,2|0,0:0|0:0,0:0:0:0:
256,160,303034,2,0,P|235:191|245:231,1,60,2|0,0:0|0:0,0:0:0:0:
21,264,303227,2,0,P|51:264|75:282,1,60,2|0,0:0|0:0,0:0:0:0:
198,358,303421,2,0,L|172:303,1,60,2|0,0:0|0:0,0:0:0:0:
128,184,303614,6,0,B|140:140|140:140|80:92|100:16,1,180,6|0,0:0|0:0,0:0:0:0:
288,76,304001,2,0,P|224:84|172:40,1,120,10|0,0:0|0:0,0:0:0:0:
360,32,304292,2,0,L|484:0,1,120,2|0,0:0|0:0,0:0:0:0:
480,256,304582,2,0,L|422:237,1,60,2|0,0:0|0:0,0:0:0:0:
360,116,304776,2,0,L|417:134,1,60,10|0,0:0|0:0,0:0:0:0:
309,286,304969,2,0,L|252:268,1,60,2|0,0:0|0:0,0:0:0:0:
232,192,305163,6,0,B|176:212|172:268|172:268|144:312|72:304,1,180,6|0,0:0|0:0,0:0:0:0:
24,272,305550,2,0,B|8:232|8:232|24:144,1,120,10|0,0:0|0:0,0:0:0:0:
40,80,305840,1,2,0:0:0:0:
232,108,306034,1,2,0:0:0:0:
200,104,306130,2,0,L|120:92,1,60,2|0,0:0|0:0,0:0:0:0:
344,32,306324,2,0,L|284:40,1,60,10|0,0:0|0:0,0:0:0:0:
428,160,306518,2,0,L|368:151,1,60,2|0,0:0|0:0,0:0:0:0:
156,272,306711,5,12,0:3:0:0:
212,296,306808,1,8,0:3:0:0:
272,280,306905,1,8,0:3:0:0:
308,232,307001,1,8,0:3:0:0:
272,184,307098,1,8,0:3:0:0:
268,124,307195,1,8,0:3:0:0:
308,76,307292,1,8,0:3:0:0:
368,68,307389,1,8,0:3:0:0:
420,100,307485,5,8,0:3:0:0:
428,160,307582,1,8,0:3:0:0:
404,216,307679,1,8,0:3:0:0:
412,276,307776,1,8,0:3:0:0:
360,308,307872,1,8,0:3:0:0:
308,276,307969,1,8,0:3:0:0:
244,280,308066,1,8,0:3:0:0:
196,316,308163,1,8,0:3:0:0:
172,360,308260,6,0,B|124:336|69:360|69:360|48:204,1,240,2|0,0:3|0:0,0:0:0:0:
340,24,308550,6,0,B|388:48|442:23|442:23|464:180,1,240,6|0,0:0|0:0,0:0:0:0:
144,256,308840,6,0,B|148:188|104:148|104:148|124:100|192:40,1,240,2|0,0:3|0:0,0:0:0:0:
368,128,309130,6,0,B|364:196|408:236|408:236|388:284|320:344,1,240,6|0,0:0|0:0,0:0:0:0:
52,228,309421,5,6,0:0:0:0:
460,156,309614,5,6,0:0:0:0:
64,324,309808,6,0,B|44:264|44:264|88:96,1,225,6|0,0:0|0:0,0:0:0:0:
172,36,310195,2,0,P|204:108|168:172,1,150,10|0,0:0|0:0,0:0:0:0:
280,144,310485,2,0,L|432:92,1,150,2|2,0:0|0:0,0:0:0:0:
456,80,310776,1,2,0:0:0:0:
480,280,310969,2,0,P|428:272|400:176,1,150,10|0,0:0|0:0,0:0:0:0:
460,56,311356,6,0,B|455:111|433:133|433:133|407:147|393:170|393:170|393:218|371:253,1,225,2|0,0:0|0:0,0:0:0:0:
296,320,311743,2,0,B|292:275|292:275|228:256|212:200,1,150,10|0,0:0|0:0,0:0:0:0:
348,104,312034,2,0,B|312:140|316:200|316:200|288:200|276:164,1,150,2|2,0:0|0:0,0:0:0:0:
228,112,312324,2,0,P|232:65|272:35,1,75,2|0,0:0|0:0,0:0:0:0:
108,24,312518,2,0,L|148:111,1,75,10|0,0:0|0:0,0:0:0:0:
104,176,312711,2,0,P|65:149|16:160,1,75,2|0,0:0|0:0,0:0:0:0:
50,233,312905,6,0,B|60:312|136:304|136:304|152:252|200:232,1,225,2|0,0:0|0:0,0:0:0:0:
228,308,313292,2,0,B|348:288|348:288|336:344,1,150,10|0,0:0|0:0,0:0:0:0:
332,352,313582,2,0,B|360:240|360:240|352:200,1,150,2|2,0:0|0:0,0:0:0:0:
488,132,313872,2,0,L|416:161,1,75,2|0,0:0|0:0,0:0:0:0:
440,5,314066,2,0,L|409:76,1,75,10|0,0:0|0:0,0:0:0:0:
315,58,314260,2,0,L|343:130,1,75,2|0,0:0|0:0,0:0:0:0:
424,332,314453,1,2,0:0:0:0:
68,28,314840,6,0,B|40:68|40:68|60:168,1,150,10|0,0:0|0:0,0:0:0:0:
100,248,315130,2,0,P|144:196|120:104,1,150,2|2,0:0|0:0,0:0:0:0:
28,304,315421,2,0,L|92:344,1,75,2|0,0:0|0:0,0:0:0:0:
172,292,315614,2,0,L|236:252,1,75,10|0,0:0|0:0,0:0:0:0:
276,332,315808,2,0,L|350:341,1,75,2|0,0:0|0:0,0:0:0:0:
512,228,316001,6,0,B|491:310|430:317|430:317|416:260|348:256,1,225,2|0,0:0|0:0,0:0:0:0:
280,72,316389,2,0,P|340:128|324:200,1,150,10|0,0:0|0:0,0:0:0:0:
268,148,316679,1,2,0:0:0:0:
408,80,316872,1,2,0:0:0:0:
440,60,316969,2,0,L|516:12,1,75,2|0,0:0|0:0,0:0:0:0:
268,148,317163,2,0,B|220:132|220:132|180:40,1,150,10|0,0:0|0:0,0:0:0:0:
56,128,317550,6,0,B|32:196|32:196|48:240|48:240|0:272|8:352,1,225,2|0,0:0|0:0,0:0:0:0:
200,376,317937,2,0,P|124:372|92:296,1,150,10|0,0:0|0:0,0:0:0:0:
272,220,318227,2,0,B|260:308|260:308|292:372,1,150,2|2,0:0|0:0,0:0:0:0:
340,288,318518,2,0,L|356:188,1,75,2|0,0:0|0:0,0:0:0:0:
500,156,318711,2,0,B|497:164|497:164|489:162|489:162|487:202|443:229,1,75,10|0,0:0|0:0,0:0:0:0:
345,131,318905,2,0,B|374:130|374:130|416:158,1,75,2|0,0:0|0:0,0:0:0:0:
272,220,319098,6,0,B|212:184|212:184|256:104|216:32,1,225,2|0,0:0|0:0,0:0:0:0:
44,160,319485,2,0,P|124:156|156:88,1,150,10|0,0:0|0:0,0:0:0:0:
82,96,319776,1,2,0:0:0:0:
132,248,319969,1,2,0:0:0:0:
152,288,320066,2,0,L|192:376,1,75,2|0,0:0|0:0,0:0:0:0:
340,288,320260,2,0,L|430:321,1,75,10|0,0:0|0:0,0:0:0:0:
420,140,320453,2,0,L|507:100,1,75,2|0,0:0|0:0,0:0:0:0:
288,84,320647,6,2,P|224:28|136:64,1,150,4|2,0:0|0:0,0:0:0:0:
0,148,320937,2,0,B|36:140|71:163|71:163|88:124|135:111,1,150,6|0,0:0|0:0,0:0:0:0:
208,104,321227,2,0,B|240:156|232:224|232:224|196:176|132:192,1,225,6|0,0:0|0:0,0:0:0:0:
108,316,321614,2,0,B|116:272|88:240|88:240|44:244|20:216,2,150,2|2|2,0:0|0:0|0:0,0:0:0:0:
344,340,322195,6,0,B|402:353|461:307|461:307|454:229|493:196,1,225,2|0,0:0|0:0,0:0:0:0:
436,136,322582,2,0,P|372:120|344:40,1,150,10|0,0:0|0:0,0:0:0:0:
424,56,322872,1,2,0:0:0:0:
296,192,323066,1,2,0:0:0:0:
258,218,323163,2,0,P|287:194|324:192,1,75,2|0,0:0|0:0,0:0:0:0:
135,132,323356,2,0,P|172:135|200:160,1,75,10|0,0:0|0:0,0:0:0:0:
197,2,323550,2,0,P|221:31|224:68,1,75,2|0,0:0|0:0,0:0:0:0:
112,248,323743,6,0,B|98:197|52:188|52:188|72:92|24:48,1,225,2|0,0:0|0:0,0:0:0:0:
36,264,324130,2,0,P|100:332|168:308,1,150,10|0,0:0|0:0,0:0:0:0:
336,296,324421,2,0,L|164:252,1,150,2|0,0:0|0:0,0:0:0:0:
352,216,324711,2,0,P|394:230|417:275,1,75,2|0,0:0|0:0,0:0:0:0:
481,54,324905,2,0,P|445:60|412:45,1,75,10|0,0:0|0:0,0:0:0:0:
422,142,325098,2,0,L|499:171,1,75,2|0,0:0|0:0,0:0:0:0:
316,116,325292,6,0,B|282:88|282:88|255:114|255:114|216:36|132:60,1,225,2|0,0:0|0:0,0:0:0:0:
52,184,325679,2,0,P|144:184|168:108,1,150,10|0,0:0|0:0,0:0:0:0:
98,128,325969,1,2,0:0:0:0:
88,284,326163,1,2,0:0:0:0:
88,284,326260,2,0,L|76:376,1,75,2|0,0:0|0:0,0:0:0:0:
176,264,326453,2,0,L|204:352,1,75,10|0,0:0|0:0,0:0:0:0:
236,196,326647,2,0,L|298:264,1,75,2|0,0:0|0:0,0:0:0:0:
384,376,326840,6,0,B|352:369|349:316|349:316|392:232|333:174,1,225,2|0,0:0|0:0,0:0:0:0:
356,44,327227,2,0,P|402:106|489:83,1,150,10|0,0:0|0:0,0:0:0:0:
429,40,327518,1,2,0:0:0:0:
295,116,327711,1,2,0:0:0:0:
264,96,327808,2,0,L|166:41,1,75,2|0,0:0|0:0,0:0:0:0:
17,133,328001,2,0,L|89:152,1,75,10|0,0:0|0:0,0:0:0:0:
212,289,328195,2,0,L|136:287,1,75,2|0,0:0|0:0,0:0:0:0:
176,176,328389,6,0,L|326:216,1,150,2|0,0:0|0:0,0:0:0:0:
408,344,328679,1,2,0:0:0:0:
408,344,328776,2,0,B|384:264|384:264|444:184,1,150,10|0,0:0|0:0,0:0:0:0:
476,144,329066,1,2,0:0:0:0:
476,144,329163,2,0,P|448:72|380:64,1,150,0|2,0:0|0:0,0:0:0:0:
180,192,329453,1,0,0:0:0:0:
200,224,329550,2,0,B|224:260|224:260|288:128,1,150,10|2,0:0|0:0,0:0:0:0:
304,88,329840,5,0,0:0:0:0:
264,72,329937,2,0,L|120:20,1,150,2|0,0:0|0:0,0:0:0:0:
32,176,330227,1,0,0:0:0:0:
12,200,330324,2,0,P|100:188|128:104,1,150,10|0,0:0|0:0,0:0:0:0:
132,104,330614,1,2,0:0:0:0:
128,141,330711,2,0,L|112:304,1,150,0|2,0:0|0:0,0:0:0:0:
256,344,331001,1,0,0:0:0:0:
288,328,331098,2,0,B|332:296|332:296|344:192,1,150,10|0,0:0|0:0,0:0:0:0:
428,208,331389,5,0,0:0:0:0:
428,208,331485,2,8,L|474:120,1,75
84,176,331679,6,8,L|38:264,1,75
423,134,331872,6,8,L|398:52,1,87.0000026550294
89,250,332066,6,8,L|114:332,1,87.0000026550294
401,70,332259,6,8,L|313:24,1,87.0000026550294
111,314,332453,6,8,L|199:360,1,99.0000009441376
325,60,332647,6,8,L|217:93,1,110.999999576569
187,324,332840,6,8,L|295:291,1,110.999999576569
160,24,333034,6,0,B|138:46|138:66|138:66|117:70|105:94|105:94|135:100|143:127|143:127|90:185|132:251,1,240,4|0,0:0|0:0,0:0:0:0:
56,272,333324,6,0,P|164:276|196:180,1,210.000002002716
260,92,333614,6,0,B|280:188|280:188|324:188|344:104,1,180.000006866455
424,52,333905,6,0,B|429:78|429:78|411:81|411:81|436:128|416:188,1,150
360,244,334195,6,0,P|348:312|412:272,1,180
248,280,334582,6,0,P|224:256|164:252,1,90.0000034332277,4|0,1:0|0:0,0:0:0:0:
36,348,334969,2,0,P|66:333|91:278,1,90.0000034332277,2|0,0:0|0:0,0:0:0:0:
76,68,335356,2,0,L|100:212,2,135.000005149841,0|2|0,0:0|0:0|0:0,0:0:0:0:
76,68,336324,1,0,0:0:0:0:
164,92,336518,1,0,0:0:0:0:
244,48,336711,1,2,0:0:0:0:
244,48,337098,1,2,0:0:0:0:
298,122,337291,1,0,0:0:0:0:
387,137,337485,1,0,0:0:0:0:
356,52,337679,5,0,0:0:0:0:
324,200,338066,1,0,0:0:0:0:
468,148,338260,1,2,0:0:0:0:
468,148,338647,1,2,0:0:0:0:
464,192,338743,2,0,L|448:308,1,90.0000034332277,0|0,0:0|0:0,0:0:0:0:
444,328,339034,1,2,0:0:0:0:
468,148,339227,5,0,0:0:0:0:
292,196,339421,1,2,0:0:0:0:
256,280,339614,1,0,0:0:0:0:
344,268,339808,1,2,0:0:0:0:
80,180,340001,1,0,0:0:0:0:
156,320,340195,1,2,0:0:0:0:
160,228,340389,1,0,0:0:0:0:
8,312,340582,1,2,0:0:0:0:
156,136,340776,5,0,0:0:0:0:
132,48,340969,1,0,0:0:0:0:
48,28,341163,1,2,0:0:0:0:
216,76,341356,1,0,0:0:0:0:
292,124,341550,2,0,L|444:108,1,135.000005149841,2|2,0:0|0:0,0:0:0:0:
460,104,341937,2,0,P|480:144|464:200,1,90.0000034332277,0|0,0:0|0:0,0:0:0:0:
164,340,342518,5,0,0:0:0:0:
32,220,342711,1,0,0:0:0:0:
204,160,342905,1,2,0:0:0:0:
136,236,343292,1,2,0:0:0:0:
108,152,343485,1,0,0:0:0:0:
84,64,343679,1,0,0:0:0:0:
428,64,343872,5,2,0:0:0:0:
444,200,344066,1,0,0:0:0:0:
360,140,344259,1,2,0:0:0:0:
465,148,344453,1,0,0:0:0:0:
423,278,344647,1,2,0:0:0:0:
372,188,344840,1,0,0:0:0:0:
464,241,345034,1,2,0:0:0:0:
370,341,345228,1,0,0:0:0:0:
280,260,345421,6,0,L|176:236,1,90.0000034332277,2|0,0:0|0:0,0:0:0:0:
148,228,345711,2,0,P|92:284|112:368,1,135.000005149841,2|0,0:0|0:0,0:0:0:0:
56,180,346389,2,0,L|64:60,1,90.0000034332277,2|0,0:0|0:0,0:0:0:0:
128,32,346776,1,0,0:0:0:0:
344,124,346969,1,4,0:0:0:0:
264,168,347163,1,0,0:0:0:0:
268,80,347356,1,2,0:0:0:0:
428,80,347550,1,0,0:0:0:0:
416,232,347743,6,0,L|408:348,1,90.0000034332277
408,352,348034,1,2,0:0:0:0:
476,160,348324,1,0,0:0:0:0:
52,312,348711,1,0,0:0:0:0:
140,324,348905,1,0,0:0:0:0:
208,260,349098,1,2,0:0:0:0:
208,260,349485,1,2,0:0:0:0:
160,186,349679,1,0,0:0:0:0:
189,97,349872,1,0,0:0:0:0:
248,164,350066,5,0,0:0:0:0:
96,112,350453,1,0,0:0:0:0:
272,80,350647,2,0,P|360:88|428:20,1,180.000006866455,2|2,0:0|0:0,0:0:0:0:
416,160,351130,2,0,L|404:272,1,90.0000034332277
404,272,351421,1,2,0:0:0:0:
80,232,351808,5,2,0:0:0:0:
120,312,352001,1,0,0:0:0:0:
208,320,352195,1,2,0:0:0:0:
168,152,352389,1,0,0:0:0:0:
124,72,352582,1,2,0:0:0:0:
36,80,352776,1,0,0:0:0:0:
80,148,352969,1,2,0:0:0:0:
212,72,353163,5,4,0:0:0:0:
252,56,353260,1,0,0:0:0:0:
296,60,353356,1,0,0:0:0:0:
332,84,353453,1,0,0:0:0:0:
348,128,353550,1,2,0:0:0:0:
332,168,353647,1,0,0:0:0:0:
336,212,353743,1,0,0:0:0:0:
364,244,353840,1,0,0:0:0:0:
408,256,353937,5,0,0:0:0:0:
452,244,354034,1,0,0:0:0:0:
480,208,354130,1,0,0:0:0:0:
480,164,354227,1,0,0:0:0:0:
460,124,354324,1,2,0:0:0:0:
416,120,354421,1,0,0:0:0:0:
396,160,354518,1,0,0:0:0:0:
420,200,354614,1,0,0:0:0:0:
436,244,354711,5,4,0:0:0:0:
428,288,354808,1,0,0:0:0:0:
392,316,354905,1,0,0:0:0:0:
348,320,355001,1,0,0:0:0:0:
308,300,355098,1,2,0:0:0:0:
264,292,355195,1,0,0:0:0:0:
220,308,355292,1,0,0:0:0:0:
188,336,355389,1,0,0:0:0:0:
148,316,355485,5,0,0:0:0:0:
104,320,355582,1,0,0:0:0:0:
64,304,355679,1,0,0:0:0:0:
36,264,355776,1,0,0:0:0:0:
36,216,355872,1,2,0:0:0:0:
48,172,355969,1,0,0:0:0:0:
88,152,356066,1,0,0:0:0:0:
132,156,356163,1,0,0:0:0:0:
164,188,356260,6,0,P|136:208|116:208,1,45.0000017166138,8|8,0:3|0:3,0:0:0:0:
348,196,356453,6,0,P|376:176|396:176,1,45.0000017166138,8|8,0:3|0:3,0:0:0:0:
174,149,356647,6,0,P|140:155|122:147,1,45.0000017166138,8|8,0:3|0:3,0:0:0:0:
337,234,356840,6,0,P|371:228|389:236,1,45.0000017166138,8|8,0:3|0:3,0:0:0:0:
199,118,357034,6,0,P|166:110|153:95,1,45.0000017166138,8|8,0:3|0:3,0:0:0:0:
312,265,357227,6,0,P|345:273|358:288,1,45.0000017166138,0|8,0:3|0:3,0:0:0:0:
236,102,357421,6,0,P|209:80|204:60,1,45.0000017166138,8|8,0:3|0:3,0:0:0:0:
275,281,357614,6,0,P|302:303|307:323,1,45.0000017166138,8|8,0:3|0:3,0:0:0:0:
162,379,357808,6,0,B|197:365|212:332|212:332|184:296|200:248,1,150,4|0,1:0|0:0,0:0:0:0:
349,4,358098,6,0,B|315:19|300:52|300:52|328:88|312:136,1,150,4|0,1:0|0:0,0:0:0:0:
236,102,358389,5,8,0:3:0:0:
196,82,358485,1,8,0:3:0:0:
152,90,358582,1,8,0:3:0:0:
124,126,358679,1,8,0:3:0:0:
136,168,358776,2,0,P|164:192|172:240,1,75,2|0,0:3|0:0,0:0:0:0:
275,281,358969,6,0,P|326:328|314:235,1,225,8|0,0:3|0:0,0:0:0:0:
88,236,359356,5,4,0:1:0:0:
