osu file format v12

[General]
AudioFilename: xccsc.mp3
AudioLeadIn: 0
PreviewTime: -1
Countdown: 1
SampleSet: Soft
StackLeniency: 0.7
Mode: 0
LetterboxInBreaks: 1
WidescreenStoryboard: 0

[Editor]
DistanceSpacing: 1.6
BeatDivisor: 4
GridSize: 8

[Metadata]
Title:Night of Knights xccsc piano remix
TitleUnicode:Night of Knights xccsc piano remix
Artist:xccsc feat. beatMARIO
ArtistUnicode:xccsc feat. beatMARIO
Creator:deepsea
Version:eaTV
Source:
Tags:
BeatmapID:283152
BeatmapSetID:108242

[Difficulty]
HPDrainRate:0
CircleSize:5
OverallDifficulty:8
ApproachRate:9
SliderMultiplier:1.9
SliderTickRate:1

[Events]
//Background and Video events
0,0,"BG.jpg",0,0
//Break Periods
//Storyboard Layer 0 (Background)
//Storyboard Layer 1 (Fail)
//Storyboard Layer 2 (Pass)
//Storyboard Layer 3 (Foreground)
//Storyboard Sound Samples
Sample,1000,0,"30.wav",100
Sample,1000,0,"30.wav",100
Sample,1000,0,"30.wav",100
Sample,1000,0,"30.wav",100
Sample,1000,0,"21.wav",100
Sample,1000,0,"30.wav",100
Sample,1083,0,"12.wav",100
Sample,1083,0,"22.wav",100
Sample,1083,0,"22.wav",100
Sample,1250,0,"26.wav",100
Sample,1416,0,"25.wav",100
Sample,1500,0,"26.wav",100
Sample,1666,0,"23.wav",100
Sample,1833,0,"24.wav",100
Sample,2000,0,"26.wav",100
Sample,2083,0,"25.wav",100
Sample,2166,0,"24.wav",100
Sample,2250,0,"23.wav",100
Sample,2333,0,"22.wav",100
Sample,2500,0,"26.wav",100
Sample,2666,0,"25.wav",100
Sample,2749,0,"26.wav",100
Sample,2916,0,"23.wav",100
Sample,3083,0,"24.wav",100
Sample,3249,0,"26.wav",100
Sample,3333,0,"21.wav",100
Sample,3499,0,"21h.wav",100
Sample,3666,0,"22.wav",100
Sample,3833,0,"26.wav",100
Sample,3999,0,"25.wav",100
Sample,4083,0,"26.wav",100
Sample,4249,0,"23.wav",100
Sample,4416,0,"24.wav",100
Sample,4583,0,"26.wav",100
Sample,4666,0,"25.wav",100
Sample,4749,0,"24.wav",100
Sample,4833,0,"23.wav",100
Sample,5000,0,"22.wav",100
Sample,5166,0,"26.wav",100
Sample,5333,0,"25.wav",100
Sample,5416,0,"26.wav",100
Sample,5583,0,"23.wav",100
Sample,5750,0,"24.wav",100
Sample,5916,0,"26.wav",100
Sample,6000,0,"21.wav",100
Sample,6000,0,"11h.wav",100
Sample,6083,0,"22.wav",100
Sample,6166,0,"21h.wav",100
Sample,6333,0,"22.wav",100
Sample,6333,0,"12.wav",100
Sample,6500,0,"26.wav",100
Sample,6666,0,"25.wav",100
Sample,6750,0,"26.wav",100
Sample,6916,0,"23.wav",100
Sample,7083,0,"24.wav",100
Sample,7250,0,"26.wav",100
Sample,7333,0,"25.wav",100
Sample,7333,0,"11h.wav",100
Sample,7416,0,"24.wav",100
Sample,7416,0,"22.wav",100
Sample,7500,0,"23.wav",100
Sample,7666,0,"12.wav",100
Sample,7666,0,"22.wav",100
Sample,7833,0,"26.wav",100
Sample,8000,0,"25.wav",100
Sample,8083,0,"26.wav",100
Sample,8250,0,"23.wav",100
Sample,8416,0,"24.wav",100
Sample,8583,0,"26.wav",100
Sample,8666,0,"21.wav",100
Sample,8666,0,"11h.wav",100
Sample,8750,0,"22.wav",100
Sample,8833,0,"21h.wav",100
Sample,9000,0,"22.wav",100
Sample,9000,0,"12.wav",100
Sample,9166,0,"26.wav",100
Sample,9333,0,"25.wav",100
Sample,9416,0,"26.wav",100
Sample,9416,0,"22.wav",100
Sample,9583,0,"23.wav",100
Sample,9666,0,"22.wav",100
Sample,9750,0,"24.wav",100
Sample,9916,0,"26.wav",100
Sample,9999,0,"25.wav",100
Sample,10083,0,"24.wav",100
Sample,10083,0,"22.wav",100
Sample,10166,0,"23.wav",100
Sample,10333,0,"22.wav",100
Sample,10333,0,"16.wav",100
Sample,10416,0,"22.wav",100
Sample,10499,0,"26.wav",100
Sample,10666,0,"16.wav",100
Sample,10666,0,"25.wav",100
Sample,10749,0,"22.wav",100
Sample,10749,0,"26.wav",100
Sample,10916,0,"31.wav",100
Sample,10999,0,"16.wav",100
Sample,11083,0,"31.wav",100
Sample,11083,0,"22.wav",100
Sample,11166,0,"26.wav",100
Sample,11249,0,"22.wav",100
Sample,11333,0,"33.wav",100
Sample,11333,0,"16.wav",100
Sample,11333,0,"26.wav",100
Sample,11416,0,"12.wav",100
Sample,11499,0,"31.wav",100
Sample,11499,0,"16.wav",100
Sample,11583,0,"25.wav",100
Sample,11583,0,"31h.wav",100
Sample,11666,0,"26.wav",100
Sample,11666,0,"32.wav",100
Sample,11749,0,"12.wav",100
Sample,11833,0,"22.wav",100
Sample,11833,0,"36.wav",100
Sample,11833,0,"34.wav",100
Sample,11916,0,"25.wav",100
Sample,11999,0,"35.wav",100
Sample,12083,0,"36.wav",100
Sample,12083,0,"12.wav",100
Sample,12166,0,"22.wav",100
Sample,12249,0,"25.wav",100
Sample,12249,0,"33.wav",100
Sample,12249,0,"31.wav",100
Sample,12416,0,"32.wav",100
Sample,12416,0,"34.wav",100
Sample,12416,0,"12.wav",100
Sample,12499,0,"22.wav",100
Sample,12583,0,"36.wav",100
Sample,12583,0,"25.wav",100
Sample,12666,0,"35.wav",100
Sample,12749,0,"34.wav",100
Sample,12749,0,"12.wav",100
Sample,12833,0,"33.wav",100
Sample,12833,0,"22.wav",100
Sample,12916,0,"25.wav",100
Sample,12999,0,"26.wav",100
Sample,12999,0,"32.wav",100
Sample,13083,0,"12.wav",100
Sample,13166,0,"22.wav",100
Sample,13166,0,"36.wav",100
Sample,13166,0,"34.wav",100
Sample,13249,0,"25.wav",100
Sample,13333,0,"35.wav",100
Sample,13416,0,"36.wav",100
Sample,13416,0,"12.wav",100
Sample,13499,0,"22.wav",100
Sample,13583,0,"25.wav",100
Sample,13583,0,"33.wav",100
Sample,13583,0,"31.wav",100
Sample,13749,0,"12.wav",100
Sample,13749,0,"32.wav",100
Sample,13749,0,"34.wav",100
Sample,13833,0,"22.wav",100
Sample,13916,0,"25.wav",100
Sample,13916,0,"36.wav",100
Sample,13916,0,"34.wav",100
Sample,13999,0,"23.wav",100
Sample,13999,0,"31.wav",100
Sample,14083,0,"12.wav",100
Sample,14166,0,"22.wav",100
Sample,14166,0,"31h.wav",100
Sample,14166,0,"24.wav",100
Sample,14249,0,"25.wav",100
Sample,14333,0,"26.wav",100
Sample,14333,0,"32.wav",100
Sample,14416,0,"12.wav",100
Sample,14499,0,"22.wav",100
Sample,14499,0,"34.wav",100
Sample,14499,0,"36.wav",100
Sample,14583,0,"25.wav",100
Sample,14666,0,"35.wav",100
Sample,14749,0,"12.wav",100
Sample,14749,0,"36.wav",100
Sample,14833,0,"22.wav",100
Sample,14916,0,"33.wav",100
Sample,14916,0,"25.wav",100
Sample,14916,0,"31.wav",100
Sample,15083,0,"12.wav",100
Sample,15083,0,"34.wav",100
Sample,15083,0,"32.wav",100
Sample,15166,0,"22.wav",100
Sample,15249,0,"25.wav",100
Sample,15249,0,"36.wav",100
Sample,15333,0,"35.wav",100
Sample,15416,0,"34.wav",100
Sample,15416,0,"12.wav",100
Sample,15499,0,"33.wav",100
Sample,15499,0,"22.wav",100
Sample,15583,0,"25.wav",100
Sample,15666,0,"26.wav",100
Sample,15666,0,"32.wav",100
Sample,15749,0,"12.wav",100
Sample,15833,0,"22.wav",100
Sample,15833,0,"36.wav",100
Sample,15833,0,"34.wav",100
Sample,15916,0,"25.wav",100
Sample,15999,0,"35.wav",100
Sample,16083,0,"36.wav",100
Sample,16083,0,"12.wav",100
Sample,16166,0,"22.wav",100
Sample,16249,0,"31.wav",100
Sample,16249,0,"25.wav",100
Sample,16249,0,"33.wav",100
Sample,16416,0,"12.wav",100
Sample,16416,0,"32.wav",100
Sample,16416,0,"34.wav",100
Sample,16499,0,"22.wav",100
Sample,16583,0,"25.wav",100
Sample,16583,0,"34.wav",100
Sample,16583,0,"36.wav",100
Sample,16666,0,"23.wav",100
Sample,16666,0,"31.wav",100
Sample,16749,0,"12.wav",100
Sample,16833,0,"22.wav",100
Sample,16833,0,"31h.wav",100
Sample,16833,0,"24.wav",100
Sample,16916,0,"25.wav",100
Sample,16999,0,"32.wav",100
Sample,16999,0,"26.wav",100
Sample,17083,0,"12.wav",100
Sample,17166,0,"22.wav",100
Sample,17166,0,"36.wav",100
Sample,17166,0,"34.wav",100
Sample,17249,0,"25.wav",100
Sample,17333,0,"35.wav",100
Sample,17416,0,"36.wav",100
Sample,17416,0,"12.wav",100
Sample,17499,0,"22.wav",100
Sample,17583,0,"25.wav",100
Sample,17583,0,"33.wav",100
Sample,17583,0,"31.wav",100
Sample,17749,0,"34.wav",100
Sample,17749,0,"32.wav",100
Sample,17749,0,"12.wav",100
Sample,17833,0,"22.wav",100
Sample,17916,0,"36.wav",100
Sample,17916,0,"25.wav",100
Sample,17999,0,"35.wav",100
Sample,18083,0,"12.wav",100
Sample,18083,0,"34.wav",100
Sample,18166,0,"33.wav",100
Sample,18166,0,"22.wav",100
Sample,18249,0,"25.wav",100
Sample,18333,0,"32.wav",100
Sample,18333,0,"26.wav",100
Sample,18416,0,"12.wav",100
Sample,18499,0,"22.wav",100
Sample,18499,0,"34.wav",100
Sample,18499,0,"36.wav",100
Sample,18583,0,"25.wav",100
Sample,18666,0,"35.wav",100
Sample,18749,0,"36.wav",100
Sample,18749,0,"12.wav",100
Sample,18833,0,"22.wav",100
Sample,18916,0,"33.wav",100
Sample,18916,0,"25.wav",100
Sample,18916,0,"31.wav",100
Sample,19083,0,"12.wav",100
Sample,19083,0,"34.wav",100
Sample,19083,0,"32.wav",100
Sample,19166,0,"22.wav",100
Sample,19249,0,"36.wav",100
Sample,19249,0,"34.wav",100
Sample,19249,0,"25.wav",100
Sample,19333,0,"23.wav",100
Sample,19333,0,"31.wav",100
Sample,19416,0,"12.wav",100
Sample,19499,0,"22.wav",100
Sample,19499,0,"31h.wav",100
Sample,19499,0,"24.wav",100
Sample,19583,0,"25.wav",100
Sample,19666,0,"32.wav",100
Sample,19666,0,"26.wav",100
Sample,19750,0,"12.wav",100
Sample,19833,0,"22.wav",100
Sample,19833,0,"34.wav",100
Sample,19833,0,"36.wav",100
Sample,19916,0,"25.wav",100
Sample,20000,0,"35.wav",100
Sample,20083,0,"12.wav",100
Sample,20083,0,"36.wav",100
Sample,20166,0,"22.wav",100
Sample,20250,0,"33.wav",100
Sample,20250,0,"25.wav",100
Sample,20250,0,"31.wav",100
Sample,20416,0,"12.wav",100
Sample,20416,0,"32.wav",100
Sample,20416,0,"34.wav",100
Sample,20500,0,"22.wav",100
Sample,20583,0,"36.wav",100
Sample,20583,0,"25.wav",100
Sample,20666,0,"35.wav",100
Sample,20750,0,"12.wav",100
Sample,20750,0,"34.wav",100
Sample,20833,0,"33.wav",100
Sample,20833,0,"22.wav",100
Sample,20916,0,"25.wav",100
Sample,21000,0,"24.wav",100
Sample,21083,0,"12.wav",100
Sample,21083,0,"25.wav",100
Sample,21166,0,"22.wav",100
Sample,21166,0,"26.wav",100
Sample,21250,0,"26h.wav",100
Sample,21250,0,"25.wav",100
Sample,21333,0,"31.wav",100
Sample,21416,0,"32.wav",100
Sample,21416,0,"12.wav",100
Sample,21500,0,"33.wav",100
Sample,21500,0,"22.wav",100
Sample,21583,0,"25.wav",100
Sample,21583,0,"34.wav",100
Sample,21666,0,"35.wav",100
Sample,21750,0,"12.wav",100
Sample,21750,0,"36.wav",100
Sample,21833,0,"22.wav",100
Sample,21833,0,"36h.wav",100
Sample,21916,0,"41.wav",100
Sample,21916,0,"25.wav",100
Sample,22000,0,"42.wav",100
Sample,22083,0,"43.wav",100
Sample,22083,0,"06h.wav",100
Sample,22166,0,"44.wav",100
Sample,22166,0,"22.wav",100
Sample,22250,0,"22.wav",100
Sample,22333,0,"32.wav",100
Sample,22333,0,"36.wav",100
Sample,22416,0,"06h.wav",100
Sample,22500,0,"44.wav",100
Sample,22500,0,"16h.wav",100
Sample,22500,0,"42.wav",100
Sample,22583,0,"22.wav",100
Sample,22666,0,"43.wav",100
Sample,22750,0,"44.wav",100
Sample,22750,0,"11.wav",100
Sample,22833,0,"43.wav",100
Sample,22833,0,"16h.wav",100
Sample,22916,0,"23.wav",100
Sample,23000,0,"45.wav",100
Sample,23000,0,"41.wav",100
Sample,23083,0,"11.wav",100
Sample,23166,0,"21.wav",100
Sample,23166,0,"44.wav",100
Sample,23250,0,"23.wav",100
Sample,23333,0,"43.wav",100
Sample,23416,0,"12.wav",100
Sample,23416,0,"44.wav",100
Sample,23500,0,"43.wav",100
Sample,23500,0,"21.wav",100
Sample,23583,0,"41.wav",100
Sample,23583,0,"24.wav",100
Sample,23666,0,"34.wav",100
Sample,23666,0,"42.wav",100
Sample,23750,0,"12.wav",100
Sample,23833,0,"44.wav",100
Sample,23833,0,"22.wav",100
Sample,23833,0,"46.wav",100
Sample,23916,0,"24.wav",100
Sample,24000,0,"45.wav",100
Sample,24083,0,"46.wav",100
Sample,24083,0,"12.wav",100
Sample,24166,0,"45.wav",100
Sample,24166,0,"22.wav",100
Sample,24250,0,"24.wav",100
Sample,24250,0,"46.wav",100
Sample,24333,0,"44.wav",100
Sample,24333,0,"51.wav",100
Sample,24416,0,"12.wav",100
Sample,24500,0,"22.wav",100
Sample,24500,0,"46.wav",100
Sample,24583,0,"24.wav",100
Sample,24666,0,"45.wav",100
Sample,24750,0,"06h.wav",100
Sample,24833,0,"46.wav",100
Sample,24833,0,"22.wav",100
Sample,24916,0,"22.wav",100
Sample,25000,0,"36.wav",100
Sample,25000,0,"32.wav",100
Sample,25083,0,"06h.wav",100
Sample,25166,0,"16h.wav",100
Sample,25166,0,"42.wav",100
Sample,25166,0,"44.wav",100
Sample,25250,0,"22.wav",100
Sample,25333,0,"43.wav",100
Sample,25416,0,"11.wav",100
Sample,25416,0,"44.wav",100
Sample,25500,0,"43.wav",100
Sample,25500,0,"16h.wav",100
Sample,25583,0,"23.wav",100
Sample,25666,0,"41.wav",100
Sample,25666,0,"45.wav",100
Sample,25750,0,"11.wav",100
Sample,25833,0,"21.wav",100
Sample,25833,0,"44.wav",100
Sample,25916,0,"23.wav",100
Sample,26000,0,"43.wav",100
Sample,26083,0,"44.wav",100
Sample,26083,0,"12.wav",100
Sample,26166,0,"43.wav",100
Sample,26166,0,"21.wav",100
Sample,26250,0,"41.wav",100
Sample,26250,0,"22.wav",100
Sample,26333,0,"42.wav",100
Sample,26333,0,"34.wav",100
Sample,26416,0,"13.wav",100
Sample,26500,0,"16.wav",100
Sample,26500,0,"44.wav",100
Sample,26500,0,"46.wav",100
Sample,26583,0,"23.wav",100
Sample,26666,0,"45.wav",100
Sample,26750,0,"14.wav",100
Sample,26750,0,"46.wav",100
Sample,26833,0,"45.wav",100
Sample,26833,0,"16h.wav",100
Sample,26916,0,"24.wav",100
Sample,26916,0,"46.wav",100
Sample,27000,0,"51h.wav",100
Sample,27000,0,"44.wav",100
Sample,27083,0,"15.wav",100
Sample,27166,0,"21.wav",100
Sample,27166,0,"46.wav",100
Sample,27250,0,"25.wav",100
Sample,27333,0,"45.wav",100
Sample,27416,0,"06h.wav",100
Sample,27500,0,"46.wav",100
Sample,27500,0,"22.wav",100
Sample,27583,0,"22.wav",100
Sample,27666,0,"32.wav",100
Sample,27666,0,"36.wav",100
Sample,27750,0,"06h.wav",100
Sample,27833,0,"44.wav",100
Sample,27833,0,"16h.wav",100
Sample,27833,0,"42.wav",100
Sample,27916,0,"22.wav",100
Sample,28000,0,"43.wav",100
Sample,28083,0,"11.wav",100
Sample,28083,0,"44.wav",100
Sample,28166,0,"43.wav",100
Sample,28166,0,"16h.wav",100
Sample,28250,0,"23.wav",100
Sample,28333,0,"41.wav",100
Sample,28333,0,"45.wav",100
Sample,28416,0,"11.wav",100
Sample,28500,0,"21.wav",100
Sample,28500,0,"44.wav",100
Sample,28583,0,"23.wav",100
Sample,28666,0,"43.wav",100
Sample,28750,0,"12.wav",100
Sample,28750,0,"44.wav",100
Sample,28833,0,"43.wav",100
Sample,28833,0,"21.wav",100
Sample,28916,0,"41.wav",100
Sample,28916,0,"24.wav",100
Sample,29000,0,"34.wav",100
Sample,29000,0,"42.wav",100
Sample,29083,0,"12.wav",100
Sample,29166,0,"46.wav",100
Sample,29166,0,"22.wav",100
Sample,29166,0,"44.wav",100
Sample,29250,0,"24.wav",100
Sample,29333,0,"45.wav",100
Sample,29416,0,"12.wav",100
Sample,29416,0,"46.wav",100
Sample,29500,0,"45.wav",100
Sample,29500,0,"22.wav",100
Sample,29583,0,"46.wav",100
Sample,29583,0,"24.wav",100
Sample,29666,0,"44.wav",100
Sample,29666,0,"51.wav",100
Sample,29750,0,"12.wav",100
Sample,29833,0,"22.wav",100
Sample,29833,0,"46.wav",100
Sample,29916,0,"24.wav",100
Sample,30000,0,"45.wav",100
Sample,30083,0,"05.wav",100
Sample,30166,0,"46.wav",100
Sample,30166,0,"22.wav",100
Sample,30250,0,"16h.wav",100
Sample,30333,0,"45.wav",100
Sample,30333,0,"36h.wav",100
Sample,30333,0,"42.wav",100
Sample,30416,0,"05.wav",100
Sample,30500,0,"15.wav",100
Sample,30500,0,"36h.wav",100
Sample,30583,0,"16h.wav",100
Sample,30583,0,"42.wav",100
Sample,30666,0,"45.wav",100
Sample,30750,0,"06.wav",100
Sample,30750,0,"36h.wav",100
Sample,30833,0,"42.wav",100
Sample,30833,0,"15.wav",100
Sample,30916,0,"21.wav",100
Sample,30916,0,"45.wav",100
Sample,31000,0,"41.wav",100
Sample,31000,0,"46.wav",100
Sample,31000,0,"44.wav",100
Sample,31083,0,"06.wav",100
Sample,31166,0,"16.wav",100
Sample,31166,0,"41.wav",100
Sample,31250,0,"44.wav",100
Sample,31250,0,"46.wav",100
Sample,31250,0,"21.wav",100
Sample,31333,0,"41.wav",100
Sample,31416,0,"06h.wav",100
Sample,31500,0,"16.wav",100
Sample,31500,0,"44.wav",100
Sample,31500,0,"46.wav",100
Sample,31583,0,"22.wav",100
Sample,31666,0,"46h.wav",100
Sample,31666,0,"44.wav",100
Sample,31750,0,"06h.wav",100
Sample,31833,0,"16h.wav",100
Sample,31833,0,"42.wav",100
Sample,31916,0,"22.wav",100
Sample,32000,0,"47.wav",100
Sample,32000,0,"44.wav",100
Sample,32083,0,"11.wav",100
Sample,32166,0,"42.wav",100
Sample,32166,0,"16h.wav",100
Sample,32250,0,"23.wav",100
Sample,32333,0,"41.wav",100
Sample,32333,0,"43.wav",100
Sample,32333,0,"51.wav",100
Sample,32333,0,"45.wav",100
Sample,32416,0,"11.wav",100
Sample,32500,0,"21.wav",100
Sample,32583,0,"23.wav",100
Sample,32833,0,"21.wav",100
Sample,32999,0,"30.wav",100
Sample,32999,0,"32h.wav",100
Sample,32999,0,"36h.wav",100
Sample,32999,0,"30.wav",100
Sample,33156,0,"44h.wav",100
Sample,33156,0,"42h.wav",100
Sample,33314,0,"44.wav",100
Sample,33393,0,"44h.wav",100
Sample,33472,0,"44.wav",100
Sample,33630,0,"45h.wav",100
Sample,33630,0,"41h.wav",100
Sample,33788,0,"44h.wav",100
Sample,33946,0,"44.wav",100
Sample,34025,0,"44h.wav",100
Sample,34104,0,"44.wav",100
Sample,34183,0,"41h.wav",100
Sample,34262,0,"42h.wav",100
Sample,34262,0,"34h.wav",100
Sample,34420,0,"44h.wav",100
Sample,34420,0,"46h.wav",100
Sample,34577,0,"45h.wav",100
Sample,34656,0,"46h.wav",100
Sample,34735,0,"45h.wav",100
Sample,34814,0,"46h.wav",100
Sample,34893,0,"44h.wav",100
Sample,34893,0,"51h.wav",100
Sample,35051,0,"46h.wav",100
Sample,35209,0,"45h.wav",100
Sample,35367,0,"46h.wav",100
Sample,35525,0,"36h.wav",100
Sample,35525,0,"32h.wav",100
Sample,35683,0,"44h.wav",100
Sample,35683,0,"42h.wav",100
Sample,35841,0,"44.wav",100
Sample,35920,0,"44h.wav",100
Sample,35999,0,"44.wav",100
Sample,36156,0,"45h.wav",100
Sample,36156,0,"41h.wav",100
Sample,36314,0,"44h.wav",100
Sample,36472,0,"44.wav",100
Sample,36551,0,"44h.wav",100
Sample,36630,0,"44.wav",100
Sample,36709,0,"41h.wav",100
Sample,36788,0,"34h.wav",100
Sample,36788,0,"42h.wav",100
Sample,36946,0,"46h.wav",100
Sample,36946,0,"44h.wav",100
Sample,37104,0,"45h.wav",100
Sample,37183,0,"46h.wav",100
Sample,37262,0,"45h.wav",100
Sample,37341,0,"46h.wav",100
Sample,37420,0,"44h.wav",100
Sample,37420,0,"52.wav",100
Sample,37578,0,"46h.wav",100
Sample,37735,0,"45h.wav",100
Sample,37893,0,"46h.wav",100
Sample,38051,0,"32h.wav",100
Sample,38051,0,"36h.wav",100
Sample,38209,0,"44h.wav",100
Sample,38209,0,"42h.wav",100
Sample,38367,0,"44.wav",100
Sample,38446,0,"44h.wav",100
Sample,38525,0,"44.wav",100
Sample,38683,0,"41h.wav",100
Sample,38683,0,"45h.wav",100
Sample,38841,0,"44h.wav",100
Sample,38999,0,"44.wav",100
Sample,39078,0,"44h.wav",100
Sample,39157,0,"44.wav",100
Sample,39235,0,"41h.wav",100
Sample,39314,0,"34h.wav",100
Sample,39314,0,"42h.wav",100
Sample,39472,0,"46h.wav",100
Sample,39472,0,"44h.wav",100
Sample,39630,0,"45h.wav",100
Sample,39709,0,"46h.wav",100
Sample,39788,0,"45h.wav",100
Sample,39867,0,"46h.wav",100
Sample,39946,0,"51h.wav",100
Sample,39946,0,"44h.wav",100
Sample,40104,0,"46h.wav",100
Sample,40262,0,"45h.wav",100
Sample,40420,0,"46h.wav",100
Sample,40578,0,"37.wav",100
Sample,40578,0,"42h.wav",100
Sample,40578,0,"45h.wav",100
Sample,40736,0,"37.wav",100
Sample,40814,0,"42h.wav",100
Sample,40893,0,"45h.wav",100
Sample,40972,0,"37.wav",100
Sample,41051,0,"42h.wav",100
Sample,41130,0,"45h.wav",100
Sample,41209,0,"44h.wav",100
Sample,41209,0,"46h.wav",100
Sample,41209,0,"41h.wav",100
Sample,41367,0,"41h.wav",100
Sample,41446,0,"44h.wav",100
Sample,41446,0,"46h.wav",100
Sample,41525,0,"41h.wav",100
Sample,41683,0,"46h.wav",100
Sample,41683,0,"44h.wav",100
Sample,41841,0,"44h.wav",100
Sample,41841,0,"47.wav",100
Sample,41999,0,"42h.wav",100
Sample,42157,0,"44h.wav",100
Sample,42157,0,"51.wav",100
Sample,42315,0,"42h.wav",100
Sample,42472,0,"41h.wav",100
Sample,42472,0,"45h.wav",100
Sample,42472,0,"51h.wav",100
Sample,42472,0,"44.wav",100
Sample,43104,0,"37.wav",100
Sample,43254,0,"45.wav",100
Sample,43404,0,"44h.wav",100
Sample,43479,0,"45.wav",100
Sample,43554,0,"44h.wav",100
Sample,43704,0,"46.wav",100
Sample,43854,0,"45.wav",100
Sample,44004,0,"44h.wav",100
Sample,44079,0,"45.wav",100
Sample,44154,0,"44h.wav",100
Sample,44229,0,"42.wav",100
Sample,44304,0,"43.wav",100
Sample,44454,0,"47.wav",100
Sample,44604,0,"46.wav",100
Sample,44679,0,"47.wav",100
Sample,44754,0,"46.wav",100
Sample,44829,0,"47.wav",100
Sample,44904,0,"52.wav",100
Sample,45054,0,"47.wav",100
Sample,45204,0,"46.wav",100
Sample,45354,0,"47.wav",100
Sample,45504,0,"37.wav",100
Sample,45654,0,"45.wav",100
Sample,45804,0,"44h.wav",100
Sample,45879,0,"45.wav",100
Sample,45954,0,"44h.wav",100
Sample,46104,0,"46.wav",100
Sample,46254,0,"45.wav",100
Sample,46404,0,"44h.wav",100
Sample,46479,0,"45.wav",100
Sample,46554,0,"44h.wav",100
Sample,46629,0,"42.wav",100
Sample,46704,0,"43.wav",100
Sample,46854,0,"47.wav",100
Sample,47004,0,"46.wav",100
Sample,47079,0,"47.wav",100
Sample,47154,0,"46.wav",100
Sample,47229,0,"47.wav",100
Sample,47304,0,"52h.wav",100
Sample,47454,0,"47.wav",100
Sample,47604,0,"46.wav",100
Sample,47754,0,"47.wav",100
Sample,47904,0,"37.wav",100
Sample,48054,0,"45.wav",100
Sample,48204,0,"44h.wav",100
Sample,48279,0,"45.wav",100
Sample,48354,0,"44h.wav",100
Sample,48504,0,"46.wav",100
Sample,48654,0,"45.wav",100
Sample,48804,0,"44h.wav",100
Sample,48879,0,"45.wav",100
Sample,48954,0,"44h.wav",100
Sample,49029,0,"42.wav",100
Sample,49104,0,"43.wav",100
Sample,49254,0,"47.wav",100
Sample,49404,0,"46.wav",100
Sample,49479,0,"47.wav",100
Sample,49554,0,"46.wav",100
Sample,49629,0,"47.wav",100
Sample,49704,0,"52.wav",100
Sample,49854,0,"47.wav",100
Sample,50004,0,"46.wav",100
Sample,50154,0,"47.wav",100
Sample,50304,0,"46.wav",100
Sample,50454,0,"41.wav",100
Sample,50529,0,"43.wav",100
Sample,50604,0,"46.wav",100
Sample,50679,0,"41.wav",100
Sample,50754,0,"43.wav",100
Sample,50829,0,"46.wav",100
Sample,50904,0,"47.wav",100
Sample,51054,0,"42.wav",100
Sample,51129,0,"47.wav",100
Sample,51204,0,"42.wav",100
Sample,51354,0,"47.wav",100
Sample,51504,0,"51.wav",100
Sample,51654,0,"43.wav",100
Sample,51804,0,"51h.wav",100
Sample,51954,0,"43.wav",100
Sample,52104,0,"52.wav",100
Sample,52704,0,"37.wav",100
Sample,52846,0,"45.wav",100
Sample,52989,0,"44h.wav",100
Sample,53061,0,"45.wav",100
Sample,53132,0,"44h.wav",100
Sample,53275,0,"46.wav",100
Sample,53418,0,"45.wav",100
Sample,53561,0,"44h.wav",100
Sample,53632,0,"45.wav",100
Sample,53704,0,"44h.wav",100
Sample,53775,0,"42.wav",100
Sample,53846,0,"43.wav",100
Sample,53989,0,"47.wav",100
Sample,54132,0,"46.wav",100
Sample,54204,0,"47.wav",100
Sample,54275,0,"46.wav",100
Sample,54346,0,"47.wav",100
Sample,54418,0,"52.wav",100
Sample,54561,0,"47.wav",100
Sample,54704,0,"46.wav",100
Sample,54846,0,"47.wav",100
Sample,54989,0,"37.wav",100
Sample,55132,0,"45.wav",100
Sample,55275,0,"44h.wav",100
Sample,55346,0,"45.wav",100
Sample,55418,0,"44h.wav",100
Sample,55561,0,"46.wav",100
Sample,55704,0,"45.wav",100
Sample,55846,0,"44h.wav",100
Sample,55918,0,"45.wav",100
Sample,55989,0,"44h.wav",100
Sample,56061,0,"42.wav",100
Sample,56132,0,"43.wav",100
Sample,56275,0,"47.wav",100
Sample,56418,0,"46.wav",100
Sample,56489,0,"47.wav",100
Sample,56561,0,"46.wav",100
Sample,56632,0,"47.wav",100
Sample,56704,0,"52h.wav",100
Sample,56846,0,"47.wav",100
Sample,56989,0,"46.wav",100
Sample,57132,0,"47.wav",100
Sample,57275,0,"37.wav",100
Sample,57418,0,"45.wav",100
Sample,57561,0,"44h.wav",100
Sample,57632,0,"45.wav",100
Sample,57704,0,"44h.wav",100
Sample,57846,0,"46.wav",100
Sample,57989,0,"45.wav",100
Sample,58132,0,"44h.wav",100
Sample,58204,0,"45.wav",100
Sample,58275,0,"44h.wav",100
Sample,58346,0,"42.wav",100
Sample,58418,0,"43.wav",100
Sample,58561,0,"47.wav",100
Sample,58704,0,"46.wav",100
Sample,58775,0,"47.wav",100
Sample,58846,0,"46.wav",100
Sample,58918,0,"47.wav",100
Sample,58989,0,"52.wav",100
Sample,59132,0,"47.wav",100
Sample,59275,0,"46.wav",100
Sample,59418,0,"47.wav",100
Sample,59561,0,"46.wav",100
Sample,59704,0,"41.wav",100
Sample,59775,0,"43.wav",100
Sample,59846,0,"46.wav",100
Sample,59918,0,"41.wav",100
Sample,59989,0,"43.wav",100
Sample,60061,0,"46.wav",100
Sample,60132,0,"47.wav",100
Sample,60275,0,"42.wav",100
Sample,60346,0,"47.wav",100
Sample,60418,0,"42.wav",100
Sample,60561,0,"47.wav",100
Sample,60704,0,"51.wav",100
Sample,60846,0,"43.wav",100
Sample,60989,0,"51h.wav",100
Sample,61132,0,"43.wav",100
Sample,61275,0,"52.wav",100
Sample,61846,0,"41.wav",100
Sample,61982,0,"45h.wav",100
Sample,62118,0,"45.wav",100
Sample,62186,0,"45h.wav",100
Sample,62255,0,"45.wav",100
Sample,62391,0,"46h.wav",100
Sample,62527,0,"45h.wav",100
Sample,62664,0,"45.wav",100
Sample,62732,0,"45h.wav",100
Sample,62800,0,"45.wav",100
Sample,62868,0,"42h.wav",100
Sample,62936,0,"44.wav",100
Sample,63073,0,"51.wav",100
Sample,63209,0,"46h.wav",100
Sample,63277,0,"51.wav",100
Sample,63346,0,"46h.wav",100
Sample,63414,0,"51.wav",100
Sample,63482,0,"52h.wav",100
Sample,63618,0,"51.wav",100
Sample,63755,0,"46h.wav",100
Sample,63891,0,"51.wav",100
Sample,64027,0,"41.wav",100
Sample,64164,0,"45h.wav",100
Sample,64300,0,"45.wav",100
Sample,64368,0,"45h.wav",100
Sample,64436,0,"45.wav",100
Sample,64573,0,"46h.wav",100
Sample,64709,0,"45h.wav",100
Sample,64846,0,"45.wav",100
Sample,64914,0,"45h.wav",100
Sample,64982,0,"45.wav",100
Sample,65050,0,"42h.wav",100
Sample,65118,0,"44.wav",100
Sample,65255,0,"51.wav",100
Sample,65391,0,"46h.wav",100
Sample,65459,0,"51.wav",100
Sample,65527,0,"46h.wav",100
Sample,65596,0,"51.wav",100
Sample,65664,0,"53.wav",100
Sample,65800,0,"51.wav",100
Sample,65936,0,"46h.wav",100
Sample,66073,0,"51.wav",100
Sample,66209,0,"41.wav",100
Sample,66346,0,"45h.wav",100
Sample,66482,0,"45.wav",100
Sample,66550,0,"45h.wav",100
Sample,66618,0,"45.wav",100
Sample,66755,0,"46h.wav",100
Sample,66891,0,"45h.wav",100
Sample,67027,0,"45.wav",100
Sample,67096,0,"45h.wav",100
Sample,67164,0,"45.wav",100
Sample,67232,0,"42h.wav",100
Sample,67300,0,"44.wav",100
Sample,67436,0,"51.wav",100
Sample,67573,0,"46h.wav",100
Sample,67641,0,"51.wav",100
Sample,67709,0,"46h.wav",100
Sample,67777,0,"51.wav",100
Sample,67846,0,"52h.wav",100
Sample,67982,0,"51.wav",100
Sample,68118,0,"46h.wav",100
Sample,68255,0,"51.wav",100
Sample,68391,0,"46h.wav",100
Sample,68527,0,"41h.wav",100
Sample,68596,0,"44.wav",100
Sample,68664,0,"46h.wav",100
Sample,68732,0,"41h.wav",100
Sample,68800,0,"44.wav",100
Sample,68868,0,"46h.wav",100
Sample,68936,0,"51.wav",100
Sample,69073,0,"42h.wav",100
Sample,69141,0,"51.wav",100
Sample,69209,0,"42h.wav",100
Sample,69345,0,"51.wav",100
Sample,69482,0,"51h.wav",100
Sample,69618,0,"44.wav",100
Sample,69755,0,"52.wav",100
Sample,69891,0,"44.wav",100
Sample,70027,0,"52h.wav",100
Sample,70573,0,"41h.wav",100
Sample,70703,0,"46.wav",100
Sample,70833,0,"45h.wav",100
Sample,70899,0,"46.wav",100
Sample,70964,0,"45h.wav",100
Sample,71094,0,"47.wav",100
Sample,71225,0,"46.wav",100
Sample,71355,0,"45h.wav",100
Sample,71420,0,"46.wav",100
Sample,71486,0,"45h.wav",100
Sample,71551,0,"43.wav",100
Sample,71616,0,"44h.wav",100
Sample,71746,0,"51h.wav",100
Sample,71877,0,"47.wav",100
Sample,71942,0,"51h.wav",100
Sample,72007,0,"47.wav",100
Sample,72073,0,"51h.wav",100
Sample,72138,0,"53.wav",100
Sample,72268,0,"51h.wav",100
Sample,72399,0,"47.wav",100
Sample,72529,0,"51h.wav",100
Sample,72660,0,"41h.wav",100
Sample,72790,0,"46.wav",100
Sample,72920,0,"45h.wav",100
Sample,72986,0,"46.wav",100
Sample,73051,0,"45h.wav",100
Sample,73181,0,"47.wav",100
Sample,73312,0,"46.wav",100
Sample,73442,0,"45h.wav",100
Sample,73507,0,"46.wav",100
Sample,73573,0,"45h.wav",100
Sample,73638,0,"43.wav",100
Sample,73703,0,"44h.wav",100
Sample,73833,0,"51h.wav",100
Sample,73964,0,"47.wav",100
Sample,74029,0,"51h.wav",100
Sample,74094,0,"47.wav",100
Sample,74160,0,"51h.wav",100
Sample,74225,0,"54.wav",100
Sample,74355,0,"51h.wav",100
Sample,74486,0,"47.wav",100
Sample,74616,0,"51h.wav",100
Sample,74747,0,"41h.wav",100
Sample,74877,0,"46.wav",100
Sample,75007,0,"45h.wav",100
Sample,75073,0,"46.wav",100
Sample,75138,0,"45h.wav",100
Sample,75268,0,"47.wav",100
Sample,75399,0,"46.wav",100
Sample,75529,0,"45h.wav",100
Sample,75594,0,"46.wav",100
Sample,75660,0,"45h.wav",100
Sample,75725,0,"43.wav",100
Sample,75790,0,"44h.wav",100
Sample,75920,0,"51h.wav",100
Sample,76051,0,"47.wav",100
Sample,76116,0,"51h.wav",100
Sample,76181,0,"47.wav",100
Sample,76247,0,"51h.wav",100
Sample,76312,0,"53.wav",100
Sample,76442,0,"51h.wav",100
Sample,76573,0,"47.wav",100
Sample,76703,0,"51h.wav",100
Sample,76834,0,"47.wav",100
Sample,76964,0,"42.wav",100
Sample,77029,0,"44h.wav",100
Sample,77094,0,"47.wav",100
Sample,77160,0,"42.wav",100
Sample,77225,0,"44h.wav",100
Sample,77290,0,"47.wav",100
Sample,77355,0,"51h.wav",100
Sample,77486,0,"43.wav",100
Sample,77551,0,"51h.wav",100
Sample,77616,0,"43.wav",100
Sample,77747,0,"51h.wav",100
Sample,77877,0,"52.wav",100
Sample,78007,0,"44h.wav",100
Sample,78138,0,"52h.wav",100
Sample,78268,0,"44h.wav",100
Sample,78399,0,"53.wav",100
Sample,78920,0,"42.wav",100
Sample,79045,0,"46h.wav",100
Sample,79170,0,"46.wav",100
Sample,79232,0,"46h.wav",100
Sample,79295,0,"46.wav",100
Sample,79420,0,"51.wav",100
Sample,79545,0,"46h.wav",100
Sample,79670,0,"46.wav",100
Sample,79732,0,"46h.wav",100
Sample,79795,0,"46.wav",100
Sample,79857,0,"44.wav",100
Sample,79920,0,"45.wav",100
Sample,80045,0,"52.wav",100
Sample,80170,0,"51.wav",100
Sample,80232,0,"52.wav",100
Sample,80295,0,"51.wav",100
Sample,80357,0,"52.wav",100
Sample,80420,0,"54.wav",100
Sample,80545,0,"52.wav",100
Sample,80670,0,"51.wav",100
Sample,80795,0,"52.wav",100
Sample,80920,0,"42.wav",100
Sample,81045,0,"46h.wav",100
Sample,81170,0,"46.wav",100
Sample,81232,0,"46h.wav",100
Sample,81295,0,"46.wav",100
Sample,81420,0,"51.wav",100
Sample,81545,0,"46h.wav",100
Sample,81670,0,"46.wav",100
Sample,81732,0,"46h.wav",100
Sample,81795,0,"46.wav",100
Sample,81857,0,"44.wav",100
Sample,81920,0,"45.wav",100
Sample,82045,0,"52.wav",100
Sample,82170,0,"51.wav",100
Sample,82232,0,"52.wav",100
Sample,82295,0,"51.wav",100
Sample,82357,0,"52.wav",100
Sample,82420,0,"54h.wav",100
Sample,82545,0,"52.wav",100
Sample,82670,0,"51.wav",100
Sample,82795,0,"52.wav",100
Sample,82920,0,"42.wav",100
Sample,83045,0,"46h.wav",100
Sample,83170,0,"46.wav",100
Sample,83232,0,"46h.wav",100
Sample,83295,0,"46.wav",100
Sample,83420,0,"51.wav",100
Sample,83545,0,"46h.wav",100
Sample,83670,0,"46.wav",100
Sample,83732,0,"46h.wav",100
Sample,83795,0,"46.wav",100
Sample,83857,0,"44.wav",100
Sample,83920,0,"45.wav",100
Sample,84045,0,"52.wav",100
Sample,84170,0,"51.wav",100
Sample,84232,0,"52.wav",100
Sample,84295,0,"51.wav",100
Sample,84357,0,"52.wav",100
Sample,84420,0,"54.wav",100
Sample,84545,0,"52.wav",100
Sample,84670,0,"51.wav",100
Sample,84795,0,"52.wav",100
Sample,84920,0,"51.wav",100
Sample,85045,0,"42h.wav",100
Sample,85107,0,"45.wav",100
Sample,85170,0,"51.wav",100
Sample,85232,0,"42h.wav",100
Sample,85295,0,"45.wav",100
Sample,85357,0,"51.wav",100
Sample,85420,0,"52.wav",100
Sample,85545,0,"44.wav",100
Sample,85607,0,"52.wav",100
Sample,85670,0,"44.wav",100
Sample,85795,0,"52.wav",100
Sample,85920,0,"52h.wav",100
Sample,86045,0,"45.wav",100
Sample,86170,0,"53.wav",100
Sample,86295,0,"45.wav",100
Sample,86420,0,"54.wav",100
Sample,86920,0,"42h.wav",100
Sample,87040,0,"47.wav",100
Sample,87160,0,"46h.wav",100
Sample,87220,0,"47.wav",100
Sample,87280,0,"46h.wav",100
Sample,87400,0,"51h.wav",100
Sample,87520,0,"47.wav",100
Sample,87640,0,"46h.wav",100
Sample,87700,0,"47.wav",100
Sample,87760,0,"46h.wav",100
Sample,87820,0,"44h.wav",100
Sample,87880,0,"45h.wav",100
Sample,88000,0,"52h.wav",100
Sample,88120,0,"51h.wav",100
Sample,88180,0,"52h.wav",100
Sample,88240,0,"51h.wav",100
Sample,88300,0,"52h.wav",100
Sample,88360,0,"54h.wav",100
Sample,88480,0,"52h.wav",100
Sample,88600,0,"51h.wav",100
Sample,88720,0,"52h.wav",100
Sample,88840,0,"42h.wav",100
Sample,88960,0,"47.wav",100
Sample,89080,0,"46h.wav",100
Sample,89140,0,"47.wav",100
Sample,89200,0,"46h.wav",100
Sample,89320,0,"51h.wav",100
Sample,89440,0,"47.wav",100
Sample,89560,0,"46h.wav",100
Sample,89620,0,"47.wav",100
Sample,89680,0,"46h.wav",100
Sample,89740,0,"44h.wav",100
Sample,89800,0,"45h.wav",100
Sample,89920,0,"52h.wav",100
Sample,90040,0,"51h.wav",100
Sample,90100,0,"52h.wav",100
Sample,90160,0,"51h.wav",100
Sample,90220,0,"52h.wav",100
Sample,90280,0,"55.wav",100
Sample,90400,0,"52h.wav",100
Sample,90520,0,"51h.wav",100
Sample,90640,0,"52h.wav",100
Sample,90760,0,"42h.wav",100
Sample,90880,0,"47.wav",100
Sample,91000,0,"46h.wav",100
Sample,91060,0,"47.wav",100
Sample,91120,0,"46h.wav",100
Sample,91240,0,"51h.wav",100
Sample,91360,0,"47.wav",100
Sample,91480,0,"46h.wav",100
Sample,91540,0,"47.wav",100
Sample,91600,0,"46h.wav",100
Sample,91660,0,"44h.wav",100
Sample,91720,0,"45h.wav",100
Sample,91840,0,"52h.wav",100
Sample,91960,0,"51h.wav",100
Sample,92020,0,"52h.wav",100
Sample,92080,0,"51h.wav",100
Sample,92140,0,"52h.wav",100
Sample,92200,0,"54h.wav",100
Sample,92320,0,"52h.wav",100
Sample,92440,0,"51h.wav",100
Sample,92560,0,"52h.wav",100
Sample,92680,0,"51h.wav",100
Sample,92800,0,"43.wav",100
Sample,92860,0,"45h.wav",100
Sample,92920,0,"51h.wav",100
Sample,92980,0,"43.wav",100
Sample,93040,0,"45h.wav",100
Sample,93100,0,"51h.wav",100
Sample,93160,0,"52h.wav",100
Sample,93280,0,"44h.wav",100
Sample,93340,0,"52h.wav",100
Sample,93400,0,"44h.wav",100
Sample,93520,0,"52h.wav",100
Sample,93640,0,"53.wav",100
Sample,93760,0,"45h.wav",100
Sample,93880,0,"54.wav",100
Sample,94000,0,"45h.wav",100
Sample,94120,0,"54h.wav",100
Sample,94600,0,"43.wav",100
Sample,94715,0,"51.wav",100
Sample,94830,0,"47.wav",100
Sample,94888,0,"51.wav",100
Sample,94946,0,"47.wav",100
Sample,95061,0,"52.wav",100
Sample,95176,0,"51.wav",100
Sample,95292,0,"47.wav",100
Sample,95350,0,"51.wav",100
Sample,95407,0,"47.wav",100
Sample,95465,0,"45.wav",100
Sample,95523,0,"46.wav",100
Sample,95638,0,"53.wav",100
Sample,95753,0,"52.wav",100
Sample,95811,0,"53.wav",100
Sample,95869,0,"52.wav",100
Sample,95926,0,"53.wav",100
Sample,95984,0,"55.wav",100
Sample,96100,0,"53.wav",100
Sample,96215,0,"52.wav",100
Sample,96330,0,"53.wav",100
Sample,96446,0,"43.wav",100
Sample,96561,0,"51.wav",100
Sample,96677,0,"47.wav",100
Sample,96734,0,"51.wav",100
Sample,96792,0,"47.wav",100
Sample,96907,0,"52.wav",100
Sample,97023,0,"51.wav",100
Sample,97138,0,"47.wav",100
Sample,97196,0,"51.wav",100
Sample,97253,0,"47.wav",100
Sample,97311,0,"45.wav",100
Sample,97369,0,"46.wav",100
Sample,97484,0,"53.wav",100
Sample,97600,0,"52.wav",100
Sample,97657,0,"53.wav",100
Sample,97715,0,"52.wav",100
Sample,97773,0,"53.wav",100
Sample,97830,0,"55h.wav",100
Sample,97946,0,"53.wav",100
Sample,98061,0,"52.wav",100
Sample,98177,0,"53.wav",100
Sample,98292,0,"43.wav",100
Sample,98407,0,"51.wav",100
Sample,98523,0,"47.wav",100
Sample,98580,0,"51.wav",100
Sample,98638,0,"47.wav",100
Sample,98754,0,"52.wav",100
Sample,98869,0,"51.wav",100
Sample,98984,0,"47.wav",100
Sample,99042,0,"51.wav",100
Sample,99100,0,"47.wav",100
Sample,99157,0,"45.wav",100
Sample,99215,0,"46.wav",100
Sample,99331,0,"53.wav",100
Sample,99446,0,"52.wav",100
Sample,99504,0,"53.wav",100
Sample,99561,0,"52.wav",100
Sample,99619,0,"53.wav",100
Sample,99677,0,"55.wav",100
Sample,99792,0,"53.wav",100
Sample,99907,0,"52.wav",100
Sample,100023,0,"53.wav",100
Sample,100138,0,"52.wav",100
Sample,100254,0,"44.wav",100
Sample,100311,0,"46.wav",100
Sample,100369,0,"52.wav",100
Sample,100427,0,"44.wav",100
Sample,100484,0,"46.wav",100
Sample,100542,0,"52.wav",100
Sample,100600,0,"53.wav",100
Sample,100715,0,"45.wav",100
Sample,100773,0,"53.wav",100
Sample,100831,0,"45.wav",100
Sample,100946,0,"53.wav",100
Sample,101061,0,"54.wav",100
Sample,101177,0,"46.wav",100
Sample,101292,0,"54h.wav",100
Sample,101408,0,"46.wav",100
Sample,101523,0,"55.wav",100
Sample,101984,0,"44.wav",100
Sample,102095,0,"51h.wav",100
Sample,102206,0,"51.wav",100
Sample,102261,0,"51h.wav",100
Sample,102317,0,"51.wav",100
Sample,102428,0,"52h.wav",100
Sample,102539,0,"51h.wav",100
Sample,102650,0,"51.wav",100
Sample,102706,0,"51h.wav",100
Sample,102761,0,"51.wav",100
Sample,102817,0,"45h.wav",100
Sample,102872,0,"46h.wav",100
Sample,102983,0,"54.wav",100
Sample,103095,0,"52h.wav",100
Sample,103150,0,"54.wav",100
Sample,103206,0,"52h.wav",100
Sample,103261,0,"54.wav",100
Sample,103317,0,"55h.wav",100
Sample,103428,0,"54.wav",100
Sample,103539,0,"52h.wav",100
Sample,103650,0,"54.wav",100
Sample,103761,0,"44.wav",100
Sample,103872,0,"51h.wav",100
Sample,103983,0,"51.wav",100
Sample,104039,0,"51h.wav",100
Sample,104095,0,"51.wav",100
Sample,104206,0,"52h.wav",100
Sample,104317,0,"51h.wav",100
Sample,104428,0,"51.wav",100
Sample,104483,0,"51h.wav",100
Sample,104539,0,"51.wav",100
Sample,104595,0,"45h.wav",100
Sample,104650,0,"46h.wav",100
Sample,104761,0,"54.wav",100
Sample,104872,0,"52h.wav",100
Sample,104928,0,"54.wav",100
Sample,104983,0,"52h.wav",100
Sample,105039,0,"54.wav",100
Sample,105095,0,"56.wav",100
Sample,105206,0,"54.wav",100
Sample,105317,0,"52h.wav",100
Sample,105428,0,"54.wav",100
Sample,105539,0,"44.wav",100
Sample,105650,0,"51h.wav",100
Sample,105761,0,"51.wav",100
Sample,105817,0,"51h.wav",100
Sample,105872,0,"51.wav",100
Sample,105983,0,"52h.wav",100
Sample,106095,0,"51h.wav",100
Sample,106206,0,"51.wav",100
Sample,106261,0,"51h.wav",100
Sample,106317,0,"51.wav",100
Sample,106372,0,"45h.wav",100
Sample,106428,0,"46h.wav",100
Sample,106539,0,"54.wav",100
Sample,106650,0,"52h.wav",100
Sample,106706,0,"54.wav",100
Sample,106761,0,"52h.wav",100
Sample,106817,0,"54.wav",100
Sample,106872,0,"55h.wav",100
Sample,106983,0,"54.wav",100
Sample,107095,0,"52h.wav",100
Sample,107206,0,"54.wav",100
Sample,107317,0,"52h.wav",100
Sample,107428,0,"44h.wav",100
Sample,107483,0,"46h.wav",100
Sample,107539,0,"52h.wav",100
Sample,107595,0,"44h.wav",100
Sample,107650,0,"46h.wav",100
Sample,107706,0,"52h.wav",100
Sample,107761,0,"54.wav",100
Sample,107872,0,"45h.wav",100
Sample,107928,0,"54.wav",100
Sample,107983,0,"45h.wav",100
Sample,108095,0,"54.wav",100
Sample,108206,0,"54h.wav",100
Sample,108317,0,"46h.wav",100
Sample,108428,0,"55.wav",100
Sample,108539,0,"46h.wav",100
Sample,108650,0,"55h.wav",100
Sample,109095,0,"44h.wav",100
Sample,109202,0,"52.wav",100
Sample,109309,0,"51h.wav",100
Sample,109362,0,"52.wav",100
Sample,109416,0,"51h.wav",100
Sample,109523,0,"53.wav",100
Sample,109630,0,"52.wav",100
Sample,109737,0,"51h.wav",100
Sample,109791,0,"52.wav",100
Sample,109844,0,"51h.wav",100
Sample,109898,0,"46.wav",100
Sample,109952,0,"47.wav",100
Sample,110059,0,"54h.wav",100
Sample,110166,0,"53.wav",100
Sample,110219,0,"54h.wav",100
Sample,110273,0,"53.wav",100
Sample,110327,0,"54h.wav",100
Sample,110380,0,"56.wav",100
Sample,110487,0,"54h.wav",100
Sample,110594,0,"53.wav",100
Sample,110702,0,"54h.wav",100
Sample,110809,0,"44h.wav",100
Sample,110916,0,"52.wav",100
Sample,111023,0,"51h.wav",100
Sample,111077,0,"52.wav",100
Sample,111130,0,"51h.wav",100
Sample,111237,0,"53.wav",100
Sample,111344,0,"52.wav",100
Sample,111452,0,"51h.wav",100
Sample,111505,0,"52.wav",100
Sample,111559,0,"51h.wav",100
Sample,111612,0,"46.wav",100
Sample,111666,0,"47.wav",100
Sample,111773,0,"54h.wav",100
Sample,111880,0,"53.wav",100
Sample,111934,0,"54h.wav",100
Sample,111987,0,"53.wav",100
Sample,112041,0,"54h.wav",100
Sample,112094,0,"56h.wav",100
Sample,112202,0,"54h.wav",100
Sample,112309,0,"53.wav",100
Sample,112416,0,"54h.wav",100
Sample,112523,0,"44h.wav",100
Sample,112630,0,"52.wav",100
Sample,112737,0,"51h.wav",100
Sample,112791,0,"52.wav",100
Sample,112844,0,"51h.wav",100
Sample,112952,0,"53.wav",100
Sample,113059,0,"52.wav",100
Sample,113166,0,"51h.wav",100
Sample,113219,0,"52.wav",100
Sample,113273,0,"51h.wav",100
Sample,113327,0,"46.wav",100
Sample,113380,0,"47.wav",100
Sample,113487,0,"54h.wav",100
Sample,113594,0,"53.wav",100
Sample,113648,0,"54h.wav",100
Sample,113702,0,"53.wav",100
Sample,113755,0,"54h.wav",100
Sample,113809,0,"56.wav",100
Sample,113916,0,"54h.wav",100
Sample,114023,0,"53.wav",100
Sample,114130,0,"54h.wav",100
Sample,114237,0,"53.wav",100
Sample,114344,0,"45.wav",100
Sample,114398,0,"47.wav",100
Sample,114452,0,"53.wav",100
Sample,114505,0,"45.wav",100
Sample,114559,0,"47.wav",100
Sample,114612,0,"53.wav",100
Sample,114666,0,"54h.wav",100
Sample,114773,0,"46.wav",100
Sample,114827,0,"54h.wav",100
Sample,114880,0,"46.wav",100
Sample,114987,0,"54h.wav",100
Sample,115094,0,"55.wav",100
Sample,115202,0,"47.wav",100
Sample,115309,0,"55h.wav",100
Sample,115416,0,"47.wav",100
Sample,115523,0,"56.wav",100
Sample,115952,0,"45.wav",100
Sample,116055,0,"52h.wav",100
Sample,116158,0,"52.wav",100
Sample,116210,0,"52h.wav",100
Sample,116262,0,"52.wav",100
Sample,116365,0,"54.wav",100
Sample,116469,0,"52h.wav",100
Sample,116572,0,"52.wav",100
Sample,116624,0,"52h.wav",100
Sample,116676,0,"52.wav",100
Sample,116727,0,"46h.wav",100
Sample,116779,0,"51.wav",100
Sample,116883,0,"55.wav",100
Sample,116986,0,"54.wav",100
Sample,117038,0,"55.wav",100
Sample,117089,0,"54.wav",100
Sample,117141,0,"55.wav",100
Sample,117193,0,"56h.wav",100
Sample,117296,0,"55.wav",100
Sample,117400,0,"54.wav",100
Sample,117503,0,"55.wav",100
Sample,117607,0,"45.wav",100
Sample,117710,0,"52h.wav",100
Sample,117814,0,"52.wav",100
Sample,117865,0,"52h.wav",100
Sample,117917,0,"52.wav",100
Sample,118021,0,"54.wav",100
Sample,118124,0,"52h.wav",100
Sample,118227,0,"52.wav",100
Sample,118279,0,"52h.wav",100
Sample,118331,0,"52.wav",100
Sample,118383,0,"46h.wav",100
Sample,118434,0,"51.wav",100
Sample,118538,0,"55.wav",100
Sample,118641,0,"54.wav",100
Sample,118693,0,"55.wav",100
Sample,118745,0,"54.wav",100
Sample,118796,0,"55.wav",100
Sample,118848,0,"57.wav",100
Sample,118952,0,"55.wav",100
Sample,119055,0,"54.wav",100
Sample,119159,0,"55.wav",100
Sample,119262,0,"45.wav",100
Sample,119365,0,"52h.wav",100
Sample,119469,0,"52.wav",100
Sample,119521,0,"52h.wav",100
Sample,119572,0,"52.wav",100
Sample,119676,0,"54.wav",100
Sample,119779,0,"52h.wav",100
Sample,119883,0,"52.wav",100
Sample,119934,0,"52h.wav",100
Sample,119986,0,"52.wav",100
Sample,120038,0,"46h.wav",100
Sample,120090,0,"51.wav",100
Sample,120193,0,"55.wav",100
Sample,120297,0,"54.wav",100
Sample,120348,0,"55.wav",100
Sample,120400,0,"54.wav",100
Sample,120452,0,"55.wav",100
Sample,120503,0,"56h.wav",100
Sample,120607,0,"55.wav",100
Sample,120710,0,"54.wav",100
Sample,120814,0,"55.wav",100
Sample,120917,0,"54.wav",100
Sample,121021,0,"45h.wav",100
Sample,121072,0,"51.wav",100
Sample,121124,0,"54.wav",100
Sample,121176,0,"45h.wav",100
Sample,121228,0,"51.wav",100
Sample,121279,0,"54.wav",100
Sample,121331,0,"55.wav",100
Sample,121435,0,"46h.wav",100
Sample,121486,0,"55.wav",100
Sample,121538,0,"46h.wav",100
Sample,121641,0,"55.wav",100
Sample,121745,0,"55h.wav",100
Sample,121848,0,"51.wav",100
Sample,121952,0,"56.wav",100
Sample,122055,0,"51.wav",100
Sample,122159,0,"56h.wav",100
Sample,122572,0,"45h.wav",100
Sample,122672,0,"53.wav",100
Sample,122772,0,"52h.wav",100
Sample,122822,0,"53.wav",100
Sample,122872,0,"52h.wav",100
Sample,122972,0,"54h.wav",100
Sample,123072,0,"53.wav",100
Sample,123172,0,"52h.wav",100
Sample,123222,0,"53.wav",100
Sample,123272,0,"52h.wav",100
Sample,123322,0,"47.wav",100
Sample,123372,0,"51h.wav",100
Sample,123472,0,"55h.wav",100
Sample,123572,0,"54h.wav",100
Sample,123622,0,"55h.wav",100
Sample,123672,0,"54h.wav",100
Sample,123722,0,"55h.wav",100
Sample,123772,0,"57.wav",100
Sample,123872,0,"55h.wav",100
Sample,123972,0,"54h.wav",100
Sample,124072,0,"55h.wav",100
Sample,124172,0,"45h.wav",100
Sample,124272,0,"53.wav",100
Sample,124372,0,"52h.wav",100
Sample,124422,0,"53.wav",100
Sample,124472,0,"52h.wav",100
Sample,124572,0,"54h.wav",100
Sample,124672,0,"53.wav",100
Sample,124772,0,"52h.wav",100
Sample,124822,0,"53.wav",100
Sample,124872,0,"52h.wav",100
Sample,124922,0,"47.wav",100
Sample,124972,0,"51h.wav",100
Sample,125072,0,"55h.wav",100
Sample,125172,0,"54h.wav",100
Sample,125222,0,"55h.wav",100
Sample,125272,0,"54h.wav",100
Sample,125322,0,"55h.wav",100
Sample,125372,0,"61.wav",100
Sample,125472,0,"55h.wav",100
Sample,125572,0,"54h.wav",100
Sample,125672,0,"55h.wav",100
Sample,125772,0,"45h.wav",100
Sample,125872,0,"53.wav",100
Sample,125972,0,"52h.wav",100
Sample,126022,0,"53.wav",100
Sample,126072,0,"52h.wav",100
Sample,126172,0,"54h.wav",100
Sample,126272,0,"53.wav",100
Sample,126372,0,"52h.wav",100
Sample,126422,0,"53.wav",100
Sample,126472,0,"52h.wav",100
Sample,126522,0,"47.wav",100
Sample,126572,0,"51h.wav",100
Sample,126672,0,"55h.wav",100
Sample,126772,0,"54h.wav",100
Sample,126822,0,"55h.wav",100
Sample,126872,0,"54h.wav",100
Sample,126922,0,"55h.wav",100
Sample,126972,0,"57.wav",100
Sample,127072,0,"55h.wav",100
Sample,127172,0,"54h.wav",100
Sample,127272,0,"55h.wav",100
Sample,127372,0,"54h.wav",100
Sample,127472,0,"46.wav",100
Sample,127522,0,"51h.wav",100
Sample,127572,0,"54h.wav",100
Sample,127622,0,"46.wav",100
Sample,127672,0,"51h.wav",100
Sample,127722,0,"54h.wav",100
Sample,127772,0,"55h.wav",100
Sample,127872,0,"54h.wav",100
Sample,127972,0,"53.wav",100
Sample,128072,0,"52h.wav",100
Sample,128172,0,"51h.wav",100
//Background Colour Transformations
3,100,163,162,255

[TimingPoints]
1000,333.333333333333,4,2,0,100,1,0
10333,-200,4,2,0,100,0,0
11666,-133.333333333333,4,2,0,100,0,0
16999,-111.111111111111,4,2,0,100,0,0
21166,-111.111111111111,4,1,0,20,0,0
22333,-83.3333333333333,4,1,0,19,0,0
24999,-80,4,1,0,35,0,0
32999,315.789473684211,4,1,0,21,1,0
32999,-80,4,2,0,100,0,0
43104,300,4,2,0,100,1,0
43104,-80,4,2,0,100,0,0
52704,285.714285714286,4,2,0,100,1,0
61846,272.727272727273,4,2,0,100,1,0
70573,260.869565217391,4,2,0,100,1,0
78920,250,4,2,0,100,1,0
86920,240,4,2,0,100,1,0
94600,230.769230769231,4,2,0,100,1,0
101984,222.222222222222,4,2,0,100,1,0
109095,214.285714285714,4,2,0,100,1,0
115952,206.896551724138,4,2,0,100,1,0
122572,200,4,2,0,100,1,0

[HitObjects]
256,192,6333,1,2,0:0:0:0:
256,192,7666,1,2,0:0:0:0:
256,192,8999,1,2,0:0:0:0:
256,192,10333,1,2,0:0:0:0:
176,136,10666,2,0,L|176:56,2,71.25,2|2|0,0:0|0:0|0:0,0:0:0:0:
64,192,11333,1,2,0:0:0:0:
80,248,11444,1,0,0:0:0:0:
104,296,11555,1,0,0:0:0:0:
136,336,11666,6,2,L|232:336,1,71.2500027179719
248,240,11999,2,2,L|208:240,1,35.625001358986
176,112,12249,1,2,0:0:0:0:
320,48,12416,1,2,0:0:0:0:
392,184,12583,1,2,0:0:0:0:
392,216,12666,1,0,0:0:0:0:
392,256,12749,1,0,0:0:0:0:
392,288,12833,1,2,0:0:0:0:
256,352,12999,6,2,L|176:352,1,71.2500027179719
96,272,13333,2,2,L|144:272,1,35.625001358986
136,128,13583,1,2,0:0:0:0:
32,216,13749,1,2,0:0:0:0:
184,192,13916,1,2,0:0:0:0:
200,216,13999,1,0,0:0:0:0:
224,248,14083,1,0,0:0:0:0:
248,272,14166,1,2,0:0:0:0:
360,112,14333,5,2,0:0:0:0:
472,240,14499,1,2,0:0:0:0:
344,352,14666,1,2,0:0:0:0:
344,320,14749,1,0,0:0:0:0:
328,168,14916,1,2,0:0:0:0:
192,88,15083,1,2,0:0:0:0:
40,176,15249,1,2,0:0:0:0:
32,216,15333,1,0,0:0:0:0:
40,256,15416,1,0,0:0:0:0:
56,288,15499,1,2,0:0:0:0:
152,328,15666,5,2,0:0:0:0:
416,248,15999,1,0,0:0:0:0:
152,176,16333,1,2,0:0:0:0:
416,120,16666,1,0,0:0:0:0:
168,336,16999,6,2,L|168:240,1,85.4999973907472
256,320,17332,2,0,L|256:224,1,85.4999973907472
344,256,17666,2,2,L|480:256,2,128.249996086121
168,48,18332,6,2,L|168:144,1,85.4999973907472
256,64,18665,2,0,L|256:160,1,85.4999973907472
344,128,18999,2,2,L|480:128,2,128.249996086121
456,248,19666,5,2,0:0:0:0:
384,352,19833,1,2,0:0:0:0:
256,312,19999,1,0,0:0:0:0:
256,296,20083,1,0,0:0:0:0:
160,272,20249,1,0,0:0:0:0:
160,256,20333,1,0,0:0:0:0:
160,240,20416,1,0,0:0:0:0:
56,168,20582,1,2,0:0:0:0:
56,136,20666,1,0,0:0:0:0:
56,104,20749,1,0,0:0:0:0:
56,72,20832,1,2,0:0:0:0:
144,32,20999,6,0,L|248:32,1,85.4999973907472
248,64,21249,1,0,0:0:0:0:
232,88,21333,1,0,0:0:0:0:
256,112,21416,1,0,0:0:0:0:
232,136,21499,1,0,0:0:0:0:
256,160,21583,1,0,0:0:0:0:
232,184,21666,1,0,0:0:0:0:
256,208,21749,1,0,0:0:0:0:
232,232,21833,1,0,0:0:0:0:
264,256,21916,1,0,0:0:0:0:
232,288,21999,1,0,0:0:0:0:
264,312,22083,1,0,0:0:0:0:
232,344,22166,1,0,0:0:0:0:
96,328,22333,6,2,L|64:216,1,113.999996520996
112,96,22666,1,0,0:0:0:0:
136,112,22749,1,0,0:0:0:0:
176,120,22833,1,0,0:0:0:0:
208,112,22916,1,0,0:0:0:0:
232,96,22999,2,2,P|304:96|352:144,1,113.999996520996
512,264,23333,1,0,0:0:0:0:
488,248,23416,1,0,0:0:0:0:
448,240,23500,1,0,0:0:0:0:
416,248,23583,1,0,0:0:0:0:
392,264,23666,2,2,P|320:264|272:216,1,113.999996520996
160,336,23999,1,0,0:0:0:0:
160,336,24083,1,0,0:0:0:0:
160,336,24166,1,0,0:0:0:0:
160,336,24249,1,0,0:0:0:0:
160,336,24333,2,2,L|160:208,1,113.999996520996
352,48,24666,2,2,L|352:176,1,113.999996520996
32,320,24999,6,2,L|56:192,1,118.75
88,24,25333,1,0,0:0:0:0:
104,56,25416,1,0,0:0:0:0:
120,88,25499,1,0,0:0:0:0:
136,120,25583,1,0,0:0:0:0:
152,152,25666,2,2,L|216:256,1,118.75
304,360,25999,1,0,0:0:0:0:
320,328,26083,1,0,0:0:0:0:
336,296,26166,1,0,0:0:0:0:
352,264,26249,1,0,0:0:0:0:
368,232,26333,2,2,L|432:128,1,118.75
256,32,26666,1,0,0:0:0:0:
256,32,26749,1,0,0:0:0:0:
256,32,26833,1,0,0:0:0:0:
256,32,26916,1,0,0:0:0:0:
256,32,26999,2,2,L|256:160,1,118.75
256,352,27333,2,2,L|256:224,1,118.75
152,64,27666,6,2,P|72:64|56:104,1,118.75
48,256,27999,1,0,0:0:0:0:
64,280,28083,1,0,0:0:0:0:
80,304,28166,1,0,0:0:0:0:
104,336,28249,1,0,0:0:0:0:
120,360,28333,2,2,L|240:360,1,118.75
392,168,28666,1,0,0:0:0:0:
376,192,28750,1,0,0:0:0:0:
360,216,28833,1,0,0:0:0:0:
336,248,28916,1,0,0:0:0:0:
320,272,29000,2,2,L|200:272,1,118.75
48,56,29333,1,0,0:0:0:0:
64,80,29417,1,0,0:0:0:0:
80,104,29500,1,0,0:0:0:0:
104,136,29583,1,0,0:0:0:0:
120,160,29667,2,2,L|240:160,1,118.75
448,336,29999,2,2,L|328:336,1,118.75
168,336,30333,6,0,L|128:288,7,59.375,2|0|0|0|0|0|0|0,0:0|0:0|0:0|0:0|0:0|0:0|0:0|0:0,0:0:0:0:
144,256,30999,2,0,L|192:216,7,59.375,2|0|0|0|0|0|0|0,0:0|0:0|0:0|0:0|0:0|0:0|0:0|0:0,0:0:0:0:
184,184,31666,1,2,0:0:0:0:
176,152,31749,1,0,0:0:0:0:
168,120,31833,1,0,0:0:0:0:
176,88,31916,1,0,0:0:0:0:
200,56,31999,1,2,0:0:0:0:
232,40,32083,1,0,0:0:0:0:
272,40,32166,1,0,0:0:0:0:
296,64,32249,1,0,0:0:0:0:
304,96,32333,2,2,P|280:224|360:312,1,237.5
341,302,32999,6,2,L|208:304,1,118.75
40,280,33314,1,0,0:0:0:0:
40,248,33393,1,0,0:0:0:0:
40,216,33472,1,0,0:0:0:0:
40,184,33551,1,0,0:0:0:0:
40,152,33630,2,2,P|40:80|88:40,1,118.75
184,48,33946,1,0,0:0:0:0:
216,48,34025,1,0,0:0:0:0:
248,48,34104,1,0,0:0:0:0:
280,48,34183,1,0,0:0:0:0:
312,48,34262,2,2,L|432:48,1,118.75
360,168,34577,1,0,0:0:0:0:
360,168,34656,1,0,0:0:0:0:
360,168,34735,1,0,0:0:0:0:
360,168,34814,1,0,0:0:0:0:
360,168,34893,2,2,L|360:296,1,118.75
264,336,35209,2,2,L|264:200,1,118.75
160,256,35525,6,2,L|32:328,1,118.75
48,144,35841,1,0,0:0:0:0:
72,128,35920,1,0,0:0:0:0:
104,112,35999,1,0,0:0:0:0:
128,96,36077,1,0,0:0:0:0:
152,80,36156,2,2,L|272:80,1,118.75
464,200,36472,1,0,0:0:0:0:
440,184,36551,1,0,0:0:0:0:
408,168,36630,1,0,0:0:0:0:
384,152,36708,1,0,0:0:0:0:
360,136,36787,2,2,L|240:136,1,118.75
120,240,37104,1,0,0:0:0:0:
104,272,37183,1,0,0:0:0:0:
112,312,37262,1,0,0:0:0:0:
144,336,37341,1,0,0:0:0:0:
184,336,37420,2,2,P|248:304|248:256,1,118.75
328,48,37735,2,2,P|264:80|264:128,1,118.75
336,296,38051,6,2,L|472:296,1,118.75
256,248,38367,1,0,0:0:0:0:
256,248,38446,1,0,0:0:0:0:
256,248,38525,1,0,0:0:0:0:
256,248,38604,1,0,0:0:0:0:
256,248,38683,2,2,L|136:248,1,118.75
336,176,38999,1,0,0:0:0:0:
336,176,39078,1,0,0:0:0:0:
336,176,39157,1,0,0:0:0:0:
336,176,39236,1,0,0:0:0:0:
336,176,39315,2,2,L|456:176,1,118.75
248,96,39630,1,0,0:0:0:0:
248,96,39709,1,0,0:0:0:0:
248,96,39788,1,0,0:0:0:0:
248,96,39867,1,0,0:0:0:0:
248,96,39946,2,2,L|128:96,1,118.75
129,288,40262,2,2,L|248:288,1,118.75
416,336,40577,5,2,0:0:0:0:
416,64,41209,1,2,0:0:0:0:
48,192,41841,1,2,0:0:0:0:
168,192,42156,1,2,0:0:0:0:
288,192,42472,2,0,L|472:192,2,178.125,2|0|2,0:0|0:0|0:0,0:0:0:0:
240,280,43104,6,2,P|144:336|112:304,1,118.75
80,232,43404,2,0,L|72:168,3,59.375
16,120,43704,2,2,P|88:96|96:48,1,118.75
264,40,44004,2,0,L|288:96,1,59.375
328,56,44154,2,0,L|360:128,1,59.375
408,104,44304,2,2,P|400:192|368:208,1,118.75
496,344,44604,1,0,0:0:0:0:
456,336,44679,1,0,0:0:0:0:
416,320,44754,1,0,0:0:0:0:
384,304,44829,1,0,0:0:0:0:
360,272,44904,2,2,P|296:288|224:272,1,118.75
128,128,45204,2,2,P|192:96|248:104,1,118.75
304,320,45504,6,2,P|200:360|168:344,1,118.75
56,192,45804,2,0,L|40:256,3,59.375
152,208,46104,2,2,P|224:232|272:216,1,118.75
432,80,46404,2,0,L|456:144,1,59.375
368,128,46554,2,0,L|360:200,1,59.375
288,232,46704,2,2,P|240:192|224:120,1,118.75
40,72,47004,1,0,0:0:0:0:
24,120,47079,1,0,0:0:0:0:
24,168,47154,1,0,0:0:0:0:
48,208,47229,1,0,0:0:0:0:
96,232,47304,2,2,L|96:368,1,118.75
408,352,47604,2,2,L|408:216,1,118.75
216,40,47904,6,2,L|152:168,1,118.75
48,336,48204,2,0,L|104:296,1,59.375
160,304,48354,2,0,L|208:352,1,59.375
272,352,48504,2,2,P|352:328|352:272,1,118.75
496,64,48804,1,0,0:0:0:0:
464,96,48879,1,0,0:0:0:0:
432,64,48954,1,0,0:0:0:0:
400,96,49029,1,0,0:0:0:0:
368,64,49104,2,2,P|288:64|248:96,1,118.75
72,136,49404,1,0,0:0:0:0:
64,176,49479,1,0,0:0:0:0:
96,208,49554,1,0,0:0:0:0:
96,256,49629,1,0,0:0:0:0:
144,264,49704,2,2,P|208:288|264:264,1,118.75
368,120,50004,2,2,P|304:96|248:120,1,118.75
504,264,50304,6,2,P|464:312|392:328,1,118.75
376,312,50529,1,0,0:0:0:0:
336,288,50604,2,0,P|264:280|208:320,1,118.75
192,328,50829,1,0,0:0:0:0:
160,352,50904,2,2,P|80:336|48:304,1,118.75
40,280,51129,1,0,0:0:0:0:
48,240,51204,2,0,P|64:160|32:120,1,118.75
256,56,51504,1,2,0:0:0:0:
256,128,51804,1,2,0:0:0:0:
256,208,52104,1,2,0:0:0:0:
