osu file format v13

[General]
AudioFilename: Ib - Bad Apple (Music Box).mp3
AudioLeadIn: 0
PreviewTime: 40200
Countdown: 0
SampleSet: Soft
StackLeniency: 0.9
Mode: 0
LetterboxInBreaks: 1
WidescreenStoryboard: 1

[Editor]
DistanceSpacing: 0.8
BeatDivisor: 4
GridSize: 4
TimelineZoom: 1

[Metadata]
Title:Bad Apple ( Music Box Vers. )
TitleUnicode:Bad Apple ( Music Box Vers. )
Artist:xXSingMusic4everXx
ArtistUnicode:xXSingMusic4everXx
Creator:Awang411
Version:Extra
Source:Touhou
Tags:Bad Apple!! Stage 3 Lotus Land Story th04 touhou zun
BeatmapID:525449
BeatmapSetID:225143

[Difficulty]
HPDrainRate:8
CircleSize:2
OverallDifficulty:8
ApproachRate:8
SliderMultiplier:2.5
SliderTickRate:1

[Events]
//Background and Video events
0,0,"Ib Bad apple.jpg",0,0
//Break Periods
2,139775,159450
//Storyboard Layer 0 (Background)
//Storyboard Layer 1 (Fail)
//Storyboard Layer 2 (Pass)
//Storyboard Layer 3 (Foreground)
//Storyboard Sound Samples
//Background Colour Transformations
3,100,163,162,255

[TimingPoints]
200,625,4,2,0,30,1,0

[Colours]
Combo1 : 255,128,192
Combo2 : 255,0,0
Combo3 : 255,128,0
Combo4 : 255,255,0
Combo5 : 0,255,0
Combo6 : 0,128,255
Combo7 : 128,0,128
Combo8 : 64,0,128

[HitObjects]
72,26,127700,5,0,0:0:0:0:
200,72,128012,1,0,0:0:0:0:
336,122,128325,1,0,0:0:0:0:
456,165,128637,1,0,0:0:0:0:
440,358,129262,5,0,0:0:0:0:
312,312,129575,1,0,0:0:0:0:
176,262,129887,1,0,0:0:0:0:
50,221,130200,5,0,0:0:0:0:
160,104,130512,1,0,0:0:0:0:
319,95,130825,1,0,0:0:0:0:
437,205,131137,1,0,0:0:0:0:
444,363,131450,1,0,0:0:0:0:
460,168,132075,1,0,0:0:0:0:
196,296,132387,1,0,0:0:0:0:
69,26,132700,5,0,0:0:0:0:
76,184,133012,1,0,0:0:0:0:
194,294,133325,1,0,0:0:0:0:
353,285,133637,1,0,0:0:0:0:
463,168,133950,1,0,0:0:0:0:
105,73,134575,5,0,0:0:0:0:
68,236,134887,1,0,0:0:0:0:
173,367,135200,1,0,0:0:0:0:
341,367,135512,1,0,0:0:0:0:
445,235,135825,1,0,0:0:0:0:
408,71,136137,1,0,0:0:0:0:
256,0,136450,1,0,0:0:0:0:
407,310,137075,5,0,0:0:0:0:
444,147,137387,1,0,0:0:0:0:
339,16,137700,1,0,0:0:0:0:
171,16,138012,1,0,0:0:0:0:
67,148,138325,1,0,0:0:0:0:
104,312,138637,1,0,0:0:0:0:
256,384,138950,5,0,0:0:0:0:
256,0,139575,1,0,0:0:0:0:
256,76,160200,22,0,L|304:16,1,62.5
314,91,160512,6,0,L|385:63,1,62.5
356,134,160825,6,0,L|432:145,1,62.5
372,192,161137,6,0,L|432:240,1,62.5
356,250,161450,6,0,L|384:321,1,62.5
314,292,161762,6,0,L|302:368,1,62.5
256,308,162075,6,0,L|208:368,1,62.5
198,292,162387,6,0,L|126:320,1,62.5
155,250,162700,6,0,L|79:238,1,62.5
140,192,163012,6,0,L|80:144,1,62.5
155,134,163325,6,0,L|127:62,1,62.5
198,91,163637,6,0,L|209:15,1,62.5
256,76,163950,6,0,L|304:16,1,62.5
313,91,164262,6,0,L|385:63,1,62.5
356,134,164575,6,0,L|432:145,1,62.5
371,191,164887,6,0,L|432:240,1,62.5
306,242,165200,6,0,L|383:319,1,62.5
256,264,165512,6,0,L|256:372,1,62.5
205,242,165825,6,0,L|128:319,1,62.5
184,192,166137,6,0,L|75:192,1,62.5
205,141,166450,6,0,L|128:64,1,62.5
256,119,166762,6,0,L|256:11,1,62.5
306,141,167075,6,0,L|383:64,1,62.5
328,192,167387,6,0,L|436:191,1,62.5,0|0,0:0|0:0,0:0:0:0:
335,273,167700,6,0,L|264:302,1,62.5
173,272,168012,6,0,L|145:206,1,62.5,0|0,0:0|0:0,0:0:0:0:
176,110,168325,6,0,L|247:81,1,62.5
338,111,168637,6,0,L|366:177,1,62.5
375,313,168950,6,0,L|268:357,1,62.5
132,312,169262,6,0,L|90:213,1,62.5,0|0,0:0|0:0,0:0:0:0:
136,70,169575,6,0,L|243:26,1,62.5
379,71,169887,6,0,L|421:170,1,62.5
376,312,170200,6,0,L|272:308,1,62.5
184,308,170512,2,0,L|188:204,1,62.5
188,144,170825,2,0,L|292:148,1,62.5
380,148,171137,2,0,L|376:252,1,62.5
288,224,171450,6,0,L|211:294,1,62.5
149,356,171762,2,0,L|78:279,1,62.5
36,238,172075,2,0,L|112:167,1,62.5
174,105,172387,2,0,L|244:181,1,62.5
164,236,172700,6,0,L|168:132,1,62.5
168,44,173012,2,0,L|272:48,1,62.5
332,48,173325,2,0,L|328:152,1,62.5
328,240,173637,2,0,L|223:236,1,62.5
248,140,173950,6,0,L|324:69,1,62.5
387,8,174262,2,0,L|457:84,1,62.5
500,126,174575,2,0,L|423:196,1,62.5
362,259,174887,2,0,L|291:182,1,62.5,0|0,0:0|0:0,0:0:0:0:
404,184,175200,6,0,L|400:276,1,62.5
308,216,175512,2,0,L|304:284,1,62.5
204,324,175825,2,0,L|208:232,1,62.5
108,292,176137,2,0,L|112:224,1,62.5
128,140,176450,6,0,L|132:48,1,62.5
224,108,176762,2,0,L|228:39,1,62.5
328,0,177075,2,0,L|324:92,1,62.5
424,32,177387,2,0,L|420:100,1,62.5
380,192,177700,6,0,L|288:192,1,62.5
132,192,178012,2,0,L|224:192,1,62.5
460,112,178325,2,0,L|376:112,1,62.5
52,272,178637,2,0,L|136:272,1,62.5
255,103,178950,5,0,0:0:0:0:
343,192,179106,1,0,0:0:0:0:
255,280,179262,1,0,0:0:0:0:
166,192,179418,1,0,0:0:0:0:
318,129,179575,1,0,0:0:0:0:
318,254,179731,1,0,0:0:0:0:
193,254,179887,1,0,0:0:0:0:
193,129,180043,1,0,0:0:0:0:
256,76,180200,5,0,0:0:0:0:
296,44,180356,1,0,0:0:0:0:
314,91,180512,5,0,0:0:0:0:
364,83,180668,1,0,0:0:0:0:
356,134,180825,5,0,0:0:0:0:
404,152,180981,1,0,0:0:0:0:
372,192,181137,5,0,0:0:0:0:
404,232,181293,1,0,0:0:0:0:
356,250,181450,5,0,0:0:0:0:
364,300,181606,1,0,0:0:0:0:
314,292,181762,5,0,0:0:0:0:
295,340,181918,1,0,0:0:0:0:
256,308,182075,5,0,0:0:0:0:
216,340,182231,1,0,0:0:0:0:
198,292,182387,5,0,0:0:0:0:
147,300,182543,1,0,0:0:0:0:
155,250,182700,5,0,0:0:0:0:
107,231,182856,1,0,0:0:0:0:
140,192,183012,5,0,0:0:0:0:
108,152,183168,1,0,0:0:0:0:
155,134,183325,5,0,0:0:0:0:
147,83,183481,1,0,0:0:0:0:
198,91,183637,5,0,0:0:0:0:
216,43,183793,1,0,0:0:0:0:
256,76,183950,5,0,0:0:0:0:
296,43,184106,1,0,0:0:0:0:
313,91,184262,5,0,0:0:0:0:
364,83,184418,1,0,0:0:0:0:
356,134,184575,5,0,0:0:0:0:
404,152,184731,1,0,0:0:0:0:
372,192,184887,5,0,0:0:0:0:
404,232,185043,1,0,0:0:0:0:
322,219,185200,5,0,0:0:0:0:
305,241,185356,5,0,0:0:0:0:
283,258,185512,5,0,0:0:0:0:
254,264,185668,5,0,0:0:0:0:
227,258,185825,5,0,0:0:0:0:
205,241,185981,5,0,0:0:0:0:
188,219,186137,5,0,0:0:0:0:
182,190,186293,5,0,0:0:0:0:
188,163,186450,5,0,0:0:0:0:
205,141,186606,5,0,0:0:0:0:
227,124,186762,5,0,0:0:0:0:
256,118,186918,5,0,0:0:0:0:
283,124,187075,5,0,0:0:0:0:
305,141,187231,5,0,0:0:0:0:
322,163,187387,5,0,0:0:0:0:
328,192,187543,5,0,0:0:0:0:
336,272,187700,5,0,0:0:0:0:
255,306,187856,5,0,0:0:0:0:
175,272,188012,5,0,0:0:0:0:
141,191,188168,5,0,0:0:0:0:
175,111,188325,5,0,0:0:0:0:
256,77,188481,5,0,0:0:0:0:
336,111,188637,5,0,0:0:0:0:
370,192,188793,5,0,0:0:0:0:
371,307,188950,5,0,0:0:0:0:
255,355,189106,5,0,0:0:0:0:
140,307,189262,5,0,0:0:0:0:
92,191,189418,5,0,0:0:0:0:
140,76,189575,5,0,0:0:0:0:
256,28,189731,5,0,0:0:0:0:
371,76,189887,5,0,0:0:0:0:
419,192,190043,5,0,0:0:0:0:
372,316,190200,5,0,0:0:0:0:
184,316,190356,1,0,0:0:0:0:
184,128,190512,1,0,0:0:0:0:
372,128,190668,1,0,0:0:0:0:
371,316,190825,1,0,0:0:0:0:
184,315,190981,1,0,0:0:0:0:
184,128,191137,1,0,0:0:0:0:
372,128,191293,1,0,0:0:0:0:
284,224,191450,5,0,0:0:0:0:
151,356,191606,1,0,0:0:0:0:
18,224,191762,1,0,0:0:0:0:
151,91,191918,1,0,0:0:0:0:
283,224,192075,1,0,0:0:0:0:
150,356,192231,1,0,0:0:0:0:
18,224,192387,1,0,0:0:0:0:
151,91,192543,1,0,0:0:0:0:
152,224,192700,5,0,0:0:0:0:
152,36,192856,1,0,0:0:0:0:
340,36,193012,1,0,0:0:0:0:
340,224,193168,1,0,0:0:0:0:
152,223,193325,1,0,0:0:0:0:
153,36,193481,1,0,0:0:0:0:
340,36,193637,1,0,0:0:0:0:
340,224,193793,1,0,0:0:0:0:
244,132,193950,5,0,0:0:0:0:
377,0,194106,1,0,0:0:0:0:
510,132,194262,1,0,0:0:0:0:
377,265,194418,1,0,0:0:0:0:
245,132,194575,1,0,0:0:0:0:
378,0,194731,1,0,0:0:0:0:
510,132,194887,1,0,0:0:0:0:
377,265,195043,1,0,0:0:0:0:
396,184,195200,5,0,0:0:0:0:
392,268,195356,1,0,0:0:0:0:
300,216,195512,1,0,0:0:0:0:
296,300,195668,1,0,0:0:0:0:
201,330,195825,1,0,0:0:0:0:
208,248,195981,1,0,0:0:0:0:
105,298,196137,1,0,0:0:0:0:
112,216,196293,1,0,0:0:0:0:
120,140,196450,5,0,0:0:0:0:
128,56,196606,1,0,0:0:0:0:
216,108,196762,1,0,0:0:0:0:
220,24,196918,1,0,0:0:0:0:
320,0,197075,1,0,0:0:0:0:
312,84,197231,1,0,0:0:0:0:
416,32,197387,1,0,0:0:0:0:
408,116,197543,1,0,0:0:0:0:
380,192,197700,5,0,0:0:0:0:
296,192,197856,1,0,0:0:0:0:
132,192,198012,1,0,0:0:0:0:
216,192,198168,1,0,0:0:0:0:
460,112,198325,1,0,0:0:0:0:
376,112,198481,1,0,0:0:0:0:
52,272,198637,1,0,0:0:0:0:
136,272,198793,1,0,0:0:0:0:
254,58,198950,5,0,0:0:0:0:
386,192,199106,1,0,0:0:0:0:
254,324,199262,1,0,0:0:0:0:
120,192,199418,1,0,0:0:0:0:
349,97,199575,1,0,0:0:0:0:
349,285,199731,1,0,0:0:0:0:
161,285,199887,1,0,0:0:0:0:
161,97,200043,1,0,0:0:0:0:
295,259,200200,6,0,L|316:332,1,62.5
250,298,200512,2,0,L|232:372,1,62.5
190,308,200825,2,0,L|137:363,1,62.5
134,287,201137,2,0,L|60:308,1,62.5
95,241,201450,2,0,L|20:223,1,62.5
85,183,201762,2,0,L|29:129,1,62.5
105,126,202075,2,0,L|83:52,1,62.5
152,88,202387,2,0,L|170:12,1,62.5
263,23,202700,6,0,L|224:72,1,62.5
340,64,203012,2,0,L|282:87,1,62.5
385,138,203325,2,0,L|324:130,1,62.5
388,227,203637,2,0,L|340:188,1,62.5
346,304,203950,2,0,L|324:246,1,62.5
272,349,204262,2,0,L|282:288,1,62.5
184,352,204575,2,0,L|224:304,1,62.5
107,310,204887,2,0,L|166:288,1,62.5
226,242,205200,5,0,0:0:0:0:
213,286,205356,1,0,0:0:0:0:
260,271,205512,1,0,0:0:0:0:
271,316,205668,1,0,0:0:0:0:
305,279,205825,1,0,0:0:0:0:
337,312,205981,1,0,0:0:0:0:
347,263,206137,1,0,0:0:0:0:
391,275,206293,1,0,0:0:0:0:
361,224,206450,1,0,0:0:0:0:
406,211,206606,1,0,0:0:0:0:
369,179,206762,1,0,0:0:0:0:
400,147,206918,1,0,0:0:0:0:
350,137,207075,1,0,0:0:0:0:
363,92,207231,1,0,0:0:0:0:
315,110,207387,1,0,0:0:0:0:
302,65,207543,1,0,0:0:0:0:
250,65,207700,5,0,0:0:0:0:
280,101,207856,1,0,0:0:0:0:
192,95,208012,1,0,0:0:0:0:
236,113,208168,1,0,0:0:0:0:
158,151,208325,1,0,0:0:0:0:
204,145,208481,1,0,0:0:0:0:
156,218,208637,1,0,0:0:0:0:
193,189,208793,1,0,0:0:0:0:
187,275,208950,1,0,0:0:0:0:
205,232,209106,1,0,0:0:0:0:
243,309,209262,1,0,0:0:0:0:
236,264,209418,1,0,0:0:0:0:
309,312,209575,1,0,0:0:0:0:
280,275,209731,1,0,0:0:0:0:
367,280,209887,1,0,0:0:0:0:
323,264,210043,1,0,0:0:0:0:
295,259,210200,6,0,L|316:332,1,62.5
250,298,210512,2,0,L|232:372,1,62.5
190,308,210825,2,0,L|137:363,1,62.5
134,287,211137,2,0,L|60:308,1,62.5
95,241,211450,2,0,L|20:223,1,62.5
85,183,211762,2,0,L|29:129,1,62.5
105,126,212075,2,0,L|83:52,1,62.5
152,88,212387,2,0,L|170:12,1,62.5
263,23,212700,6,0,L|224:72,1,62.5
340,64,213012,2,0,L|282:87,1,62.5
385,138,213325,2,0,L|324:130,1,62.5
388,227,213637,2,0,L|340:188,1,62.5
346,304,213950,2,0,L|324:246,1,62.5
272,349,214262,2,0,L|282:288,1,62.5
184,352,214575,2,0,L|224:304,1,62.5
107,310,214887,2,0,L|166:288,1,62.5
217,259,215200,5,0,0:0:0:0:
199,318,215356,1,0,0:0:0:0:
262,298,215512,1,0,0:0:0:0:
276,358,215668,1,0,0:0:0:0:
322,308,215825,1,0,0:0:0:0:
364,353,215981,1,0,0:0:0:0:
378,287,216137,1,0,0:0:0:0:
437,304,216293,1,0,0:0:0:0:
397,235,216450,1,0,0:0:0:0:
456,218,216606,1,0,0:0:0:0:
407,175,216762,1,0,0:0:0:0:
449,132,216918,1,0,0:0:0:0:
382,119,217075,1,0,0:0:0:0:
399,59,217231,1,0,0:0:0:0:
335,84,217387,1,0,0:0:0:0:
318,24,217543,1,0,0:0:0:0:
248,23,217700,5,0,0:0:0:0:
288,72,217856,1,0,0:0:0:0:
171,64,218012,1,0,0:0:0:0:
230,87,218168,1,0,0:0:0:0:
126,138,218325,1,0,0:0:0:0:
187,130,218481,1,0,0:0:0:0:
123,227,218637,1,0,0:0:0:0:
172,188,218793,1,0,0:0:0:0:
165,304,218950,1,0,0:0:0:0:
188,246,219106,1,0,0:0:0:0:
239,349,219262,1,0,0:0:0:0:
230,288,219418,1,0,0:0:0:0:
327,352,219575,1,0,0:0:0:0:
288,304,219731,1,0,0:0:0:0:
404,310,219887,1,0,0:0:0:0:
346,288,220043,1,0,0:0:0:0:
352,308,220200,6,0,L|289:344|293:342,1,62.5
352,216,220512,2,0,L|289:252|293:250,1,62.5
352,124,220825,2,0,L|289:160|293:158,1,62.5
352,32,221137,2,0,L|289:68|293:66,1,62.5
160,76,221450,6,0,L|222:40|218:42,1,62.5
160,167,221762,2,0,L|222:132|218:134,1,62.5
160,260,222075,2,0,L|222:224|218:226,1,62.5
160,352,222387,2,0,L|222:316|218:318,1,62.5
384,308,222700,6,0,L|321:344|325:342,1,62.5
384,216,223012,2,0,L|321:252|325:250,1,62.5
384,124,223325,2,0,L|321:160|325:158,1,62.5
384,32,223637,2,0,L|321:68|325:66,1,62.5
128,76,223950,6,0,L|190:40|186:42,1,62.5
128,168,224262,2,0,L|190:132|186:134,1,62.5
128,260,224575,2,0,L|190:224|186:226,1,62.5
128,352,224887,2,0,L|190:316|186:318,1,62.5
352,308,225200,6,0,L|289:344|293:342,1,62.5
160,76,225512,2,0,L|222:40|218:42,1,62.5
352,216,225825,2,0,L|289:252|293:250,1,62.5
160,167,226137,2,0,L|222:132|218:134,1,62.5
352,124,226450,6,0,L|289:160|293:158,1,62.5
160,260,226762,2,0,L|222:224|218:226,1,62.5
352,32,227075,2,0,L|289:68|293:66,1,62.5
160,352,227387,2,0,L|222:316|218:318,1,62.5
384,76,227700,6,0,L|321:40|325:42,1,62.5
128,308,228012,2,0,L|190:344|186:342,1,62.5
384,168,228325,2,0,L|321:132|325:134,1,62.5
128,216,228637,2,0,L|190:251|186:249,1,62.5
384,260,228950,6,0,L|321:224|325:226,1,62.5
128,124,229262,2,0,L|190:160|186:158,1,62.5
384,352,229575,2,0,L|321:316|325:318,1,62.5
128,32,229887,2,0,L|190:68|186:66,1,62.5
384,355,230200,5,0,0:0:0:0:
308,311,230356,1,0,0:0:0:0:
308,223,230512,1,0,0:0:0:0:
384,180,230668,1,0,0:0:0:0:
460,224,230825,1,0,0:0:0:0:
459,311,230981,1,0,0:0:0:0:
384,268,231137,1,0,0:0:0:0:
308,224,231293,1,0,0:0:0:0:
264,300,231449,1,0,0:0:0:0:
176,300,231605,1,0,0:0:0:0:
133,224,231761,1,0,0:0:0:0:
177,148,231918,1,0,0:0:0:0:
264,149,232074,1,0,0:0:0:0:
308,224,232231,1,0,0:0:0:0:
264,300,232387,1,0,0:0:0:0:
220,224,232543,1,0,0:0:0:0:
176,151,232700,5,0,0:0:0:0:
220,76,232856,1,0,0:0:0:0:
264,152,233012,1,0,0:0:0:0:
220,227,233169,1,0,0:0:0:0:
133,228,233325,1,0,0:0:0:0:
89,152,233482,1,0,0:0:0:0:
132,76,233638,1,0,0:0:0:0:
220,76,233794,1,0,0:0:0:0:
264,152,233950,1,0,0:0:0:0:
340,108,234106,1,0,0:0:0:0:
415,65,234262,1,0,0:0:0:0:
416,152,234418,1,0,0:0:0:0:
340,196,234575,1,0,0:0:0:0:
264,153,234731,1,0,0:0:0:0:
264,64,234887,1,0,0:0:0:0:
340,21,235043,1,0,0:0:0:0:
340,72,235200,5,0,0:0:0:0:
340,160,235356,1,0,0:0:0:0:
264,116,235512,1,0,0:0:0:0:
264,28,235668,1,0,0:0:0:0:
184,76,235825,1,0,0:0:0:0:
184,164,235981,1,0,0:0:0:0:
108,208,236137,1,0,0:0:0:0:
108,120,236293,1,0,0:0:0:0:
183,252,236450,5,0,0:0:0:0:
183,340,236606,1,0,0:0:0:0:
259,384,236762,1,0,0:0:0:0:
260,296,236918,1,0,0:0:0:0:
339,248,237075,1,0,0:0:0:0:
339,336,237231,1,0,0:0:0:0:
415,292,237387,1,0,0:0:0:0:
415,204,237543,1,0,0:0:0:0:
339,248,237700,5,0,0:0:0:0:
260,296,237856,1,0,0:0:0:0:
183,252,238012,1,0,0:0:0:0:
108,208,238168,1,0,0:0:0:0:
180,156,238325,5,0,0:0:0:0:
260,116,238481,1,0,0:0:0:0:
340,160,238637,1,0,0:0:0:0:
415,204,238793,1,0,0:0:0:0:
495,248,238950,5,0,0:0:0:0:
416,296,239106,1,0,0:0:0:0:
339,252,239262,1,0,0:0:0:0:
256,204,239418,1,0,0:0:0:0:
180,152,239575,5,0,0:0:0:0:
339,252,239887,1,0,0:0:0:0:
144,192,240200,5,0,0:0:0:0:
368,192,240512,1,0,0:0:0:0:
124,239,240825,1,0,0:0:0:0:
387,144,241137,1,0,0:0:0:0:
256,192,241450,1,0,0:0:0:0:
32,44,242075,5,0,0:0:0:0:
32,168,242387,1,0,0:0:0:0:
32,44,242700,1,0,0:0:0:0:
123,202,243012,1,0,0:0:0:0:
32,44,243325,1,0,0:0:0:0:
211,196,243637,1,0,0:0:0:0:
32,44,243950,1,0,0:0:0:0:
209,219,244575,5,0,0:0:0:0:
256,137,244887,1,0,0:0:0:0:
302,219,245200,1,0,0:0:0:0:
162,137,245512,1,0,0:0:0:0:
349,137,245824,1,0,0:0:0:0:
256,300,246137,1,0,0:0:0:0:
256,48,246450,1,0,0:0:0:0:
40,348,247075,5,0,0:0:0:0:
256,188,247387,1,0,0:0:0:0:
440,26,247700,1,0,0:0:0:0:
312,72,248012,1,0,0:0:0:0:
176,122,248325,1,0,0:0:0:0:
56,165,248637,1,0,0:0:0:0:
72,358,249262,1,0,0:0:0:0:
200,312,249575,1,0,0:0:0:0:
336,262,249887,1,0,0:0:0:0:
462,221,250200,5,0,0:0:0:0:
352,104,250512,1,0,0:0:0:0:
193,95,250825,1,0,0:0:0:0:
75,205,251137,1,0,0:0:0:0:
68,363,251450,1,0,0:0:0:0:
52,168,252075,1,0,0:0:0:0:
316,296,252387,1,0,0:0:0:0:
443,26,252700,5,0,0:0:0:0:
436,184,253012,1,0,0:0:0:0:
318,294,253325,1,0,0:0:0:0:
159,285,253637,1,0,0:0:0:0:
49,168,253950,1,0,0:0:0:0:
256,40,254575,5,0,0:0:0:0:
208,124,254887,1,0,0:0:0:0:
304,124,255200,1,0,0:0:0:0:
256,204,255512,1,0,0:0:0:0:
160,204,255825,1,0,0:0:0:0:
348,204,256137,1,0,0:0:0:0:
256,36,256450,1,0,0:0:0:0:
256,348,257075,1,0,0:0:0:0:
256,36,257387,1,0,0:0:0:0:
440,358,257700,5,0,0:0:0:0:
312,312,258012,1,0,0:0:0:0:
176,262,258325,1,0,0:0:0:0:
56,219,258637,1,0,0:0:0:0:
72,26,259262,1,0,0:0:0:0:
200,72,259575,1,0,0:0:0:0:
336,122,259887,1,0,0:0:0:0:
462,163,260200,5,0,0:0:0:0:
352,280,260512,1,0,0:0:0:0:
193,289,260825,1,0,0:0:0:0:
75,179,261137,1,0,0:0:0:0:
68,21,261450,1,0,0:0:0:0:
462,163,262075,1,0,0:0:0:0:
193,289,262388,1,0,0:0:0:0:
444,21,262700,5,0,0:0:0:0:
437,179,263013,1,0,0:0:0:0:
319,289,263325,1,0,0:0:0:0:
160,280,263638,1,0,0:0:0:0:
50,163,263950,1,0,0:0:0:0:
444,20,264575,1,0,0:0:0:0:
319,289,264887,1,0,0:0:0:0:
50,221,265200,5,0,0:0:0:0:
160,104,265512,1,0,0:0:0:0:
319,95,265825,1,0,0:0:0:0:
437,205,266137,1,0,0:0:0:0:
444,363,266450,1,0,0:0:0:0:
48,220,267075,1,0,0:0:0:0:
319,95,267387,1,0,0:0:0:0:
68,363,267700,5,0,0:0:0:0:
75,205,268013,1,0,0:0:0:0:
193,95,268325,1,0,0:0:0:0:
352,104,268638,1,0,0:0:0:0:
462,221,268950,1,0,0:0:0:0:
68,364,269575,1,0,0:0:0:0:
193,95,269887,1,0,0:0:0:0:
328,256,270200,5,0,0:0:0:0:
479,255,270512,1,0,0:0:0:0:
356,345,270825,1,0,0:0:0:0:
403,200,271137,1,0,0:0:0:0:
450,345,271450,1,0,0:0:0:0:
450,345,272075,1,0,0:0:0:0:
320,236,272387,1,0,0:0:0:0:
184,128,272700,5,0,0:0:0:0:
33,129,273012,1,0,0:0:0:0:
156,39,273325,1,0,0:0:0:0:
109,184,273637,1,0,0:0:0:0:
62,39,273950,1,0,0:0:0:0:
180,132,274575,5,0,0:0:0:0:
162,214,274887,1,0,0:0:0:0:
214,279,275200,1,0,0:0:0:0:
298,279,275512,1,0,0:0:0:0:
350,213,275825,1,0,0:0:0:0:
332,131,276137,1,0,0:0:0:0:
256,96,276450,1,0,0:0:0:0:
331,251,277075,5,0,0:0:0:0:
350,169,277387,1,0,0:0:0:0:
297,104,277700,1,0,0:0:0:0:
213,104,278012,1,0,0:0:0:0:
161,170,278325,1,0,0:0:0:0:
180,252,278637,1,0,0:0:0:0:
256,288,278950,5,0,0:0:0:0:
