osu file format v13

[General]
AudioFilename: Delusion of tax.mp3
AudioLeadIn: 0
PreviewTime: -1
Countdown: 0
SampleSet: Soft
StackLeniency: 0.7
Mode: 0
LetterboxInBreaks: 1
WidescreenStoryboard: 1

[Editor]
Bookmarks: 39661,43467
DistanceSpacing: 1
BeatDivisor: 4
GridSize: 4
TimelineZoom: 1

[Metadata]
Title:Delusion of tax
TitleUnicode:レッド鎌税
Artist:wpcap
ArtistUnicode:wpcap
Creator:09kami
Version:deat
Source:niconico
Tags:DECO*27 Vocaloid wpcap
BeatmapID:484018
BeatmapSetID:204553

[Difficulty]
HPDrainRate:5
CircleSize:4
OverallDifficulty:8
ApproachRate:9
SliderMultiplier:2.99999990463257
SliderTickRate:1

[Events]
//Background and Video events
0,0,"psb.png",0,0
//Break Periods
2,16465,22718
2,71428,78240
//Storyboard Layer 0 (Background)
//Storyboard Layer 1 (Fail)
//Storyboard Layer 2 (Pass)
//Storyboard Layer 3 (Foreground)
//Storyboard Sound Samples
//Background Colour Transformations
3,100,163,162,255

[TimingPoints]
1826,447.761194029851,4,2,1,65,1,0

[Colours]
Combo1 : 198,170,196
Combo2 : 88,153,49
Combo3 : 33,172,239
Combo4 : 221,45,124
Combo5 : 239,194,16
Combo6 : 65,141,146
Combo7 : 114,197,73

[HitObjects]
124,20,1826,6,0,P|65:99|155:138,1,224.999992847443
197,188,2273,2,0,P|161:276|256:272,1,224.999992847443
320,240,2721,1,0,0:0:0:0:
400,168,2833,1,0,0:0:0:0:
320,104,2945,1,0,0:0:0:0:
256,24,3057,5,0,0:0:0:0:
356,88,3169,1,0,0:0:0:0:
444,24,3281,1,0,0:0:0:0:
368,16,3393,6,0,P|426:95|336:134,1,224.999992847443
312,204,3840,2,0,P|347:292|252:288,1,224.999992847443
140,232,4288,1,0,0:0:0:0:
120,100,4400,1,0,0:0:0:0:
240,88,4512,1,0,0:0:0:0:
196,160,4736,6,0,L|128:112,3,74.9999976158143,0|0|0|0,0:0|0:0|0:0|0:0,0:0:0:0:
32,228,5408,1,0,0:0:0:0:
80,168,5520,1,0,0:0:0:0:
140,212,5631,1,0,0:0:0:0:
184,152,5743,1,0,0:0:0:0:
260,152,5855,2,0,B|292:72|312:64|336:64|352:60|384:80|408:76|404:76|392:84,1,149.999995231629
496,40,6191,5,0,0:0:0:0:
416,112,6303,1,0,0:0:0:0:
456,212,6415,1,0,0:0:0:0:
416,112,6527,2,0,P|316:148|432:212,1,299.999990463257,0|0,0:0|0:0,0:0:0:0:
480,312,7087,5,0,0:0:0:0:
368,296,7199,1,0,0:0:0:0:
304,384,7311,1,0,0:0:0:0:
272,300,7423,6,0,B|284:192|284:148|180:120|100:240,1,299.999990463257
72,92,7982,1,0,0:0:0:0:
256,96,8094,1,0,0:0:0:0:
172,212,8206,1,0,0:0:0:0:
404,116,8990,6,0,P|280:32|184:120,1,299.999990463257
120,152,9549,2,0,P|20:172|-4:236,1,149.999995231629
0,288,9885,1,0,0:0:0:0:
104,264,9997,1,0,0:0:0:0:
128,336,10109,6,0,P|212:236|344:336,1,299.999990463257
356,220,10669,1,0,0:0:0:0:
320,140,10781,1,0,0:0:0:0:
232,204,10893,1,0,0:0:0:0:
188,128,11005,2,0,P|264:16|352:112,1,299.999990463257
436,92,11564,5,0,0:0:0:0:
384,188,11676,1,0,0:0:0:0:
472,240,11788,1,0,0:0:0:0:
408,320,11900,1,0,0:0:0:0:
484,376,12012,1,0,0:0:0:0:
200,92,12348,5,0,0:0:0:0:
80,24,12572,2,0,P|21:103|111:142,1,224.999992847443
128,216,13020,2,0,P|92:304|187:300,1,224.999992847443
240,192,13467,1,0,0:0:0:0:
336,272,13579,1,0,0:0:0:0:
396,200,13691,2,0,P|328:128|336:120,1,149.999995231629
340,44,14027,1,0,0:0:0:0:
417,77,14139,6,0,P|475:156|385:195,1,224.999992847443
436,136,14587,2,0,P|456:214|352:238,1,149.999995231629
296,236,14923,1,0,0:0:0:0:
288,372,15034,1,0,0:0:0:0:
132,352,15146,1,0,0:0:0:0:
184,284,15258,6,0,P|140:268|148:216,1,74.9999976158143
92,180,15482,1,0,0:0:0:0:
164,160,15594,2,0,L|243:194,1,74.9999976158143
236,112,15818,1,0,0:0:0:0:
308,132,15930,2,0,L|308:47,1,74.9999976158143
384,68,16154,2,0,P|419:60|433:27,1,74.9999976158143
348,76,23318,6,0,B|248:0|208:0|152:48|152:60|144:64,1,224.999992847443
160,128,23766,2,0,B|256:160|288:208|304:264|296:240,1,149.999995231629
188,288,24102,1,0,0:0:0:0:
120,200,24214,1,0,0:0:0:0:
64,304,24326,1,0,0:0:0:0:
208,276,24437,6,0,B|340:300|380:268|376:216|328:160|272:136,1,299.999990463257
328,80,24997,2,0,B|320:-4|396:-8|444:28|432:72|444:120|380:116|448:172|444:192|448:220|464:216,1,299.999990463257
392,324,25557,5,0,0:0:0:0:
264,320,25669,1,0,0:0:0:0:
312,220,25781,1,0,0:0:0:0:
184,240,25893,1,0,0:0:0:0:
168,152,26005,2,0,P|216:100|288:144,1,149.999995231629
336,180,26340,2,0,P|408:212|444:160,1,149.999995231629
432,88,26676,2,0,P|384:36|312:80,1,149.999995231629
224,80,27012,1,0,0:0:0:0:
148,68,27124,6,0,L|92:0,1,74.9999976158143
28,28,27348,2,0,P|4:116|44:180,1,149.999995231629
32,240,27684,2,0,P|16:324|60:344,1,74.9999976158143
64,344,27908,1,0,0:0:0:0:
132,300,28020,1,0,0:0:0:0:
212,288,28131,6,0,B|324:316|336:308|372:268|396:160,1,224.999992847443
376,176,28579,2,0,B|264:204|252:196|216:156|192:48,1,224.999992847443
264,72,29027,1,0,0:0:0:0:
244,0,29139,2,0,L|148:32,1,74.9999976158143
64,108,29363,6,0,B|44:168|72:184|144:152|100:176|148:172|84:172,1,74.9999976158143
140,112,29587,1,0,0:0:0:0:
144,184,29699,2,0,B|124:244|152:260|224:228|180:252|228:248|164:248,1,74.9999976158143,0|0,0:0|0:0,0:0:0:0:
224,312,29923,1,0,0:0:0:0:
264,212,30034,1,0,0:0:0:0:
336,280,30146,1,0,0:0:0:0:
376,204,30258,1,0,0:0:0:0:
440,232,30482,6,0,P|408:152|392:144,1,74.9999976158143
432,88,30706,1,0,0:0:0:0:
356,156,30818,1,0,0:0:0:0:
284,92,30930,1,0,0:0:0:0:
216,164,31042,1,0,0:0:0:0:
108,284,31266,6,0,P|176:264|160:332,1,149.999995231629
244,352,31602,1,0,0:0:0:0:
264,276,31714,6,0,P|332:256|316:324,1,149.999995231629
372,308,32049,6,0,P|431:281|440:345,1,149.999995231629
384,368,32385,6,0,P|308:332|312:316,1,74.9999976158143
248,364,32609,2,0,P|172:328|176:312,1,74.9999976158143
112,340,32833,6,0,P|36:304|40:288,1,74.9999976158143
36,260,33057,2,0,P|56:212|100:232,1,74.9999976158143
132,164,33281,2,0,P|168:124|196:136,1,74.9999976158143
252,96,33505,2,0,P|288:64|328:92,1,74.9999976158143
388,52,33728,1,0,0:0:0:0:
332,112,33840,1,0,0:0:0:0:
480,128,34064,6,0,P|468:192|520:212,1,74.9999976158143
432,260,34288,1,0,0:0:0:0:
296,316,34512,6,0,P|184:320|156:260,1,149.999995231629,0|0,0:0|0:0,0:0:0:0:
192,228,34848,1,0,0:0:0:0:
160,160,34960,1,0,0:0:0:0:
128,92,35072,1,0,0:0:0:0:
196,64,35184,2,0,B|272:140|228:124|252:172|276:208|316:172,1,149.999995231629
352,208,35520,1,0,0:0:0:0:
416,168,35631,6,0,P|424:132|405:101,1,74.9999976158143
340,64,35855,2,0,P|272:88|244:72,1,74.9999976158143
204,60,36079,1,0,0:0:0:0:
132,84,36191,1,0,0:0:0:0:
112,156,36303,1,0,0:0:0:0:
160,212,36415,2,0,P|244:220|248:232,1,74.9999976158143
300,216,36639,6,0,P|360:224|356:272,1,74.9999976158143
328,296,36863,2,0,P|348:336|416:324,1,74.9999976158143
396,272,37087,2,0,P|436:256|460:188,1,74.9999976158143
488,192,37311,1,0,0:0:0:0:
448,104,37534,6,0,P|352:44|280:100,1,149.999995231629
260,16,37870,1,0,0:0:0:0:
184,20,37982,1,0,0:0:0:0:
112,48,38094,1,0,0:0:0:0:
56,100,38206,1,0,0:0:0:0:
40,172,38318,1,0,0:0:0:0:
52,248,38430,1,0,0:0:0:0:
100,304,38542,1,0,0:0:0:0:
168,336,38654,1,0,0:0:0:0:
244,328,38766,1,0,0:0:0:0:
300,280,38878,1,0,0:0:0:0:
312,204,38990,1,0,0:0:0:0:
276,140,39102,1,0,0:0:0:0:
212,176,39214,6,0,P|195:208|160:217,1,74.9999976158143
84,212,39437,2,0,P|48:203|32:171,1,74.9999976158143,0|0,0:0|0:0,0:0:0:0:
48,96,39661,2,0,P|83:87|99:54,1,74.9999976158143,0|0,0:0|0:0,0:0:0:0:
172,68,39885,2,0,P|188:100|223:109,1,74.9999976158143,0|0,0:0|0:0,0:0:0:0:
284,152,40109,6,0,P|300:184|335:193,1,74.9999976158143,0|0,0:0|0:0,0:0:0:0:
412,184,40333,1,0,0:0:0:0:
396,112,40445,2,0,B|452:56|368:24|344:-4|240:12,1,224.999992847443
200,100,40893,1,0,0:0:0:0:
140,16,41005,1,0,0:0:0:0:
108,112,41117,1,0,0:0:0:0:
56,48,41228,6,0,B|164:88|192:72|248:36|280:40,1,224.999992847443
300,112,41676,6,0,B|372:152|360:124|384:120|416:88,1,74.9999976158143
300,160,41900,2,0,B|228:200|240:172|216:168|184:136,1,74.9999976158143
300,208,42124,2,0,B|372:248|360:220|384:216|416:184,1,74.9999976158143
312,272,42348,2,0,B|240:312|252:284|228:280|196:248,1,74.9999976158143
236,212,42572,1,0,0:0:0:0:
160,220,42684,2,0,B|92:212|76:164|84:156,1,74.9999976158143
92,112,42908,2,0,B|120:68|160:108|160:108|160:108,1,74.9999976158143
180,172,43131,5,0,0:0:0:0:
216,108,43243,6,0,B|244:64|284:104|284:104|284:104,1,74.9999976158143
280,24,43467,2,0,B|252:-20|212:20|212:20|212:20,1,74.9999976158143
144,32,43691,1,0,0:0:0:0:
92,84,43803,2,0,B|40:124|88:180|84:184,1,74.9999976158143
104,216,44027,2,0,B|136:260|108:312|112:312,1,74.9999976158143
192,276,44251,1,0,0:0:0:0:
168,348,44363,1,0,0:0:0:0:
244,348,44475,2,0,P|308:308|244:276,1,149.999995231629
212,224,44811,2,0,P|148:184|212:152,1,149.999995231629
332,156,45146,1,0,0:0:0:0:
208,76,45258,1,0,0:0:0:0:
88,156,45370,1,0,0:0:0:0:
72,44,45482,5,0,0:0:0:0:
456,40,45706,1,0,0:0:0:0:
256,332,46042,1,0,0:0:0:0:
328,48,46378,2,0,L|252:88,1,74.9999976158143
192,112,46602,2,0,B|160:160|104:148|96:148,1,74.9999976158143
68,192,46826,2,0,B|36:240|-20:228|-28:228,1,74.9999976158143
64,276,47049,2,0,B|96:324|152:312|160:312,1,74.9999976158143
204,312,47273,2,0,B|292:264|288:236|244:224,1,74.9999976158143
332,232,47497,2,0,B|420:184|416:156|372:144,1,74.9999976158143
468,124,48393,2,12,L|396:92,1,74.9999976158143
324,80,48617,2,12,L|236:80,1,74.9999976158143
176,92,48840,2,12,L|92:136,1,74.9999976158143
272,188,49064,1,12,0:0:0:0:
104,232,49512,5,10,0:0:0:0:
256,360,49736,1,10,0:0:0:0:
432,232,49960,1,10,0:0:0:0:
360,212,50184,6,10,B|328:244|304:244|268:224|244:192,1,74.9999976158143
276,304,50408,2,10,B|204:260|220:336|184:316|160:284,1,74.9999976158143
176,236,50631,2,10,B|144:268|120:268|84:248|60:216,1,74.9999976158143
60,196,50855,2,10,P|116:144|120:140,1,74.9999976158143
168,92,51079,5,10,0:0:0:0:
236,124,51191,2,10,L|312:120,1,74.9999976158143
332,192,51415,2,10,L|284:272,1,74.9999976158143
344,312,51639,2,10,L|456:304,1,74.9999976158143
420,232,51863,6,10,L|524:256,1,74.9999976158143
416,144,52087,1,10,0:0:0:0:
512,100,52199,1,10,0:0:0:0:
420,36,52311,2,10,L|332:64,1,74.9999976158143
272,60,52534,2,10,L|196:40,1,74.9999976158143
120,84,52758,1,10,0:0:0:0:
28,168,52870,1,10,0:0:0:0:
112,288,52982,2,10,P|120:324|172:324,1,74.9999976158143
176,280,53206,2,10,P|184:316|236:316,1,74.9999976158143
236,272,53430,2,10,P|244:308|296:308,1,74.9999976158143
304,268,53654,2,10,P|312:304|364:304,1,74.9999976158143
408,200,53878,5,10,0:0:0:0:
308,96,53990,1,10,0:0:0:0:
392,32,54102,1,10,0:0:0:0:
308,96,54214,2,10,P|300:132|248:132,1,74.9999976158143
224,80,54437,2,10,P|216:116|164:116,1,74.9999976158143
116,160,54661,2,10,P|84:216|108:248,1,74.9999976158143
148,312,54885,6,10,B|220:360|220:352|232:344|220:348,1,74.9999976158143
260,268,55109,2,10,L|336:224,1,74.9999976158143
384,308,55333,2,10,B|456:356|456:348|468:340|456:344,1,74.9999976158143
484,252,55557,2,10,L|484:164,1,74.9999976158143
472,112,55781,2,10,B|408:168|360:136|384:152|380:152,1,74.9999976158143
360,84,56005,2,10,B|296:140|248:108|272:124|268:124,1,74.9999976158143
232,72,56228,2,10,B|168:128|120:96|144:112|140:112,1,74.9999976158143
128,40,56452,2,10,L|44:64,1,74.9999976158143
52,132,56676,6,10,L|96:244,1,74.9999976158143
12,172,56900,2,10,L|116:216,1,74.9999976158143
68,304,57124,1,10,0:0:0:0:
184,336,57236,1,10,0:0:0:0:
232,192,57348,2,10,L|188:304,1,74.9999976158143
260,316,57572,2,10,L|348:288,1,74.9999976158143
384,240,57796,2,10,P|340:204|368:164,1,74.9999976158143
304,128,58020,2,10,P|260:92|288:52,1,74.9999976158143
188,104,58243,6,10,L|112:168,1,74.9999976158143
172,216,58467,2,10,L|92:292,1,74.9999976158143,0|0,0:0|0:0,0:0:0:0:
116,344,58691,2,10,L|192:344,1,74.9999976158143
256,360,58915,2,10,P|188:304|208:264,1,74.9999976158143
248,296,59139,2,10,B|312:252|292:268|300:232,1,74.9999976158143
304,184,59363,2,10,B|392:200|352:216|352:248|344:268,1,74.9999976158143
416,136,59587,5,10,0:0:0:0:
472,208,59699,1,10,0:0:0:0:
464,344,59811,1,10,0:0:0:0:
400,264,59923,1,10,0:0:0:0:
360,316,60034,6,10,L|264:296,1,74.9999976158143
280,236,60258,2,10,L|356:188,1,74.9999976158143
352,128,60482,2,10,L|305:68,1,74.9999976158143
216,60,60706,2,10,L|124:64,1,74.9999976158143
56,120,60930,6,10,B|48:196|104:160|112:172,1,74.9999976158143
108,196,61154,2,10,B|100:272|156:236|164:248,1,74.9999976158143
160,268,61378,2,10,B|152:344|208:308|216:320,1,74.9999976158143
240,316,61602,2,10,B|227:305|283:341|275:265,1,74.9999976158143,0|0,0:0|0:0,0:0:0:0:
276,188,61826,6,10,P|324:148|372:192,1,74.9999976158143
336,256,62049,2,10,B|328:332|384:296|392:308,1,74.9999976158143
472,304,62273,2,10,B|459:293|515:329|507:253,1,74.9999976158143
444,180,62497,2,10,B|456:169|400:205|408:129,1,74.9999976158143
484,56,62721,1,10,0:0:0:0:
364,124,62833,1,10,0:0:0:0:
348,24,62945,1,10,0:0:0:0:
232,56,63057,2,10,P|152:52|128:100,1,74.9999976158143
104,48,63281,2,10,P|24:44|0:92,1,74.9999976158143
100,140,63505,1,10,0:0:0:0:
52,224,63617,1,10,0:0:0:0:
100,276,63728,6,2,B|152:208|148:216,1,74.9999976158143
100,276,63952,6,2,L|180:288,1,74.9999976158143
204,224,64176,6,2,B|256:156|252:164,1,74.9999976158143
204,224,64400,6,2,L|284:236,1,74.9999976158143
432,268,64736,6,0,B|380:200|384:208,1,74.9999976158143
432,268,64960,2,0,L|352:280,1,74.9999976158143
328,216,65184,6,0,B|276:148|280:156,1,74.9999976158143
328,216,65408,2,0,L|248:228,1,74.9999976158143
160,220,65631,5,0,0:0:0:0:
68,160,65743,1,0,0:0:0:0:
152,112,65855,1,0,0:0:0:0:
108,28,65967,1,0,0:0:0:0:
184,32,66079,2,0,B|268:40|244:88|244:104,1,74.9999976158143
288,128,66303,2,0,B|372:136|348:184|348:200,1,74.9999976158143
284,200,66527,2,0,B|200:208|224:256|224:272,1,74.9999976158143
128,256,66751,6,0,B|104:168|180:56|200:40,1,224.999992847443,0|0,0:0|0:0,0:0:0:0:
244,136,67199,1,0,0:0:0:0:
324,80,67311,1,0,0:0:0:0:
368,156,67423,6,0,P|392:240|428:232,1,74.9999976158143
392,244,67646,2,0,P|368:328|332:320,1,74.9999976158143
296,352,67870,1,0,0:0:0:0:
156,348,68094,6,0,P|248:304|264:296,1,74.9999976158143
216,272,68318,2,0,P|308:228|324:220,1,74.9999976158143,0|0,0:0|0:0,0:0:0:0:
276,200,68542,2,0,P|368:156|384:148,1,74.9999976158143
344,124,68766,2,0,P|436:80|452:72,1,74.9999976158143
328,16,68990,2,0,L|272:108,1,74.9999976158143
244,152,69214,1,0,0:0:0:0:
172,76,69326,1,0,0:0:0:0:
136,156,69437,6,0,L|72:208,1,74.9999976158143
136,156,69661,2,0,L|172:232,1,74.9999976158143
120,252,69885,2,0,L|60:300,1,74.9999976158143
120,256,70109,2,0,L|152:332,1,74.9999976158143
149,325,70333,1,0,0:0:0:0:
256,192,70557,12,8,71228,0:0:0:0:
75,90,78840,6,0,B|111:128|111:129|165:95|165:95|186:88,1,74.9999976158143
256,100,79064,1,0,0:0:0:0:
200,168,79176,1,0,0:0:0:0:
270,230,79288,2,0,B|234:268|234:269|180:235|180:235|159:228,1,74.9999976158143
137,244,79512,2,0,P|79:278|121:312,1,74.9999976158143
144,308,79736,1,0,0:0:0:0:
216,324,79848,1,0,0:0:0:0:
160,376,79960,1,0,0:0:0:0:
292,368,80184,5,0,0:0:0:0:
391,306,80408,6,0,P|326:244|357:228,1,149.999995231629
396,188,80743,2,0,B|467:120|414:94|402:94,1,74.9999976158143
476,64,80967,2,0,B|547:-4|494:-30|482:-30,1,74.9999976158143
436,4,81191,1,0,0:0:0:0:
364,16,81303,1,0,0:0:0:0:
236,96,81527,1,0,0:0:0:0:
124,196,81751,1,0,0:0:0:0:
52,180,81863,1,0,0:0:0:0:
36,252,81975,2,0,L|97:302,1,74.9999976158143
168,296,82199,2,0,L|220:242,1,74.9999976158143
360,192,82534,6,0,L|430:271,1,74.9999976158143
468,272,82758,2,0,P|451:318|415:326,1,74.9999976158143
364,292,82982,2,0,P|347:338|311:346,1,74.9999976158143
300,276,83206,1,0,0:0:0:0:
284,204,83318,2,0,P|233:203|224:243,1,74.9999976158143
148,236,83542,2,0,P|97:235|88:275,1,74.9999976158143
72,176,83766,2,0,P|16:112|4:116,1,74.9999976158143
60,40,83990,5,0,0:0:0:0:
184,16,84102,2,0,P|165:11|128:54,1,74.9999976158143
252,24,84326,2,0,P|233:19|196:62,1,74.9999976158143
243,114,84549,2,0,P|262:109|299:152,1,74.9999976158143
244,192,84773,2,0,P|225:187|188:230,1,74.9999976158143
260,236,84997,2,0,P|279:231|316:274,1,74.9999976158143
252,304,85221,2,0,P|233:299|196:342,1,74.9999976158143
152,272,85445,1,0,0:0:0:0:
116,204,85557,6,0,L|8:184,1,74.9999976158143
92,136,85781,2,0,P|153:150|147:190,1,74.9999976158143
116,296,86005,5,0,0:0:0:0:
216,368,86117,2,0,P|284:272|344:312,1,149.999995231629,0|0,0:0|0:0,0:0:0:0:
286,346,86452,6,0,B|400:323|395:204|329:146,1,224.999992847443
328,114,86900,2,0,P|259:115|245:144,1,74.9999976158143
271,178,87124,2,0,P|233:190|188:166,1,74.9999976158143
194,111,87348,2,0,L|22:69,1,149.999995231629
96,208,87796,1,0,0:0:0:0:
220,16,88020,6,0,L|346:52,1,74.9999976158143
288,112,88243,2,0,L|361:136,1,74.9999976158143
404,196,88467,1,0,0:0:0:0:
464,320,88691,1,0,0:0:0:0:
360,324,88803,1,0,0:0:0:0:
252,328,88915,1,0,0:0:0:0:
144,336,89027,1,0,0:0:0:0:
32,336,89139,1,0,0:0:0:0:
64,268,89251,1,0,0:0:0:0:
100,200,89363,6,0,P|12:140|28:104,1,149.999995231629
68,64,89699,2,0,B|112:32|111:34|162:86,1,74.9999976158143
208,60,89923,2,0,B|252:28|251:30|302:82,1,74.9999976158143
344,76,90146,2,0,B|388:44|387:46|438:98,1,74.9999976158143
328,140,90370,1,0,0:0:0:0:
248,196,90482,1,0,0:0:0:0:
320,256,90594,1,0,0:0:0:0:
252,316,90706,1,0,0:0:0:0:
180,252,90818,2,0,P|124:244|128:220,1,74.9999976158143
180,192,91042,2,0,P|236:184|232:160,1,74.9999976158143
252,108,91266,6,0,L|352:68,2,74.9999976158143,0|0|0,0:0|0:0|0:0,0:0:0:0:
180,124,91602,1,0,0:0:0:0:
120,80,91714,1,0,0:0:0:0:
180,36,91826,2,0,L|268:32,1,74.9999976158143
328,24,92049,5,0,0:0:0:0:
332,56,92161,2,0,L|408:100,1,74.9999976158143,0|0,0:0|0:0,0:0:0:0:
324,112,92385,2,0,L|248:156,1,74.9999976158143,0|0,0:0|0:0,0:0:0:0:
328,184,92609,6,0,L|404:228,1,74.9999976158143,0|0,0:0|0:0,0:0:0:0:
320,244,92833,2,0,L|244:288,1,74.9999976158143,0|0,0:0|0:0,0:0:0:0:
236,120,93057,5,0,0:0:0:0:
120,84,93169,2,0,B|76:124|88:96|116:120|80:140,1,74.9999976158143
64,212,93393,2,0,B|108:252|96:224|68:248|104:268,1,74.9999976158143
176,268,93617,2,0,B|209:249|181:225|169:253|213:213,1,74.9999976158143
268,264,93840,2,0,B|301:245|273:221|261:249|305:209,1,74.9999976158143
352,120,94064,1,0,0:0:0:0:
460,196,94176,1,0,0:0:0:0:
324,252,94288,1,0,0:0:0:0:
284,188,94400,2,0,P|324:284|404:248,1,149.999995231629
388,220,94736,6,0,P|364:144|316:152,1,74.9999976158143
316,112,94960,2,0,P|340:36|388:44,1,74.9999976158143
252,20,95184,2,0,B|176:-8|120:20|112:28,1,74.9999976158143
268,96,95408,1,0,0:0:0:0:
176,112,95520,1,0,0:0:0:0:
112,48,95631,2,0,P|44:120|72:144,1,149.999995231629
36,208,95967,6,0,P|64:268|36:272,1,74.9999976158143
48,324,96191,2,0,P|20:384|48:388,1,74.9999976158143
84,360,96415,2,0,B|144:300|208:328|200:324,1,74.9999976158143
288,352,96639,1,0,0:0:0:0:
400,260,96751,5,0,0:0:0:0:
320,220,96863,2,0,P|252:252|264:272,1,74.9999976158143
220,156,97087,5,0,0:0:0:0:
296,160,97199,2,0,B|264:84|248:100|264:96,1,74.9999976158143
332,80,97423,2,0,B|364:4|380:20|364:16,1,74.9999976158143
416,76,97646,1,0,0:0:0:0:
452,140,97758,2,0,P|488:208|464:216,1,74.9999976158143
288,292,98094,5,0,0:0:0:0:
196,264,98318,6,0,B|268:196|264:200|224:184|232:192|208:188|196:204|184:200,1,149.999995231629
144,264,98654,2,0,B|72:196|76:200|116:184|108:192|132:188|144:204|156:200,1,149.999995231629
176,128,98990,2,0,P|200:76|252:100,1,74.9999976158143
284,88,99214,2,0,P|356:64|388:88,1,74.9999976158143
420,88,99437,2,0,P|492:64|524:88,1,74.9999976158143
396,8,99661,1,0,0:0:0:0:
324,24,99773,6,0,P|260:64|240:52,1,74.9999976158143
196,84,99997,2,0,P|214:115|249:126,1,74.9999976158143
388,184,100221,1,0,0:0:0:0:
272,268,100333,1,0,0:0:0:0:
128,248,100445,2,0,B|128:164|144:184|152:180,1,74.9999976158143,0|0,0:0|0:0,0:0:0:0:
156,104,100669,2,0,B|156:20|172:40|180:36,1,74.9999976158143,0|0,0:0|0:0,0:0:0:0:
228,140,100893,6,0,B|196:216|260:228|268:228,1,74.9999976158143
304,232,101117,2,0,B|272:308|336:320|344:320,1,74.9999976158143,0|0,0:0|0:0,0:0:0:0:
384,304,101340,2,0,B|424:212|356:212|364:212,1,74.9999976158143
468,220,101564,2,0,B|508:164|440:128|408:128,1,74.9999976158143
456,48,101788,1,0,0:0:0:0:
348,32,101900,1,0,0:0:0:0:
244,48,102012,6,0,B|160:100|120:60|116:56,1,74.9999976158143
116,146,102236,2,0,B|32:198|-8:158|-12:154,1,74.9999976158143
104,260,102460,2,0,B|188:312|228:272|232:268,1,74.9999976158143
242,254,102684,2,0,B|326:306|366:266|370:262,1,74.9999976158143
500,204,103020,1,0,0:0:0:0:
440,52,103243,1,0,0:0:0:0:
336,80,103355,2,0,L|260:124,1,74.9999976158143
197,133,103579,2,0,P|137:73|97:93,1,74.9999976158143
84,96,103803,2,0,L|68:180,1,74.9999976158143
128,217,104027,2,0,L|220:205,1,74.9999976158143
218,281,104251,2,0,L|310:269,1,74.9999976158143
303,196,104475,6,0,B|387:220|371:260|371:264,1,74.9999976158143
401,166,104699,2,0,B|485:190|469:230|469:234,1,74.9999976158143,0|0,0:0|0:0,0:0:0:0:
383,260,104923,1,0,0:0:0:0:
304,324,105034,1,0,0:0:0:0:
420,364,105146,2,0,L|524:344,1,74.9999976158143
495,274,105370,2,0,L|491:190,1,74.9999976158143
494,123,105594,2,0,L|490:43,1,74.9999976158143
423,84,105818,1,0,0:0:0:0:
362,39,105930,2,0,B|270:23|242:55|258:91|254:87,1,74.9999976158143
212,48,106154,2,0,L|212:132,1,74.9999976158143
96,152,106378,1,0,0:0:0:0:
28,240,106490,6,0,P|64:316|100:300,1,74.9999976158143
112,306,106714,2,0,P|130:274|120:239,1,74.9999976158143
195,240,106937,2,0,P|231:316|267:300,1,74.9999976158143,0|0,0:0|0:0,0:0:0:0:
279,308,107161,2,0,P|297:276|287:241,1,74.9999976158143
362,240,107385,2,0,P|398:316|434:300,1,74.9999976158143,0|0,0:0|0:0,0:0:0:0:
442,281,107609,1,0,0:0:0:0:
442,205,107721,6,0,B|350:73|346:105|358:133,1,149.999995231629
308,184,108057,2,0,B|252:116|240:120|236:132|240:148|236:160|252:184|244:172,1,74.9999976158143
203,188,108281,2,0,B|147:120|135:124|131:136|135:152|131:164|147:188|139:176,1,74.9999976158143
116,24,108505,1,0,0:0:0:0:
240,88,108617,1,0,0:0:0:0:
108,136,108728,1,0,0:0:0:0:
108,252,108840,6,0,L|180:292,1,74.9999976158143
264,288,109064,2,0,L|329:251,1,74.9999976158143
396,200,109288,2,0,L|461:163,1,74.9999976158143
412,104,109512,1,0,0:0:0:0:
337,97,109624,1,0,0:0:0:0:
312,164,109736,6,0,L|228:120,1,74.9999976158143
216,164,109960,2,0,L|148:120,1,74.9999976158143
128,160,110184,2,0,L|48:112,1,74.9999976158143
60,64,110408,6,0,L|224:64,1,149.999995231629
328,64,110743,1,0,0:0:0:0:
328,152,110855,2,0,L|332:236,1,74.9999976158143
272,292,111079,2,0,L|120:204,1,149.999995231629
142,216,111415,1,0,0:0:0:0:
142,216,111527,1,0,0:0:0:0:
142,216,111639,1,0,0:0:0:0:
276,288,111751,6,0,B|340:232|384:280|392:292,1,74.9999976158143
404,224,111975,2,0,B|468:168|512:216|520:228,1,74.9999976158143
352,200,112199,1,0,0:0:0:0:
317,133,112311,1,0,0:0:0:0:
336,60,112423,1,0,0:0:0:0:
261,63,112534,6,0,L|125:167,1,149.999995231629
56,40,112870,2,0,L|56:128,1,74.9999976158143
54,190,113094,2,0,L|54:278,1,74.9999976158143
117,306,113318,2,0,L|189:278,2,74.9999976158143,0|0|0,0:0|0:0|0:0,0:0:0:0:
143,220,113654,2,0,L|211:316,2,74.9999976158143,0|0|0,0:0|0:0|0:0,0:0:0:0:
224,216,113990,2,0,L|156:312,2,74.9999976158143,0|0|0,0:0|0:0|0:0,0:0:0:0:
224,336,114326,2,0,L|180:274,2,74.9999976158143,0|0|0,0:0|0:0|0:0,0:0:0:0:
308,284,114661,5,0,0:0:0:0:
384,224,114773,1,0,0:0:0:0:
316,156,114885,1,0,0:0:0:0:
392,92,114997,1,0,0:0:0:0:
312,16,115109,2,0,L|216:44,1,74.9999976158143
176,0,115333,2,0,B|252:48|252:48|248:48,1,74.9999976158143,0|0,0:0|0:0,0:0:0:0:
180,88,115557,2,0,L|268:16,1,74.9999976158143
292,96,115781,1,0,0:0:0:0:
56,196,116452,5,8,0:0:0:0:
400,200,116788,1,8,0:0:0:0:
216,336,117124,1,8,0:0:0:0:
104,232,117572,5,10,0:0:0:0:
256,360,117796,1,10,0:0:0:0:
432,232,118020,1,10,0:0:0:0:
340,256,118243,6,10,B|308:288|284:288|248:268|224:236,1,74.9999976158143
265,199,118467,2,10,B|193:155|209:231|173:211|149:179,1,74.9999976158143
156,264,118691,2,10,B|124:296|100:296|64:276|40:244,1,74.9999976158143
66,210,118915,2,10,P|122:158|126:154,1,74.9999976158143
178,110,119139,5,10,0:0:0:0:
252,121,119251,2,10,L|328:117,1,74.9999976158143
347,189,119475,2,10,L|299:269,1,74.9999976158143
333,324,119699,2,10,L|445:316,1,74.9999976158143
404,224,119923,6,10,L|508:248,1,74.9999976158143
416,144,120146,1,10,0:0:0:0:
512,100,120258,1,10,0:0:0:0:
420,36,120370,2,10,L|332:64,1,74.9999976158143
272,59,120594,2,10,L|196:39,1,74.9999976158143
94,79,120818,1,10,0:0:0:0:
33,167,120930,1,10,0:0:0:0:
96,264,121042,2,10,P|104:300|156:300,1,74.9999976158143
168,272,121266,2,10,P|176:308|228:308,1,74.9999976158143
236,272,121490,2,10,P|244:308|296:308,1,74.9999976158143
304,268,121714,2,10,P|312:304|364:304,1,74.9999976158143
408,200,121937,5,10,0:0:0:0:
380,116,122049,2,10,P|372:152|320:152,1,74.9999976158143
312,104,122273,2,10,P|304:140|252:140,1,74.9999976158143
244,88,122497,2,10,P|236:124|184:124,1,74.9999976158143
128,152,122721,2,10,P|96:208|120:240,1,74.9999976158143
148,312,122945,6,10,B|220:360|220:352|232:344|220:348,1,74.9999976158143
260,268,123169,2,10,L|336:224,1,74.9999976158143
384,308,123393,2,10,B|456:356|456:348|468:340|456:344,1,74.9999976158143
484,252,123617,2,10,L|484:164,1,74.9999976158143
472,104,123840,2,10,B|408:160|360:128|384:144|380:144,1,74.9999976158143
354,81,124064,2,10,B|290:137|242:105|266:121|262:121,1,74.9999976158143
235,59,124288,2,10,B|171:115|123:83|147:99|143:99,1,74.9999976158143
124,31,124512,2,10,L|40:55,1,74.9999976158143
54,127,124736,6,10,L|98:239,1,74.9999976158143
9,174,124960,2,10,L|113:218,1,74.9999976158143
68,304,125184,1,10,0:0:0:0:
145,239,125296,1,10,0:0:0:0:
232,192,125408,2,10,L|188:304,1,74.9999976158143
260,312,125631,2,10,L|348:284,1,74.9999976158143
388,240,125855,2,10,P|344:204|372:164,1,74.9999976158143
312,124,126079,2,10,P|268:88|296:48,1,74.9999976158143
196,100,126303,6,10,L|120:164,1,74.9999976158143
152,224,126527,2,10,L|72:300,1,74.9999976158143,0|0,0:0|0:0,0:0:0:0:
112,352,126751,2,10,L|188:352,1,74.9999976158143
256,384,126975,2,10,P|188:328|208:288,1,74.9999976158143
236,292,127199,2,10,B|300:248|280:264|288:228,1,74.9999976158143
304,168,127423,2,10,B|392:184|352:200|352:232|344:252,1,74.9999976158143
416,136,127646,5,10,0:0:0:0:
472,208,127758,1,10,0:0:0:0:
464,344,127870,1,10,0:0:0:0:
400,264,127982,1,10,0:0:0:0:
360,316,128094,6,10,L|264:296,1,74.9999976158143
280,224,128318,2,10,L|356:176,1,74.9999976158143
352,108,128542,2,10,L|305:48,1,74.9999976158143
232,36,128766,2,10,L|140:40,1,74.9999976158143
56,120,128990,6,10,B|48:196|104:160|112:172,1,74.9999976158143
108,196,129214,2,10,B|100:272|156:236|164:248,1,74.9999976158143
160,268,129437,2,10,B|152:344|208:308|216:320,1,74.9999976158143
240,316,129661,2,10,B|227:305|283:341|275:265,1,74.9999976158143,0|0,0:0|0:0,0:0:0:0:
284,196,129885,6,10,P|332:156|380:200,1,74.9999976158143
336,232,130109,2,10,B|328:308|384:272|392:284,1,74.9999976158143
436,244,130333,2,10,B|423:233|479:269|471:193,1,74.9999976158143
412,152,130557,2,10,B|424:141|368:177|376:101,1,74.9999976158143
504,24,130893,1,10,0:0:0:0:
348,24,131005,1,10,0:0:0:0:
232,56,131117,2,10,P|152:52|128:100,1,74.9999976158143
88,48,131340,2,10,P|8:44|-16:92,1,74.9999976158143
100,140,131564,1,10,0:0:0:0:
48,196,131676,1,10,0:0:0:0:
100,276,131788,6,10,B|152:208|148:216,1,74.9999976158143
100,276,132012,2,10,L|180:288,1,74.9999976158143
400,344,132348,1,2,0:0:0:0:
208,112,132572,6,0,L|340:168,1,74.9999976158143
352,184,132796,2,0,L|220:240,1,74.9999976158143
208,260,133020,2,0,L|340:316,1,74.9999976158143
432,268,133243,1,0,0:0:0:0:
436,116,133355,6,0,L|360:76,1,74.9999976158143
68,160,133691,5,0,0:0:0:0:
152,112,133803,1,0,0:0:0:0:
108,28,133915,1,0,0:0:0:0:
200,48,134027,2,0,B|284:56|260:104|260:120,1,74.9999976158143
264,120,134251,2,0,B|348:128|324:176|324:192,1,74.9999976158143
320,192,134475,2,0,B|236:200|260:248|260:264,1,74.9999976158143
256,260,134699,2,0,B|172:268|196:316|196:332,1,74.9999976158143
152,296,134923,2,0,B|84:240|132:184|164:168,1,149.999995231629
264,64,135258,1,0,0:0:0:0:
368,156,135370,6,0,P|392:240|428:232,1,74.9999976158143
392,244,135594,2,0,P|368:328|332:320,1,74.9999976158143
316,348,135818,1,0,0:0:0:0:
232,344,135930,1,0,0:0:0:0:
156,348,136042,6,0,P|248:304|264:296,1,74.9999976158143
216,240,136266,2,0,P|308:196|324:188,1,74.9999976158143,0|0,0:0|0:0,0:0:0:0:
256,136,136490,2,0,P|348:92|364:84,1,74.9999976158143
300,32,136714,2,0,P|392:-12|408:-20,1,74.9999976158143
300,32,136937,2,0,L|244:124,1,74.9999976158143
216,156,137161,1,0,0:0:0:0:
172,92,137273,1,0,0:0:0:0:
136,156,137385,6,0,L|72:208,1,74.9999976158143
136,156,137609,2,0,L|172:232,1,74.9999976158143
120,252,137833,2,0,L|60:300,1,74.9999976158143
120,256,138057,2,0,L|152:332,1,74.9999976158143
192,252,138281,2,0,L|221:182,1,74.9999976158143
192,252,138505,2,0,L|224:328,1,74.9999976158143
252,148,138728,1,0,0:0:0:0:
348,292,138840,1,0,0:0:0:0:
448,176,138952,6,0,L|344:152,1,74.9999976158143
292,200,139176,2,0,L|364:224,1,74.9999976158143
432,244,139400,1,0,0:0:0:0:
404,88,139736,2,4,L|76:96,1,299.999990463257
104,196,140631,6,4,L|432:204,1,299.999990463257
404,308,141527,6,4,L|76:316,1,299.999990463257
240,188,142199,6,4,B|292:132|328:180|340:188,1,74.9999976158143,0|0,0:0|0:0,0:0:0:0:
324,92,142422,2,4,B|376:36|412:84|424:92,1,74.9999976158143
448,116,142646,1,4,0:0:0:0:
412,180,142758,1,4,0:0:0:0:
108,88,143318,6,4,L|436:96,1,299.999990463257
408,196,144214,6,4,L|80:204,1,299.999990463257
108,308,145109,6,4,L|436:316,1,299.999990463257
316,204,145781,6,4,B|264:148|228:196|216:204,1,74.9999976158143
232,108,146005,2,4,B|180:52|144:100|132:108,1,74.9999976158143
108,128,146228,1,4,0:0:0:0:
148,192,146340,1,4,0:0:0:0:
104,315,146900,6,4,L|404:308,1,299.999990463257
403,203,147796,6,4,L|104:196,1,299.999990463257
104,95,148691,6,4,L|404:88,1,299.999990463257
376,104,149587,2,4,P|264:56|192:92,1,149.999995231629
280,124,149923,1,4,0:0:0:0:
160,100,150034,1,4,0:0:0:0:
68,68,150706,5,2,0:0:0:0:
112,128,150818,1,2,0:0:0:0:
164,184,150930,1,2,0:0:0:0:
224,228,151042,2,2,L|316:228,1,74.9999976158143
368,200,151266,5,2,0:0:0:0:
428,148,151378,1,2,0:0:0:0:
452,76,151490,1,2,0:0:0:0:
388,36,151602,2,2,L|288:32,1,74.9999976158143,0|0,0:0|0:0,0:0:0:0:
236,36,151826,2,2,L|160:36,1,74.9999976158143
92,68,152049,2,2,L|148:132,1,74.9999976158143
188,184,152273,2,2,L|256:244,1,74.9999976158143
172,252,152497,2,2,L|240:312,1,74.9999976158143
300,276,152721,2,2,L|368:336,1,74.9999976158143
352,248,152945,2,2,L|295:198,1,74.9999976158143
196,312,153840,5,12,0:0:0:0:
304,316,153952,1,12,0:0:0:0:
407,315,154064,6,4,L|108:308,1,299.999990463257
108,203,154960,6,4,L|408:196,1,299.999990463257
407,95,155855,6,4,L|108:88,1,299.999990463257
136,104,156751,2,4,P|248:56|320:92,1,149.999995231629
224,120,157087,1,4,0:0:0:0:
352,100,157199,1,4,0:0:0:0:
104,315,157646,6,4,L|404:308,1,299.999990463257
403,203,158542,6,4,L|104:196,1,299.999990463257
104,95,159437,6,4,L|404:88,1,299.999990463257
184,184,160333,2,4,L|184:92,1,74.9999976158143
128,216,160557,1,4,0:0:0:0:
184,188,160669,2,4,L|304:124,1,74.9999976158143
407,315,161228,6,4,L|108:308,1,299.999990463257
108,203,162124,6,4,L|408:196,1,299.999990463257
407,95,163020,6,4,L|108:88,1,299.999990463257
328,184,163915,2,4,L|328:92,1,74.9999976158143
384,216,164139,1,4,0:0:0:0:
328,188,164251,2,4,L|208:124,1,74.9999976158143
360,92,164923,6,2,B|320:64|272:80|280:152,1,74.9999976158143
224,92,165146,2,2,B|264:64|312:80|304:152,1,74.9999976158143,0|0,0:0|0:0,0:0:0:0:
360,160,165370,2,2,B|320:132|272:148|280:220,1,74.9999976158143
224,160,165594,2,2,B|264:132|312:148|304:220,1,74.9999976158143,0|0,0:0|0:0,0:0:0:0:
360,228,165818,2,2,B|320:200|272:216|280:288,1,74.9999976158143
224,228,166042,2,2,B|264:200|312:216|304:288,1,74.9999976158143,0|0,0:0|0:0,0:0:0:0:
360,296,166266,2,2,B|320:268|272:284|280:356,1,74.9999976158143
224,296,166490,2,2,B|264:268|312:284|304:356,1,74.9999976158143,0|0,0:0|0:0,0:0:0:0:
64,276,166826,6,0,P|60:192|88:192,1,74.9999976158143
68,276,167050,2,0,P|72:192|44:192,1,74.9999976158143
68,204,167274,6,0,P|64:120|92:120,1,74.9999976158143
72,204,167498,2,0,P|76:120|48:120,1,74.9999976158143
64,92,167722,6,0,L|64:168,1,74.9999976158143
64,280,167946,1,0,0:0:0:0:
184,152,168169,6,0,B|276:20|280:52|268:80,1,149.999995231629
272,148,168505,2,0,B|328:80|340:84|344:96|340:112|344:124|328:148|336:136,1,74.9999976158143
352,168,168728,2,0,B|408:100|420:104|424:116|420:132|424:144|408:168|416:156,1,74.9999976158143
280,0,169064,1,0,0:0:0:0:
460,136,169176,1,0,0:0:0:0:
460,252,169288,6,0,L|388:292,1,74.9999976158143
320,288,169512,2,0,L|255:251,1,74.9999976158143
192,212,169736,2,0,L|127:175,1,74.9999976158143
156,104,169960,1,0,0:0:0:0:
228,88,170072,1,0,0:0:0:0:
260,156,170184,6,0,L|344:112,1,74.9999976158143
368,184,170408,2,0,L|436:140,1,74.9999976158143
400,76,170631,2,0,L|480:28,1,74.9999976158143
512,76,170855,6,0,L|348:76,1,149.999995231629
288,68,171191,1,0,0:0:0:0:
260,140,171303,2,0,L|256:224,1,74.9999976158143
296,292,171527,2,0,L|448:204,1,149.999995231629
426,216,171863,1,0,0:0:0:0:
426,216,171975,1,0,0:0:0:0:
426,216,172087,1,0,0:0:0:0:
292,288,172199,6,0,B|228:232|184:280|176:292,1,74.9999976158143
156,232,172423,2,0,B|92:176|48:224|40:236,1,74.9999976158143
208,216,172646,1,0,0:0:0:0:
232,144,172758,1,0,0:0:0:0:
256,72,172870,1,0,0:0:0:0:
332,72,172982,6,0,L|468:176,1,149.999995231629
500,40,173318,2,0,L|500:128,1,74.9999976158143
500,192,173542,2,0,L|500:280,1,74.9999976158143
432,300,173766,2,0,L|360:272,2,74.9999976158143,0|0|0,0:0|0:0|0:0,0:0:0:0:
428,216,174102,2,0,L|360:312,2,74.9999976158143,0|0|0,0:0|0:0|0:0,0:0:0:0:
344,216,174437,2,0,L|412:312,2,74.9999976158143,0|0|0,0:0|0:0|0:0,0:0:0:0:
344,336,174773,2,0,L|388:274,2,74.9999976158143,0|0|0,0:0|0:0|0:0,0:0:0:0:
260,284,175109,5,0,0:0:0:0:
184,232,175221,1,0,0:0:0:0:
252,156,175333,1,0,0:0:0:0:
176,92,175445,1,0,0:0:0:0:
256,16,175557,2,0,L|352:44,1,74.9999976158143
392,0,175781,2,0,B|316:48|316:48|320:48,1,74.9999976158143,0|0,0:0|0:0,0:0:0:0:
388,88,176005,2,0,L|300:16,1,74.9999976158143
276,96,176228,1,0,0:0:0:0:
244,128,176340,1,0,0:0:0:0:
220,156,176452,1,0,0:0:0:0:
468,124,177348,2,12,L|396:92,1,74.9999976158143
328,76,177572,2,12,L|240:76,1,74.9999976158143
180,100,177796,2,12,L|96:144,1,74.9999976158143
272,188,178020,1,12,0:0:0:0:
92,232,178467,5,10,0:0:0:0:
256,360,178691,1,10,0:0:0:0:
436,232,178915,1,10,0:0:0:0:
340,256,179139,6,10,B|308:288|284:288|248:268|224:236,1,74.9999976158143
244,204,179363,2,10,B|172:160|188:236|152:216|128:184,1,74.9999976158143
148,276,179587,2,10,B|116:308|92:308|56:288|32:256,1,74.9999976158143
76,232,179811,2,10,P|132:180|136:176,1,74.9999976158143
148,88,180034,5,10,0:0:0:0:
264,128,180146,2,10,L|340:124,1,74.9999976158143
336,176,180370,2,10,L|288:256,1,74.9999976158143
316,288,180594,2,10,L|428:280,1,74.9999976158143
404,224,180818,6,10,L|508:248,1,74.9999976158143
416,144,181042,1,10,0:0:0:0:
512,100,181154,1,10,0:0:0:0:
420,36,181266,2,10,L|332:64,1,74.9999976158143
268,68,181490,2,10,L|192:48,1,74.9999976158143
120,84,181714,1,10,0:0:0:0:
28,168,181826,1,10,0:0:0:0:
96,264,181937,2,10,P|104:300|156:300,1,74.9999976158143
188,256,182161,2,10,P|196:292|248:292,1,74.9999976158143
288,256,182385,2,10,P|296:292|348:292,1,74.9999976158143
384,252,182609,2,10,P|392:288|444:288,1,74.9999976158143
408,200,182833,5,10,0:0:0:0:
312,96,182945,1,10,0:0:0:0:
424,28,183057,1,10,0:0:0:0:
308,96,183169,2,10,P|300:132|248:132,1,74.9999976158143
216,88,183393,2,10,P|208:124|156:124,1,74.9999976158143
104,160,183617,2,10,P|72:216|96:248,1,74.9999976158143
148,312,183840,6,10,B|220:360|220:352|232:344|220:348,1,74.9999976158143
260,268,184064,2,10,L|336:224,1,74.9999976158143
384,308,184288,2,10,B|456:356|456:348|468:340|456:344,1,74.9999976158143
484,252,184512,2,10,L|484:164,1,74.9999976158143
456,108,184736,2,10,B|392:164|344:132|368:148|364:148,1,74.9999976158143
336,88,184960,2,10,B|272:144|224:112|248:128|244:128,1,74.9999976158143
224,60,185184,2,10,B|160:116|112:84|136:100|132:100,1,74.9999976158143
108,36,185408,2,10,L|24:60,1,74.9999976158143
52,132,185631,6,10,L|96:244,1,74.9999976158143
12,172,185855,2,10,L|116:216,1,74.9999976158143
68,304,186079,1,10,0:0:0:0:
184,336,186191,1,10,0:0:0:0:
212,268,186303,2,10,L|168:380,1,74.9999976158143
260,340,186527,2,10,L|348:312,1,74.9999976158143
324,240,186751,2,10,P|280:204|308:164,1,74.9999976158143
280,116,186975,2,10,P|236:80|264:40,1,74.9999976158143
168,104,187199,6,10,L|92:168,1,74.9999976158143
128,224,187423,2,10,L|48:300,1,74.9999976158143,0|0,0:0|0:0,0:0:0:0:
116,336,187646,2,10,L|192:336,1,74.9999976158143
260,368,187870,2,10,P|192:312|212:272,1,74.9999976158143
252,288,188094,2,10,B|316:244|296:260|304:224,1,74.9999976158143
300,160,188318,2,10,B|388:176|348:192|348:224|340:244,1,74.9999976158143
416,136,188542,5,10,0:0:0:0:
472,208,188654,1,10,0:0:0:0:
464,344,188766,1,10,0:0:0:0:
400,264,188878,1,10,0:0:0:0:
360,316,188990,6,10,L|264:296,1,74.9999976158143
280,224,189214,2,10,L|356:176,1,74.9999976158143
348,108,189437,2,10,L|301:48,1,74.9999976158143
228,52,189661,2,10,L|136:56,1,74.9999976158143
56,120,189885,6,10,B|48:196|104:160|112:172,1,74.9999976158143
108,200,190109,2,10,B|100:276|156:240|164:252,1,74.9999976158143
160,268,190333,2,10,B|152:344|208:308|216:320,1,74.9999976158143
240,316,190557,2,10,B|227:305|283:341|275:265,1,74.9999976158143,0|0,0:0|0:0,0:0:0:0:
288,200,190781,6,10,P|336:160|384:204,1,74.9999976158143
336,256,191005,2,10,B|328:332|384:296|392:308,1,74.9999976158143
472,304,191228,2,10,B|459:293|515:329|507:253,1,74.9999976158143
472,184,191452,2,10,B|456:169|400:205|408:129,1,74.9999976158143
484,56,191676,1,10,0:0:0:0:
380,124,191788,1,10,0:0:0:0:
348,24,191900,1,10,0:0:0:0:
232,56,192012,2,10,P|152:52|128:100,1,74.9999976158143
104,48,192236,2,10,P|24:44|0:92,1,74.9999976158143
100,140,192460,1,10,0:0:0:0:
52,224,192572,1,10,0:0:0:0:
100,276,192684,6,10,B|152:208|148:216,1,74.9999976158143
100,276,192908,2,10,L|180:288,1,74.9999976158143
248,272,193131,2,10,L|272:188,1,74.9999976158143
288,128,193355,6,10,P|372:88|380:104,1,74.9999976158143
276,128,193579,2,10,P|192:88|184:104,1,74.9999976158143
232,136,193803,2,10,P|208:84|168:80,1,74.9999976158143
192,152,194027,2,10,P|108:112|100:128,1,74.9999976158143
144,168,194251,2,10,P|60:128|52:144,1,74.9999976158143
72,132,194475,6,10,L|116:244,1,74.9999976158143
32,172,194699,2,10,L|136:216,1,74.9999976158143
60,276,194923,1,10,0:0:0:0:
192,324,195034,1,10,0:0:0:0:
140,260,195146,2,10,L|96:372,1,74.9999976158143
272,300,195370,2,10,L|360:272,1,74.9999976158143
412,224,195594,2,10,P|428:172|396:148,1,74.9999976158143
344,172,195818,2,10,P|364:116|328:96,1,74.9999976158143
284,104,196042,6,10,L|208:168,1,74.9999976158143
168,200,196266,2,10,L|88:276,1,74.9999976158143,0|0,0:0|0:0,0:0:0:0:
140,324,196490,2,10,L|216:328,1,74.9999976158143
284,360,196714,2,10,P|216:304|236:264,1,74.9999976158143
240,256,196937,2,10,B|304:212|284:228|292:192,1,74.9999976158143
340,148,197161,2,10,B|428:164|388:180|388:212|380:232,1,74.9999976158143
448,132,197385,5,10,0:0:0:0:
512,216,197497,1,10,0:0:0:0:
484,344,197609,1,10,0:0:0:0:
420,264,197721,1,10,0:0:0:0:
380,316,197833,6,10,L|284:296,1,74.9999976158143
296,224,198057,2,10,L|372:176,1,74.9999976158143
376,108,198281,2,10,L|329:48,1,74.9999976158143
256,56,198505,2,10,L|164:60,1,74.9999976158143
76,120,198728,6,10,B|68:196|124:160|132:172,1,74.9999976158143
128,196,198952,2,10,B|120:272|176:236|184:248,1,74.9999976158143
180,268,199176,2,10,B|172:344|228:308|236:320,1,74.9999976158143
260,316,199400,2,10,B|247:305|303:341|295:265,1,74.9999976158143,0|0,0:0|0:0,0:0:0:0:
308,200,199624,6,10,P|356:160|404:204,1,74.9999976158143
360,236,199848,2,10,B|352:312|408:276|416:288,1,74.9999976158143
472,292,200072,2,10,B|459:281|515:317|507:241,1,74.9999976158143
468,180,200296,2,10,B|480:169|424:205|432:129,1,74.9999976158143
504,56,200520,1,10,0:0:0:0:
384,124,200631,1,10,0:0:0:0:
368,24,200743,1,10,0:0:0:0:
252,56,200855,2,10,P|172:52|148:100,1,74.9999976158143
116,56,201079,2,10,P|196:52|220:100,1,74.9999976158143
188,120,201303,2,10,L|188:36,1,74.9999976158143
144,112,201527,5,0,0:0:0:0:
128,176,201639,1,10,0:0:0:0:
144,232,201751,2,10,P|176:312|204:304,1,74.9999976158143
212,264,201975,1,10,0:0:0:0:
276,304,202087,2,10,P|244:384|216:376,1,74.9999976158143
216,324,202311,1,10,0:0:0:0:
216,200,202423,6,10,B|288:248|288:240|300:232|288:236,1,74.9999976158143
324,328,202646,2,10,L|400:284,1,74.9999976158143
328,256,202870,2,10,B|400:304|400:296|412:288|400:292,1,74.9999976158143
396,364,203094,2,10,L|396:276,1,74.9999976158143
464,188,203318,2,10,B|400:244|352:212|376:228|372:228,1,74.9999976158143
404,144,203542,2,10,B|340:200|292:168|316:184|312:184,1,74.9999976158143
348,104,203766,2,10,B|284:160|236:128|260:144|256:144,1,74.9999976158143
296,64,203990,2,10,L|216:108,1,74.9999976158143
200,32,204214,6,10,L|244:144,1,74.9999976158143
156,76,204437,2,10,L|260:120,1,74.9999976158143
40,84,204661,1,10,0:0:0:0:
128,168,204773,1,10,0:0:0:0:
232,192,204885,2,10,L|188:304,1,74.9999976158143
260,312,205109,2,10,L|348:284,1,74.9999976158143
368,224,205333,2,10,P|324:188|352:148,1,74.9999976158143
296,108,205557,2,10,P|252:72|280:32,1,74.9999976158143
320,140,205781,6,10,B|288:172|264:172|228:152|204:120,1,74.9999976158143
260,236,206005,2,10,B|188:192|204:268|168:248|144:216,1,74.9999976158143
144,296,206228,2,10,B|112:328|88:328|52:308|28:276,1,74.9999976158143
92,240,206452,2,10,P|148:188|152:184,1,74.9999976158143
148,88,206676,5,10,0:0:0:0:
264,128,206788,2,10,L|340:124,1,74.9999976158143
264,124,207012,2,10,L|216:204,1,74.9999976158143
300,192,207236,2,10,L|412:184,1,74.9999976158143
412,252,207460,6,2,L|516:276,1,74.9999976158143
496,168,207684,1,2,0:0:0:0:
412,108,207796,1,2,0:0:0:0:
412,12,207908,2,2,L|324:40,1,74.9999976158143
268,44,208131,2,2,L|192:24,1,74.9999976158143
132,68,208355,1,2,0:0:0:0:
236,148,208467,1,2,0:0:0:0:
128,64,208691,6,0,L|216:92,1,74.9999976158143
232,148,208915,2,0,L|320:176,1,74.9999976158143,0|0,0:0|0:0,0:0:0:0:
416,256,209139,1,0,0:0:0:0:
416,100,209251,1,0,0:0:0:0:
148,4,209475,5,0,0:0:0:0:
48,292,209699,1,0,0:0:0:0:
208,164,209923,2,0,L|284:184,1,74.9999976158143
352,204,210146,2,0,L|279:184,1,74.9999976158143
248,252,210370,2,0,L|288:160,1,74.9999976158143
304,112,210594,2,0,L|276:192,1,74.9999976158143
279,182,210818,1,0,0:0:0:0:
279,182,210930,1,0,0:0:0:0:
279,182,211042,1,0,0:0:0:0:
279,182,211154,1,0,0:0:0:0:
279,182,211266,1,0,0:0:0:0:
300,108,211602,6,0,L|332:176,1,74.9999976158143
248,252,212049,2,0,L|280:320,1,74.9999976158143
216,184,212273,2,0,L|248:252,1,74.9999976158143
188,116,212497,6,0,L|220:184,1,74.9999976158143
252,252,212833,1,0,0:0:0:0:
400,228,213057,1,0,0:0:0:0:
420,80,213281,1,0,0:0:0:0:
