osu file format v13

[General]
AudioFilename: Delusion of tax.mp3
AudioLeadIn: 0
PreviewTime: -1
Countdown: 0
SampleSet: None
StackLeniency: 0.7
Mode: 0
LetterboxInBreaks: 1
WidescreenStoryboard: 0

[Editor]
DistanceSpacing: 1
BeatDivisor: 16
GridSize: 4
TimelineZoom: 1

[Metadata]
Title:Delusion of tax
TitleUnicode:レッド鎌税
Artist:wpcap
ArtistUnicode:wpcap
Creator:09kami
Version:Next Generation
Source:niconico
Tags:DECO*27 Vocaloid wpcap
BeatmapID:483010
BeatmapSetID:204553

[Difficulty]
HPDrainRate:5
CircleSize:4
OverallDifficulty:7
ApproachRate:9
SliderMultiplier:1.4
SliderTickRate:1

[Events]
//Background and Video events
0,0,"psb.png",0,0
//Break Periods
2,16354,22718
2,71428,78128
//Storyboard Layer 0 (Background)
//Storyboard Layer 1 (Fail)
//Storyboard Layer 2 (Pass)
//Storyboard Layer 3 (Foreground)
//Storyboard Sound Samples
//Background Colour Transformations
3,100,163,162,255

[TimingPoints]
1826,447.761194029851,4,3,1,65,1,0

[Colours]
Combo1 : 198,170,196
Combo2 : 88,153,49
Combo3 : 33,172,239
Combo4 : 221,45,124
Combo5 : 239,194,16
Combo6 : 65,141,146
Combo7 : 114,197,73

[HitObjects]
132,80,1826,5,2,0:0:0:0:
180,132,2049,1,2,0:0:0:0:
228,184,2273,2,2,L|152:224,2,70,0|0|0,0:0|0:0|0:0,0:0:0:0:
260,200,2833,2,2,L|344:128,1,105
288,64,3393,5,2,0:0:0:0:
316,88,3505,1,2,0:0:0:0:
340,112,3617,1,2,0:0:0:0:
364,136,3728,1,2,0:0:0:0:
392,156,3840,1,2,0:0:0:0:
420,176,3952,1,2,0:0:0:0:
348,176,4176,2,2,L|396:112,1,70,0|0,0:0|0:0,0:0:0:0:
456,56,4512,6,2,L|368:151,1,122.5,0|0,0:0|0:0,0:0:0:0:
336,68,5184,1,2,0:0:0:0:
368,132,5408,6,2,L|365:170,4,35,0|0|0|0|0,0:0|0:0|0:0|0:0|0:0,0:0:0:0:
436,180,5967,1,2,0:0:0:0:
364,228,6079,1,2,0:0:0:0:
440,256,6191,1,2,0:0:0:0:
392,316,6303,1,2,0:0:0:0:
312,288,6415,2,2,L|232:268,1,70
144,112,6975,5,2,0:0:0:0:
180,108,7087,1,2,0:0:0:0:
216,108,7199,1,2,0:0:0:0:
252,112,7311,5,2,0:0:0:0:
288,120,7423,1,2,0:0:0:0:
316,140,7534,1,2,0:0:0:0:
336,168,7646,6,2,L|276:212,1,70
272,244,7982,5,2,0:0:0:0:
256,276,8094,1,2,0:0:0:0:
224,288,8206,2,2,L|179:355,1,70
224,288,8542,6,2,L|140:272,1,70
128,232,8934,2,2,L|188:164,1,87.5
252,192,9437,6,2,B|280:224|300:232|296:240|292:248,1,70
272,272,9773,1,2,0:0:0:0:
240,252,9885,2,2,L|336:156,1,122.5,0|0,0:0|0:0,0:0:0:0:
252,212,10557,6,2,L|384:212,1,122.5,0|0,0:0|0:0,0:0:0:0:
348,148,11173,6,2,L|260:132,1,87.5
232,112,11564,1,2,0:0:0:0:
196,112,11676,2,2,L|140:80,1,52.5,0|0,0:0|0:0,0:0:0:0:
184,100,11956,2,2,L|220:76,2,35,0|0|0,0:0|0:0|0:0,0:0:0:0:
48,320,12572,5,2,0:0:0:0:
48,232,12796,2,2,L|112:276,1,70,0|0,0:0|0:0,0:0:0:0:
176,320,13243,6,2,L|100:272,1,87.5,0|0,0:0|0:0,0:0:0:0:
144,176,13859,5,2,0:0:0:0:
208,120,13971,1,0,0:0:0:0:
240,204,14139,2,2,L|284:148,3,70,0|0|0|0,0:0|0:0|0:0|0:0,0:0:0:0:
224,112,14923,1,2,0:0:0:0:
200,52,15034,1,2,0:0:0:0:
424,248,15258,5,2,0:0:0:0:
256,360,15482,1,2,0:0:0:0:
96,332,15706,1,2,0:0:0:0:
212,224,15930,1,2,0:0:0:0:
48,192,16154,1,2,0:0:0:0:
136,116,23318,6,4,L|216:140,1,70,0|0,0:0|0:0,0:0:0:0:
272,128,23766,2,4,L|312:100,3,35,0|0|0|2,0:0|0:0|0:0|0:0,0:0:0:0:
224,176,24214,1,4,0:0:0:0:
284,40,24549,6,4,L|316:64,1,35,4|4,0:0|0:0,0:0:0:0:
368,104,24885,2,4,L|400:132,2,35,0|0|0,0:0|0:0|0:0,0:0:0:0:
356,312,25333,5,4,0:0:0:0:
308,260,25445,1,4,0:0:0:0:
244,288,25557,1,4,0:0:0:0:
172,272,25669,1,4,0:0:0:0:
144,208,25781,1,4,0:0:0:0:
180,148,25893,1,4,0:0:0:0:
248,176,26005,6,4,L|204:216,2,52.5,0|0|0,0:0|0:0|0:0,0:0:0:0:
296,136,26452,1,0,0:0:0:0:
292,72,26564,1,4,0:0:0:0:
360,84,26676,1,4,0:0:0:0:
368,20,26788,1,4,0:0:0:0:
432,16,26900,1,4,0:0:0:0:
428,80,27012,1,4,0:0:0:0:
480,128,27124,1,4,0:0:0:0:
480,196,27236,1,4,0:0:0:0:
412,192,27348,1,4,0:0:0:0:
416,264,27460,1,4,0:0:0:0:
404,332,27572,1,4,0:0:0:0:
352,284,27796,6,4,L|256:196,1,122.5,0|0,0:0|0:0,0:0:0:0:
232,184,28271,1,0,0:0:0:0:
208,208,28355,2,4,L|124:268,1,87.5,0|0,0:0|0:0,0:0:0:0:
144,292,28747,6,4,L|56:232,1,105
104,340,29307,1,4,0:0:0:0:
104,252,29419,1,4,0:0:0:0:
108,168,29531,1,4,0:0:0:0:
112,84,29643,1,0,0:0:0:0:
192,136,29867,2,4,L|228:100,1,35,0|0,0:0|0:0,0:0:0:0:
268,192,30090,1,0,0:0:0:0:
376,192,30202,1,0,0:0:0:0:
356,128,30314,6,4,L|328:40,1,87.5
296,44,30706,6,4,L|256:68,1,35,0|0,0:0|0:0,0:0:0:0:
208,108,30930,1,4,0:0:0:0:
172,184,31042,1,4,0:0:0:0:
144,260,31154,1,4,0:0:0:0:
80,216,31266,1,4,0:0:0:0:
36,152,31378,1,4,0:0:0:0:
68,80,31490,1,4,0:0:0:0:
140,44,31602,1,4,0:0:0:0:
204,100,31714,5,4,0:0:0:0:
136,144,31826,2,4,L|136:216,1,70,0|0,0:0|0:0,0:0:0:0:
172,276,32161,5,4,0:0:0:0:
240,304,32273,1,4,0:0:0:0:
308,272,32385,1,4,0:0:0:0:
252,220,32497,1,4,0:0:0:0:
188,184,32609,5,4,0:0:0:0:
224,148,32721,1,4,0:0:0:0:
256,112,32833,1,4,0:0:0:0:
260,168,32945,1,4,0:0:0:0:
304,132,33057,1,4,0:0:0:0:
344,96,33169,1,4,0:0:0:0:
384,56,33281,1,4,0:0:0:0:
428,92,33393,6,4,L|456:116,2,35,0|0|0,0:0|0:0|0:0,0:0:0:0:
392,260,34064,6,4,L|300:312,1,105,0|0,0:0|0:0,0:0:0:0:
268,296,34512,2,4,L|325:256,1,70,0|0,0:0|0:0,0:0:0:0:
292,244,34848,2,4,L|212:284,1,87.5,0|0,0:0|0:0,0:0:0:0:
184,264,35240,6,4,L|272:216,1,87.5
296,164,35631,1,4,0:0:0:0:
280,96,35743,1,4,0:0:0:0:
232,48,35855,1,4,0:0:0:0:
164,48,35967,1,4,0:0:0:0:
104,80,36079,1,4,0:0:0:0:
56,128,36191,1,4,0:0:0:0:
64,192,36303,2,4,L|40:268,1,70,0|0,0:0|0:0,0:0:0:0:
68,324,36639,1,4,0:0:0:0:
136,312,36751,6,4,L|204:344,1,70
268,348,37087,1,4,0:0:0:0:
324,308,37199,1,4,0:0:0:0:
360,140,37646,5,12,0:0:0:0:
256,188,39437,5,4,0:0:0:0:
160,124,39773,6,4,L|160:204,1,70
160,256,40109,1,4,0:0:0:0:
160,320,40221,1,4,0:0:0:0:
92,320,40333,1,4,0:0:0:0:
108,168,40557,2,4,L|168:112,1,70
252,16,41228,5,4,0:0:0:0:
480,188,41564,1,4,0:0:0:0:
256,368,41900,1,4,0:0:0:0:
56,192,42572,5,4,0:0:0:0:
112,132,42796,1,4,0:0:0:0:
164,192,42908,1,4,0:0:0:0:
112,248,43020,1,4,0:0:0:0:
112,304,43131,1,4,0:0:0:0:
52,304,43243,1,4,0:0:0:0:
168,308,43579,5,4,0:0:0:0:
112,248,43803,1,4,0:0:0:0:
112,192,43915,1,4,0:0:0:0:
60,192,44027,1,4,0:0:0:0:
112,136,44139,1,4,0:0:0:0:
112,192,44251,1,4,0:0:0:0:
328,112,44475,6,4,L|376:144,2,52.5,0|0|0,0:0|0:0|0:0,0:0:0:0:
300,92,44923,2,4,L|332:116,2,35,0|0|0,0:0|0:0|0:0,0:0:0:0:
272,68,45258,2,4,L|152:72,1,105
96,72,45706,5,4,0:0:0:0:
96,140,45818,5,4,0:0:0:0:
96,212,45930,5,4,0:0:0:0:
96,284,46042,5,4,0:0:0:0:
96,352,46154,5,4,0:0:0:0:
152,312,46266,5,4,0:0:0:0:
216,300,46378,5,4,0:0:0:0:
180,248,46490,1,4,0:0:0:0:
248,244,46602,1,4,0:0:0:0:
212,192,46714,1,4,0:0:0:0:
280,192,46826,1,4,0:0:0:0:
240,140,46937,1,4,0:0:0:0:
308,144,47049,1,4,0:0:0:0:
268,92,47161,1,4,0:0:0:0:
336,96,47273,1,4,0:0:0:0:
296,44,47385,1,4,0:0:0:0:
360,44,47497,1,4,0:0:0:0:
396,92,47609,1,4,0:0:0:0:
368,152,47721,1,4,0:0:0:0:
256,192,47945,12,4,49064,0:0:0:0:
96,36,49512,5,4,0:0:0:0:
148,84,49624,1,4,0:0:0:0:
200,36,49736,1,4,0:0:0:0:
252,80,49848,1,4,0:0:0:0:
212,136,49960,1,4,0:0:0:0:
148,148,50072,1,4,0:0:0:0:
88,120,50184,6,4,L|24:152,1,70
64,200,50520,1,4,0:0:0:0:
8,224,50631,1,4,0:0:0:0:
64,264,50743,1,4,0:0:0:0:
132,284,50855,6,4,B|196:332|188:324|192:328,1,70
252,308,51191,1,4,0:0:0:0:
216,252,51303,1,4,0:0:0:0:
180,196,51415,1,4,0:0:0:0:
128,148,51527,1,4,0:0:0:0:
172,96,51639,1,4,0:0:0:0:
224,144,51751,1,4,0:0:0:0:
280,188,51863,1,4,0:0:0:0:
288,252,51975,6,4,B|324:240|336:224|344:208|344:196|320:184|320:176|320:168|328:160,1,105
364,124,52423,1,4,0:0:0:0:
324,68,52534,1,4,0:0:0:0:
256,72,52646,1,4,0:0:0:0:
144,12,52814,5,0,0:0:0:0:
8,8,52926,1,0,0:0:0:0:
72,112,53094,5,4,0:0:0:0:
120,168,53206,1,4,0:0:0:0:
176,216,53318,1,4,0:0:0:0:
128,268,53430,1,4,0:0:0:0:
168,328,53542,1,4,0:0:0:0:
240,340,53654,1,4,0:0:0:0:
296,304,53766,2,4,L|368:280,1,70
368,216,54102,5,4,0:0:0:0:
308,180,54214,1,4,0:0:0:0:
240,152,54326,1,4,0:0:0:0:
184,200,54437,1,0,0:0:0:0:
144,260,54549,6,12,L|188:200,1,70,2|2,0:0|0:0,0:0:0:0:
224,144,54885,1,4,0:0:0:0:
256,204,54997,5,4,0:0:0:0:
216,260,55109,1,4,0:0:0:0:
260,312,55221,1,4,0:0:0:0:
432,336,55445,5,4,0:0:0:0:
344,320,55557,1,4,0:0:0:0:
396,248,55669,1,4,0:0:0:0:
380,160,55781,1,4,0:0:0:0:
324,228,55893,5,4,0:0:0:0:
276,280,56005,1,4,0:0:0:0:
248,216,56117,1,4,0:0:0:0:
196,260,56228,1,4,0:0:0:0:
180,196,56340,1,4,0:0:0:0:
120,224,56452,1,4,0:0:0:0:
120,156,56564,1,4,0:0:0:0:
88,100,56676,6,4,L|164:100,1,70,0|0,0:0|0:0,0:0:0:0:
224,112,57012,1,4,0:0:0:0:
288,132,57124,6,4,L|288:228,1,87.5,0|0,0:0|0:0,0:0:0:0:
252,276,57572,1,4,0:0:0:0:
212,216,57684,1,4,0:0:0:0:
176,276,57796,1,4,0:0:0:0:
112,296,57908,1,4,0:0:0:0:
112,232,58020,6,4,L|108:128,1,105,0|0,0:0|0:0,0:0:0:0:
156,80,58467,5,4,0:0:0:0:
172,144,58579,1,4,0:0:0:0:
240,132,58691,2,4,L|308:164,1,70,0|0,0:0|0:0,0:0:0:0:
360,192,59027,1,4,0:0:0:0:
416,228,59139,2,4,L|392:280,1,52.5,0|0,0:0|0:0,0:0:0:0:
440,308,59391,1,0,0:0:0:0:
416,340,59475,6,4,L|312:372,1,105
256,328,59923,1,4,0:0:0:0:
192,304,60034,1,4,0:0:0:0:
248,256,60258,5,4,0:0:0:0:
184,244,60370,1,4,0:0:0:0:
124,276,60482,5,4,0:0:0:0:
124,204,60594,1,4,0:0:0:0:
128,132,60706,1,4,0:0:0:0:
408,176,60930,2,4,L|336:200,1,70
308,212,61266,2,4,L|260:244,1,52.5,0|0,0:0|0:0,0:0:0:0:
212,228,61602,5,4,0:0:0:0:
236,200,61714,1,4,0:0:0:0:
212,176,61826,1,4,0:0:0:0:
180,192,61937,1,4,0:0:0:0:
144,172,62049,1,0,0:0:0:0:
164,140,62161,1,0,0:0:0:0:
180,116,62273,6,4,L|124:44,1,87.5
100,32,62721,2,4,L|88:112,1,70,0|0,0:0|0:0,0:0:0:0:
80,168,63057,1,4,0:0:0:0:
152,212,63169,1,4,0:0:0:0:
140,288,63281,1,4,0:0:0:0:
216,316,63393,5,4,0:0:0:0:
288,356,63505,1,4,0:0:0:0:
360,316,63617,1,4,0:0:0:0:
232,224,63840,1,4,0:0:0:0:
288,280,63952,1,4,0:0:0:0:
352,232,64064,1,4,0:0:0:0:
296,180,64176,5,4,0:0:0:0:
360,132,64288,1,4,0:0:0:0:
304,80,64400,1,4,0:0:0:0:
240,116,64512,1,4,0:0:0:0:
180,68,64624,1,4,0:0:0:0:
112,40,64736,1,4,0:0:0:0:
64,92,64848,1,4,0:0:0:0:
104,152,64960,2,4,P|135:154|120:208,1,105
56,204,65408,5,4,0:0:0:0:
88,152,65520,1,4,0:0:0:0:
144,200,65631,1,4,0:0:0:0:
140,272,65743,1,4,0:0:0:0:
208,272,65855,1,4,0:0:0:0:
228,296,66079,5,4,0:0:0:0:
236,260,66191,1,4,0:0:0:0:
200,244,66303,5,4,0:0:0:0:
164,232,66415,1,4,0:0:0:0:
168,188,66527,1,4,0:0:0:0:
184,144,66639,1,4,0:0:0:0:
188,104,66751,1,4,0:0:0:0:
140,92,66863,1,4,0:0:0:0:
100,100,66975,1,4,0:0:0:0:
64,104,67087,1,4,0:0:0:0:
64,88,67199,1,4,0:0:0:0:
68,76,67311,1,4,0:0:0:0:
72,68,67423,1,4,0:0:0:0:
76,60,67534,1,4,0:0:0:0:
80,52,67646,1,4,0:0:0:0:
142,219,67870,6,4,B|162:127|250:227|302:127|366:223|458:131|306:95|222:27|142:123|246:271|190:191,1,455,0|0,0:0|0:0,0:0:0:0:
185,200,69437,5,4,0:0:0:0:
204,245,69549,5,4,0:0:0:0:
247,277,69661,5,4,0:0:0:0:
287,238,69773,5,4,0:0:0:0:
310,195,69885,5,4,0:0:0:0:
356,160,69997,5,4,0:0:0:0:
412,184,70109,5,4,0:0:0:0:
396,232,70221,6,4,L|336:288,1,70
296,320,70557,2,0,L|260:344,1,35,0|0,0:0|0:0,0:0:0:0:
88,120,71228,5,0,0:0:0:0:
256,216,78728,6,4,B|176:192|188:196,1,70
164,132,79064,1,4,0:0:0:0:
188,68,79176,1,4,0:0:0:0:
256,80,79288,2,4,B|304:136|332:84|324:88,1,87.5,0|0,0:0|0:0,0:0:0:0:
352,72,79652,1,0,0:0:0:0:
384,60,79736,2,4,B|408:56|420:60|440:64|448:72|460:88|444:80,1,70,0|0,0:0|0:0,0:0:0:0:
504,112,80072,1,4,0:0:0:0:
476,172,80184,6,4,B|468:217|476:205|488:225|416:248,1,105,0|0,0:0|0:0,0:0:0:0:
464,304,80631,1,4,0:0:0:0:
412,348,80743,1,4,0:0:0:0:
348,324,80855,1,4,0:0:0:0:
384,268,80967,1,4,0:0:0:0:
400,204,81079,1,4,0:0:0:0:
364,144,81191,1,4,0:0:0:0:
296,160,81303,1,4,0:0:0:0:
276,216,81415,6,4,L|296:272,1,52.5
264,284,81695,2,4,L|200:272,1,52.5
184,212,81975,1,4,0:0:0:0:
136,252,82087,1,4,0:0:0:0:
36,268,82423,6,4,L|76:200,1,70,0|0,0:0|0:0,0:0:0:0:
132,216,82758,2,4,L|188:156,1,70,0|0,0:0|0:0,0:0:0:0:
208,168,83066,1,0,0:0:0:0:
236,192,83150,2,4,L|272:144,1,52.5,0|0,0:0|0:0,0:0:0:0:
324,168,83430,2,4,L|392:112,1,87.5,0|0,0:0|0:0,0:0:0:0:
391,112,83794,1,0,0:0:0:0:
420,48,83878,5,4,0:0:0:0:
331,34,83990,1,4,0:0:0:0:
287,107,84102,1,4,0:0:0:0:
228,55,84214,1,4,0:0:0:0:
176,120,84326,1,4,0:0:0:0:
98,93,84437,1,4,0:0:0:0:
52,160,84549,1,4,0:0:0:0:
129,191,84661,1,4,0:0:0:0:
166,262,84773,1,4,0:0:0:0:
240,211,84885,5,4,0:0:0:0:
324,232,84997,1,4,0:0:0:0:
371,163,85109,1,4,0:0:0:0:
448,207,85221,1,4,0:0:0:0:
400,272,85333,1,4,0:0:0:0:
332,312,85445,2,12,L|284:328,1,35,0|0,0:0|0:0,0:0:0:0:
218,321,85893,6,4,P|138:309|130:305,1,87.5,0|0,0:0|0:0,0:0:0:0:
96,254,86284,1,4,0:0:0:0:
148,224,86396,2,4,P|192:236|236:208,1,87.5,0|0,0:0|0:0,0:0:0:0:
141,184,86788,2,4,B|85:192|45:192|69:120,1,122.5,0|0,0:0|0:0,0:0:0:0:
100,96,87292,2,4,L|176:84,1,70
224,104,87628,2,4,L|224:212,1,105
184,232,88076,2,0,L|272:260,1,87.5
328,237,88467,6,4,P|336:196|392:184,1,105,0|0,0:0|0:0,0:0:0:0:
448,212,88915,1,4,0:0:0:0:
420,268,89027,5,4,0:0:0:0:
361,225,89139,1,4,0:0:0:0:
332,160,89251,1,4,0:0:0:0:
372,104,89363,1,4,0:0:0:0:
440,116,89475,1,4,0:0:0:0:
476,56,89587,1,4,0:0:0:0:
408,48,89699,6,4,L|336:64,1,70,0|0,0:0|0:0,0:0:0:0:
283,77,90034,2,4,L|203:97,1,70,0|0,0:0|0:0,0:0:0:0:
159,125,90482,2,4,L|63:177,1,105,0|0,0:0|0:0,0:0:0:0:
16,216,90930,5,4,0:0:0:0:
56,268,91042,1,4,0:0:0:0:
112,236,91154,6,12,B|128:340|112:192,1,122.5,0|0,0:0|0:0,0:0:0:0:
112,200,91602,1,4,0:0:0:0:
256,192,91826,5,4,0:0:0:0:
220,160,91937,6,4,L|176:120,1,52.5,0|0,0:0|0:0,0:0:0:0:
296,160,92273,6,4,L|360:120,1,70,0|0,0:0|0:0,0:0:0:0:
296,232,92609,5,4,0:0:0:0:
332,280,92721,1,4,0:0:0:0:
369,328,92833,1,4,0:0:0:0:
224,240,93057,6,4,L|184:280,1,52.5,0|0,0:0|0:0,0:0:0:0:
156,320,93393,5,4,0:0:0:0:
124,312,93505,1,4,0:0:0:0:
112,280,93617,1,4,0:0:0:0:
112,244,93728,1,4,0:0:0:0:
108,208,93840,1,4,0:0:0:0:
104,172,93952,1,4,0:0:0:0:
100,136,94064,6,4,L|212:188,1,122.5
264,232,94736,5,4,0:0:0:0:
320,192,94848,2,4,L|376:160,1,52.5,0|0,0:0|0:0,0:0:0:0:
424,128,95128,2,4,L|460:160,1,35
488,208,95408,6,4,L|464:244|464:244,1,35,0|0,0:0|0:0,0:0:0:0:
432,288,95631,2,4,L|388:228,1,70,0|0,0:0|0:0,0:0:0:0:
468,232,95967,2,4,L|424:288,1,70,0|0,0:0|0:0,0:0:0:0:
356,292,96303,2,0,B|364:264|364:224|352:216,1,70
296,192,96639,2,4,L|224:148,1,70
172,132,96975,1,4,0:0:0:0:
200,72,97087,2,4,B|276:108|268:104,1,70
200,216,97534,5,4,0:0:0:0:
232,284,97646,1,4,0:0:0:0:
180,332,97758,1,4,0:0:0:0:
140,280,97870,2,4,L|96:220,1,70
40,272,98206,1,4,0:0:0:0:
32,196,98318,5,4,0:0:0:0:
80,136,98430,1,4,0:0:0:0:
128,196,98542,1,4,0:0:0:0:
200,188,98654,2,4,L|244:172,2,35
208,256,98990,5,4,0:0:0:0:
276,248,99102,1,4,0:0:0:0:
320,304,99214,2,4,L|380:264,1,70
432,224,99549,2,4,L|392:156,1,70
328,140,99885,1,0,0:0:0:0:
268,196,99997,2,0,P|236:156|196:156,1,87.5
140,120,100389,2,4,L|136:224,1,105
184,276,100837,1,4,0:0:0:0:
240,244,100949,1,4,0:0:0:0:
184,212,101061,6,4,L|56:212,1,122.5,0|0,0:0|0:0,0:0:0:0:
112,72,101564,1,4,0:0:0:0:
256,160,101676,1,0,0:0:0:0:
428,56,101844,6,4,L|308:124,1,122.5,0|0,0:0|0:0,0:0:0:0:
296,180,102348,1,4,0:0:0:0:
312,244,102460,2,4,L|388:320,1,105,0|0,0:0|0:0,0:0:0:0:
384,384,102908,1,4,0:0:0:0:
320,360,103020,2,4,L|220:308,1,105,0|0,0:0|0:0,0:0:0:0:
226,311,103467,1,4,0:0:0:0:
144,260,103579,5,4,0:0:0:0:
232,228,103691,1,4,0:0:0:0:
163,171,103803,2,4,P|215:107|247:111,1,122.5,0|0,0:0|0:0,0:0:0:0:
246,110,104307,1,4,0:0:0:0:
290,167,104419,6,4,P|259:221|215:219,1,105,0|0,0:0|0:0,0:0:0:0:
172,180,104867,6,4,B|140:120|148:112|136:120,1,70,0|0,0:0|0:0,0:0:0:0:
80,180,105202,1,4,0:0:0:0:
60,100,105314,1,4,0:0:0:0:
116,40,105594,5,12,0:0:0:0:
152,48,105706,1,12,0:0:0:0:
164,116,105930,1,12,0:0:0:0:
160,184,106154,2,4,L|212:240,1,70
244,228,106490,1,4,0:0:0:0:
268,252,106602,2,4,B|260:264|264:272|240:288|236:288|244:288|244:288|244:288,1,35
228,308,106826,5,4,0:0:0:0:
200,288,106937,1,4,0:0:0:0:
176,260,107049,1,4,0:0:0:0:
160,228,107161,1,4,0:0:0:0:
168,192,107273,1,4,0:0:0:0:
188,164,107385,1,4,0:0:0:0:
212,136,107497,1,4,0:0:0:0:
216,140,107609,6,4,B|200:160|188:176|180:200|172:220|168:244|180:256|180:268|204:280|216:280|232:288|248:292,1,192.5,0|0,0:0|0:0,0:0:0:0:
276,312,108337,1,0,0:0:0:0:
308,276,108449,2,4,P|336:234|344:234,1,52.5,0|0,0:0|0:0,0:0:0:0:
312,204,108728,2,4,P|352:172|352:152,1,70,0|0,0:0|0:0,0:0:0:0:
320,140,109064,2,4,P|316:92|328:76,1,70
340,60,109400,1,0,0:0:0:0:
168,56,109680,1,4,0:0:0:0:
104,260,109960,1,4,0:0:0:0:
272,292,110576,5,4,0:0:0:0:
216,244,110687,1,4,0:0:0:0:
164,196,110799,1,4,0:0:0:0:
212,88,111079,6,0,L|172:112,1,35,0|0,0:0|0:0,0:0:0:0:
264,144,111415,2,0,L|296:160,1,35,0|0,0:0|0:0,0:0:0:0:
436,176,111751,1,4,0:0:0:0:
376,232,111975,2,0,L|332:236,1,35,0|0,0:0|0:0,0:0:0:0:
292,184,112311,6,4,L|260:200,5,35,0|0|0|0|0|4,0:0|0:0|0:0|0:0|0:0|0:0,0:0:0:0:
276,168,112982,6,4,L|308:152,4,35,0|0|0|0|0,0:0|0:0|0:0|0:0|0:0,0:0:0:0:
268,132,113542,6,4,L|228:152,2,35,0|0|0,0:0|0:0|0:0,0:0:0:0:
168,204,114158,2,4,P|120:264|100:256,1,105,0|0,0:0|0:0,0:0:0:0:
108,224,114605,5,0,0:0:0:0:
76,212,114717,6,4,P|112:152|152:160,1,105,4|4,0:0|0:0,0:0:0:0:
244,40,115277,1,4,0:0:0:0:
244,104,115389,1,4,0:0:0:0:
244,168,115501,1,4,0:0:0:0:
248,232,115613,1,4,0:0:0:0:
248,296,115725,1,4,0:0:0:0:
184,192,117572,5,4,0:0:0:0:
148,192,117684,1,4,0:0:0:0:
152,228,117796,2,4,L|228:240,1,70
304,248,118131,1,4,0:0:0:0:
376,224,118243,1,4,0:0:0:0:
412,156,118355,1,4,0:0:0:0:
336,128,118467,5,4,0:0:0:0:
404,76,118579,1,4,0:0:0:0:
352,12,118691,1,4,0:0:0:0:
280,64,118803,1,4,0:0:0:0:
232,136,118915,6,4,L|196:174,1,52.5,0|0,0:0|0:0,0:0:0:0:
232,132,119195,2,4,L|172:120,1,52.5
84,160,119475,2,4,L|36:184,1,52.5,0|0,0:0|0:0,0:0:0:0:
88,164,119755,2,4,L|134:188,1,52.5
132,252,120034,5,4,0:0:0:0:
196,232,120146,2,4,B|220:220|240:212|260:216|272:232|260:268,1,105
200,296,120594,1,4,0:0:0:0:
244,352,120706,5,4,0:0:0:0:
304,328,120818,1,4,0:0:0:0:
264,268,120930,1,4,0:0:0:0:
284,196,121042,1,4,0:0:0:0:
344,244,121154,1,4,0:0:0:0:
368,180,121266,1,4,0:0:0:0:
432,148,121378,1,4,0:0:0:0:
420,76,121490,1,4,0:0:0:0:
352,88,121602,6,4,L|276:104,1,70
256,124,121937,2,4,L|276:184,1,52.5
308,184,122217,2,4,L|384:179,1,70
428,84,122665,5,4,0:0:0:0:
356,48,122777,1,4,0:0:0:0:
280,60,122889,1,4,0:0:0:0:
220,104,123001,1,4,0:0:0:0:
176,164,123113,2,4,L|176:264,1,87.5
200,280,123505,6,4,P|276:312|288:316,1,87.5,0|0,0:0|0:0,0:0:0:0:
352,328,123896,1,4,0:0:0:0:
352,292,124008,1,4,0:0:0:0:
316,288,124120,1,4,0:0:0:0:
320,252,124232,1,4,0:0:0:0:
284,108,124512,5,4,0:0:0:0:
260,132,124624,2,4,B|316:180|280:268|280:268|256:316|244:300|224:300,1,210
216,272,125408,1,12,0:0:0:0:
208,236,125520,1,4,0:0:0:0:
224,204,125631,1,4,0:0:0:0:
248,180,125743,1,4,0:0:0:0:
284,172,125855,1,4,0:0:0:0:
316,188,125967,1,4,0:0:0:0:
344,208,126079,1,4,0:0:0:0:
360,240,126191,1,4,0:0:0:0:
328,316,126303,5,4,0:0:0:0:
300,232,126415,1,4,0:0:0:0:
224,272,126527,1,4,0:0:0:0:
168,200,126639,1,4,0:0:0:0:
112,256,126751,1,4,0:0:0:0:
168,320,126863,6,4,P|240:340|248:332,1,87.5,0|0,0:0|0:0,0:0:0:0:
248,288,127311,2,4,P|316:276|320:284,1,87.5,0|0,0:0|0:0,0:0:0:0:
324,292,127646,2,4,L|332:316,4,17.5,0|0|0|0|0,0:0|0:0|0:0|0:0|0:0,0:0:0:0:
432,328,128094,5,4,0:0:0:0:
396,272,128206,1,4,0:0:0:0:
432,216,128318,1,4,0:0:0:0:
384,176,128430,1,4,0:0:0:0:
320,184,128542,1,4,0:0:0:0:
300,240,128766,5,0,0:0:0:0:
284,96,128990,1,4,0:0:0:0:
352,120,129102,1,4,0:0:0:0:
388,180,129326,5,4,0:0:0:0:
440,136,129437,1,4,0:0:0:0:
428,64,129549,1,4,0:0:0:0:
368,28,129661,1,4,0:0:0:0:
300,20,129773,1,4,0:0:0:0:
240,52,129885,1,4,0:0:0:0:
208,112,129997,1,4,0:0:0:0:
232,180,130109,1,0,0:0:0:0:
292,164,130221,6,4,B|280:112|320:84|356:96|372:152,1,140
424,184,130781,1,4,0:0:0:0:
368,220,130893,6,4,L|308:268,1,70,0|0,0:0|0:0,0:0:0:0:
264,308,131228,2,4,L|193:275,1,70
152,232,131564,2,4,L|120:135,1,87.5
164,100,132012,2,4,L|244:44,1,87.5
264,72,132404,5,4,0:0:0:0:
244,100,132516,1,4,0:0:0:0:
272,124,132628,6,4,L|248:184,1,52.5,0|0,0:0|0:0,0:0:0:0:
280,196,132908,2,4,L|240:256,1,70
208,264,133243,2,4,L|136:220,1,70
112,192,133635,5,4,0:0:0:0:
112,228,133747,2,12,P|115:245|115:262,1,35,0|0,0:0|0:0,0:0:0:0:
180,320,134139,1,4,0:0:0:0:
248,276,134251,6,4,L|324:288,1,70
276,208,134699,1,4,0:0:0:0:
336,152,134811,1,4,0:0:0:0:
288,96,134923,1,4,0:0:0:0:
224,132,135034,1,4,0:0:0:0:
160,92,135146,1,4,0:0:0:0:
148,160,135258,6,4,L|168:184,5,17.5,0|0|0|0|0|0,0:0|0:0|0:0|0:0|0:0|0:0,0:0:0:0:
244,168,135594,2,4,L|228:176,5,17.5,0|0|0|0|0|0,0:0|0:0|0:0|0:0|0:0|0:0,0:0:0:0:
368,252,136154,1,12,0:0:0:0:
304,280,136266,5,4,0:0:0:0:
240,304,136378,1,4,0:0:0:0:
176,280,136490,1,4,0:0:0:0:
120,240,136602,1,4,0:0:0:0:
60,208,136714,1,4,0:0:0:0:
72,144,136826,2,4,L|148:144,1,70
212,144,137161,1,4,0:0:0:0:
280,148,137273,1,4,0:0:0:0:
348,148,137385,1,4,0:0:0:0:
412,152,137497,1,4,0:0:0:0:
476,156,137609,1,4,0:0:0:0:
256,280,137721,5,4,0:0:0:0:
252,216,137833,2,4,L|264:128,1,87.5,0|0,0:0|0:0,0:0:0:0:
200,152,138225,1,12,0:0:0:0:
180,88,138337,6,4,L|272:88,1,87.5
348,88,138728,1,4,0:0:0:0:
424,88,138840,1,4,0:0:0:0:
92,104,139736,6,12,P|228:72|272:56,1,175
288,36,140408,6,0,P|304:60|300:64,8,35,0|0|0|0|0|0|0|0|0,0:0|0:0|0:0|0:0|0:0|0:0|0:0|0:0|0:0,0:0:0:0:
276,68,141415,6,4,L|292:252,1,175,0|0,0:0|0:0,0:0:0:0:
280,276,142087,6,0,L|244:280,7,35,0|0|0|0|0|0|0|0,0:0|0:0|0:0|0:0|0:0|0:0|0:0|0:0,0:0:0:0:
244,244,142982,6,4,L|59:109,1,227.5,0|0,0:0|0:0,0:0:0:0:
92,100,143822,6,0,L|71:68,7,35,0|0|0|0|0|0|0|0,0:0|0:0|0:0|0:0|0:0|0:0|0:0|0:0,0:0:0:0:
100,96,144717,6,4,L|355:91,1,245,0|0,0:0|0:0,0:0:0:0:
364,120,145613,6,0,L|372:160,8,35,0|0|0|0|0|0|0|0|0,0:0|0:0|0:0|0:0|0:0|0:0|0:0|0:0|0:0,0:0:0:0:
332,132,146620,6,4,L|166:244,1,192.5,0|0,0:0|0:0,0:0:0:0:
196,264,147348,6,0,L|224:296,9,35,0|0|0|0|0|0|0|0|0|0,0:0|0:0|0:0|0:0|0:0|0:0|0:0|0:0|0:0|0:0,0:0:0:0:
232,256,148467,6,4,L|426:165,1,210,0|0,0:0|0:0,0:0:0:0:
416,132,149251,6,0,L|448:172,7,35,0|0|0|0|0|0|0|0,0:0|0:0|0:0|0:0|0:0|0:0|0:0|0:0,0:0:0:0:
380,72,150370,6,4,L|324:115,1,70
296,96,150706,6,4,L|244:132,1,52.5,0|0,0:0|0:0,0:0:0:0:
228,172,151042,5,4,0:0:0:0:
280,204,151154,2,4,L|272:276,1,70
236,288,151490,6,4,L|192:228,1,70
160,180,151826,1,4,0:0:0:0:
128,128,151937,1,4,0:0:0:0:
104,76,152049,6,4,P|152:52|180:56,1,70,0|0,0:0|0:0,0:0:0:0:
128,12,152385,1,4,0:0:0:0:
176,64,152497,1,4,0:0:0:0:
208,12,152609,1,4,0:0:0:0:
248,56,152721,1,4,0:0:0:0:
232,124,152833,6,0,P|216:140|212:140,10,17.5,0|0|0|0|0|0|0|0|0|0|0,0:0|0:0|0:0|0:0|0:0|0:0|0:0|0:0|0:0|0:0|0:0,0:0:0:0:
204,168,153505,1,4,0:0:0:0:
152,180,153617,1,4,0:0:0:0:
112,156,153728,1,4,0:0:0:0:
88,108,153840,1,4,0:0:0:0:
124,48,153952,1,4,0:0:0:0:
208,36,154064,1,4,0:0:0:0:
316,32,154176,1,4,0:0:0:0:
248,124,154288,1,4,0:0:0:0:
276,66,154400,6,12,L|373:161,1,122.5,0|0,0:0|0:0,0:0:0:0:
387,171,154960,1,4,0:0:0:0:
387,171,155072,1,4,0:0:0:0:
387,171,155184,1,4,0:0:0:0:
387,171,155296,1,4,0:0:0:0:
387,171,155408,1,4,0:0:0:0:
387,171,155520,1,4,0:0:0:0:
387,171,155631,1,4,0:0:0:0:
387,171,155743,1,4,0:0:0:0:
404,200,155855,6,12,L|304:308,1,140,0|0,0:0|0:0,0:0:0:0:
272,304,156415,2,12,L|168:216,1,122.5,0|0,0:0|0:0,0:0:0:0:
280,52,157087,2,4,L|288:100,1,35
296,152,157311,5,4,0:0:0:0:
304,216,157423,1,4,0:0:0:0:
312,288,157534,1,4,0:0:0:0:
268,264,157646,1,4,0:0:0:0:
336,232,157758,1,4,0:0:0:0:
272,192,157870,1,4,0:0:0:0:
336,160,157982,1,4,0:0:0:0:
272,120,158094,1,4,0:0:0:0:
212,80,158206,1,4,0:0:0:0:
232,24,158318,6,4,B|260:76|260:12|276:-16|280:8|296:12|312:12|332:12|352:20|364:32|376:16|360:64|360:48,1,175
324,88,158990,1,4,0:0:0:0:
260,116,159102,1,4,0:0:0:0:
328,156,159214,1,4,0:0:0:0:
268,188,159326,1,4,0:0:0:0:
332,224,159437,1,4,0:0:0:0:
272,256,159549,1,4,0:0:0:0:
328,288,159661,1,4,0:0:0:0:
272,324,159773,1,4,0:0:0:0:
216,340,159885,6,4,B|248:376|272:384|292:388|292:388|376:360|336:372|344:360|368:368,1,157.5,0|0,0:0|0:0,0:0:0:0:
384,344,160557,1,4,0:0:0:0:
416,312,160669,1,4,0:0:0:0:
384,280,160781,1,4,0:0:0:0:
416,248,160893,1,4,0:0:0:0:
384,212,161005,1,4,0:0:0:0:
420,184,161117,1,4,0:0:0:0:
424,132,161228,1,4,0:0:0:0:
392,120,161340,6,4,L|332:112,1,52.5
304,116,161620,2,4,L|268:144,1,35
244,156,161844,2,0,L|172:212,1,87.5
168,244,162236,5,4,0:0:0:0:
180,276,162348,2,4,L|260:256,1,70,0|0,0:0|0:0,0:0:0:0:
276,352,162684,2,4,L|348:324,1,70
344,292,163020,6,4,L|420:252,1,70
416,232,163355,2,4,L|353:200,1,70,0|0,0:0|0:0,0:0:0:0:
384,160,163691,1,4,0:0:0:0:
348,104,163803,1,4,0:0:0:0:
280,108,163915,1,4,0:0:0:0:
232,160,164027,1,4,0:0:0:0:
224,228,164139,5,4,0:0:0:0:
288,188,164251,1,4,0:0:0:0:
344,236,164363,1,4,0:0:0:0:
360,308,164475,1,4,0:0:0:0:
296,340,164587,1,4,0:0:0:0:
240,296,164699,1,4,0:0:0:0:
192,344,164811,1,4,0:0:0:0:
140,296,164923,1,4,0:0:0:0:
144,232,165034,2,4,L|144:152,1,70
208,80,165482,5,4,0:0:0:0:
212,208,165594,1,4,0:0:0:0:
216,340,165706,1,4,0:0:0:0:
112,216,165818,6,4,P|64:156|72:132,1,105,0|0,0:0|0:0,0:0:0:0:
104,148,166266,1,4,0:0:0:0:
140,148,166378,6,4,P|160:80|128:56,1,105,0|0,0:0|0:0,0:0:0:0:
144,28,166826,2,4,B|168:12|176:0|200:16|212:40,1,70
32,76,168169,5,4,0:0:0:0:
60,96,168281,2,4,L|132:132,1,70
156,140,168617,2,4,L|238:141,1,70,0|0,0:0|0:0,0:0:0:0:
260,128,168952,2,4,L|320:57,1,87.5,0|0,0:0|0:0,0:0:0:0:
268,40,169400,1,4,0:0:0:0:
232,40,169512,6,4,L|236:116,1,70,0|0,0:0|0:0,0:0:0:0:
200,112,169848,1,4,0:0:0:0:
163,171,169960,1,4,0:0:0:0:
237,168,170072,1,4,0:0:0:0:
268,232,170184,1,4,0:0:0:0:
200,232,170296,1,4,0:0:0:0:
132,232,170408,1,4,0:0:0:0:
168,292,170520,1,4,0:0:0:0:
236,292,170631,1,4,0:0:0:0:
202,227,170743,6,4,B|201:124|201:330,1,157.5
124,300,171471,1,4,0:0:0:0:
96,240,171583,5,4,0:0:0:0:
80,312,171695,1,4,0:0:0:0:
144,352,171807,1,4,0:0:0:0:
180,352,171919,6,4,L|216:324,1,35,0|0,0:0|0:0,0:0:0:0:
220,296,172143,2,0,L|292:288,1,70
352,252,172478,1,4,0:0:0:0:
400,228,172590,6,4,L|356:172,1,70,0|0,0:0|0:0,0:0:0:0:
372,120,172926,1,4,0:0:0:0:
424,152,173038,2,4,L|456:196,1,52.5
488,140,173318,5,4,0:0:0:0:
472,76,173486,2,4,L|400:80,1,70,0|0,0:0|0:0,0:0:0:0:
340,100,173822,6,4,L|371:218,1,122.5
380,288,174326,1,4,0:0:0:0:
312,288,174437,1,4,0:0:0:0:
304,188,174661,5,4,0:0:0:0:
320,128,174773,1,4,0:0:0:0:
336,24,174997,5,12,0:0:0:0:
276,12,175109,1,4,0:0:0:0:
244,64,175221,1,12,0:0:0:0:
280,116,175333,5,4,0:0:0:0:
236,164,175445,1,4,0:0:0:0:
240,224,175557,1,4,0:0:0:0:
308,224,175669,1,4,0:0:0:0:
368,224,175781,1,4,0:0:0:0:
350,290,175893,1,4,0:0:0:0:
328,352,176005,1,4,0:0:0:0:
256,192,176228,12,4,177348,0:0:0:0:
256,196,177460,5,4,0:0:0:0:
188,140,178467,6,4,P|208:112|224:140,1,70,0|0,0:0|0:0,0:0:0:0:
236,192,178803,2,4,P|260:196|288:168,1,52.5
288,248,179139,1,4,0:0:0:0:
232,284,179251,1,4,0:0:0:0:
188,228,179363,6,4,L|164:192,1,35
148,144,179587,2,4,L|184:122,1,35
224,96,179811,2,4,L|168:44,1,70
72,56,180258,5,4,0:0:0:0:
72,128,180370,1,4,0:0:0:0:
72,196,180482,1,4,0:0:0:0:
68,265,180594,6,4,P|34:224|9:167,1,105,0|0,0:0|0:0,0:0:0:0:
76,188,181042,2,4,L|145:148,1,70,0|0,0:0|0:0,0:0:0:0:
76,114,181378,2,4,L|10:72,1,70,0|0,0:0|0:0,0:0:0:0:
16,8,181714,1,4,0:0:0:0:
72,44,181826,1,4,0:0:0:0:
136,80,181937,1,4,0:0:0:0:
152,144,182049,6,4,P|173:182|189:189,1,52.5,0|0,0:0|0:0,0:0:0:0:
136,240,182329,2,4,P|165:284|208:328,1,105,0|0,0:0|0:0,0:0:0:0:
256,279,182777,1,4,0:0:0:0:
296,224,182889,6,4,L|388:248,1,87.5
444,276,183281,1,4,0:0:0:0:
444,208,183393,1,4,0:0:0:0:
448,136,183505,1,4,0:0:0:0:
380,148,183617,6,4,L|285:153,1,87.5
232,168,184064,2,4,B|189:181|155:188|159:234|182:235|192:252,1,122.5,0|0,0:0|0:0,0:0:0:0:
236,288,184568,6,4,L|260:283,6,17.5,0|0|0|0|0|0|0,0:0|0:0|0:0|0:0|0:0|0:0|0:0,0:0:0:0:
212,264,185016,6,4,P|192:265|190:265,5,17.5,0|0|0|0|0|0,0:0|0:0|0:0|0:0|0:0|0:0,0:0:0:0:
208,232,185408,6,4,L|251:231,4,35,0|0|0|0|0,0:0|0:0|0:0|0:0|0:0,0:0:0:0:
141,160,185967,5,4,0:0:0:0:
272,286,186079,1,4,0:0:0:0:
137,296,186191,1,4,0:0:0:0:
54,226,186303,5,4,0:0:0:0:
211,364,186415,1,4,0:0:0:0:
54,368,186527,1,4,0:0:0:0:
137,296,186639,5,4,0:0:0:0:
209,266,186751,2,4,B|232:271|266:252|250:220|251:217,1,70,0|0,0:0|0:0,0:0:0:0:
228,200,187087,1,4,0:0:0:0:
260,184,187199,1,4,0:0:0:0:
296,192,187311,1,4,0:0:0:0:
324,212,187423,1,4,0:0:0:0:
332,244,187534,1,4,0:0:0:0:
324,280,187646,1,4,0:0:0:0:
244,316,187870,6,4,L|336:192,1,140,0|0,0:0|0:0,0:0:0:0:
360,164,188430,5,4,0:0:0:0:
400,112,188542,5,4,0:0:0:0:
444,64,188654,5,4,0:0:0:0:
488,16,188766,5,4,0:0:0:0:
424,4,188878,5,4,0:0:0:0:
236,60,189214,6,0,L|192:124,1,70
232,168,189661,6,4,L|148:168,1,70
112,208,189997,1,4,0:0:0:0:
160,260,190109,1,4,0:0:0:0:
232,260,190221,1,4,0:0:0:0:
248,192,190333,2,4,L|264:120,1,70
312,156,190893,5,4,0:0:0:0:
288,216,191005,2,4,L|337:254,1,52.5,2|2,0:0|0:0,0:0:0:0:
336,284,191284,2,4,L|300:320,1,35
280,296,191508,2,4,L|248:332,1,35
212,252,191788,5,4,0:0:0:0:
144,264,191900,1,4,0:0:0:0:
168,328,192012,2,0,L|240:364,1,70
296,368,192348,1,4,0:0:0:0:
364,340,192460,5,4,0:0:0:0:
424,300,192572,5,4,0:0:0:0:
500,276,192684,1,4,0:0:0:0:
464,208,192796,2,0,B|456:184|444:164|396:176,1,70
344,184,193131,1,4,0:0:0:0:
344,252,193243,1,4,0:0:0:0:
284,220,193355,1,4,0:0:0:0:
236,272,193467,1,4,0:0:0:0:
176,236,193579,1,4,0:0:0:0:
176,168,193691,1,4,0:0:0:0:
248,164,193803,5,4,0:0:0:0:
200,112,193915,1,4,0:0:0:0:
132,116,194027,1,4,0:0:0:0:
64,116,194139,1,4,0:0:0:0:
68,52,194251,1,4,0:0:0:0:
136,56,194363,1,4,0:0:0:0:
204,52,194475,1,4,0:0:0:0:
272,52,194587,1,4,0:0:0:0:
332,20,194699,1,4,0:0:0:0:
360,80,194811,1,4,0:0:0:0:
308,120,194923,6,4,L|243:161,1,70,0|0,0:0|0:0,0:0:0:0:
188,128,195258,2,4,L|143:102,2,52.5,0|0|0,0:0|0:0|0:0,0:0:0:0:
176,196,195706,1,4,0:0:0:0:
108,208,195818,1,4,0:0:0:0:
92,272,195930,1,4,0:0:0:0:
140,316,196042,1,4,0:0:0:0:
192,264,196154,6,4,L|220:252,6,17.5,0|0|0|0|0|0|0,0:0|0:0|0:0|0:0|0:0|0:0|0:0,0:0:0:0:
252,296,196602,6,4,L|320:216,1,105
384,228,197049,6,4,P|426:244|433:223,1,70
416,160,197385,1,4,0:0:0:0:
372,100,197497,1,4,0:0:0:0:
324,160,197609,2,4,B|297:167|279:168|264:158|268:149,1,52.5
180,132,197945,5,4,0:0:0:0:
125,203,198057,1,4,0:0:0:0:
200,232,198169,1,4,0:0:0:0:
144,288,198281,5,4,0:0:0:0:
216,276,198393,1,4,0:0:0:0:
248,332,198505,1,4,0:0:0:0:
304,296,198617,6,4,L|276:268,1,35
240,216,198840,1,4,0:0:0:0:
472,252,199064,1,4,0:0:0:0:
380,188,199176,1,4,0:0:0:0:
468,128,199288,1,4,0:0:0:0:
372,72,199400,1,4,0:0:0:0:
452,8,199512,1,4,0:0:0:0:
336,8,199624,1,4,0:0:0:0:
232,40,199736,1,4,0:0:0:0:
308,88,199848,1,4,0:0:0:0:
228,156,199960,1,4,0:0:0:0:
148,92,200072,1,4,0:0:0:0:
84,128,200184,5,4,0:0:0:0:
180,196,200296,1,4,0:0:0:0:
288,256,200408,1,4,0:0:0:0:
300,316,200520,5,4,0:0:0:0:
184,264,200631,1,4,0:0:0:0:
88,192,200743,1,4,0:0:0:0:
120,176,200855,6,4,L|214:182,1,87.5,0|0,0:0|0:0,0:0:0:0:
220,232,201303,6,4,L|147:229,1,70
140,132,201751,1,4,0:0:0:0:
200,160,201863,5,4,0:0:0:0:
264,188,201975,1,4,0:0:0:0:
376,88,202199,6,4,L|329:100,3,35,0|0|0|0,0:0|0:0|0:0|0:0,0:0:0:0:
296,168,202646,5,4,0:0:0:0:
220,240,202758,1,4,0:0:0:0:
140,304,202982,6,4,L|139:334,2,17.5,0|0|0,0:0|0:0|0:0,0:0:0:0:
100,216,203262,5,4,0:0:0:0:
40,288,203374,1,4,0:0:0:0:
108,348,203486,1,4,0:0:0:0:
180,276,203654,6,4,B|172:197|170:273|186:279|175:235|180:272|180:283,1,70,0|0,0:0|0:0,0:0:0:0:
236,316,203990,2,4,B|281:284|241:313|281:288|234:312,1,52.5,0|0,0:0|0:0,0:0:0:0:
224,368,204270,2,4,B|267:412|219:371|250:401|218:366,1,52.5
168,384,204549,2,4,B|166:429|166:392|166:423|168:381,1,52.5,0|0,0:0|0:0,0:0:0:0:
136,324,204829,2,4,B|86:351|133:327|96:350|145:319,1,52.5,0|0,0:0|0:0,0:0:0:0:
200,56,205221,5,4,0:0:0:0:
140,108,205333,1,4,0:0:0:0:
204,160,205445,1,4,0:0:0:0:
240,232,205557,1,4,0:0:0:0:
196,296,205669,1,4,0:0:0:0:
252,340,205781,1,4,0:0:0:0:
320,296,206005,6,4,L|356:260,1,35
336,236,206228,6,4,L|362:212,1,35
376,160,206508,6,4,L|353:133,1,35
296,120,206788,6,4,L|269:143,1,35,0|0,0:0|0:0,0:0:0:0:
104,160,207236,2,4,L|224:172,1,105
220,200,207684,2,4,L|140:264,1,87.5
136,316,208076,1,0,0:0:0:0:
80,296,208187,2,4,L|16:240,1,70
8,184,208523,1,4,0:0:0:0:
52,128,208635,1,4,0:0:0:0:
88,188,208747,1,4,0:0:0:0:
128,128,208859,1,4,0:0:0:0:
168,188,208971,5,4,0:0:0:0:
212,240,209083,1,4,0:0:0:0:
80,296,209363,5,4,0:0:0:0:
132,248,209531,2,4,L|196:284,1,70,0|0,0:0|0:0,0:0:0:0:
408,232,210034,5,4,0:0:0:0:
324,224,210146,1,4,0:0:0:0:
360,148,210258,1,4,0:0:0:0:
276,136,210370,1,4,0:0:0:0:
316,64,210482,1,4,0:0:0:0:
316,152,210706,6,4,L|272:208,1,70,0|0,0:0|0:0,0:0:0:0:
280,284,211042,5,4,0:0:0:0:
200,280,211154,1,4,0:0:0:0:
156,216,211266,1,4,0:0:0:0:
196,148,211378,1,4,0:0:0:0:
264,96,211490,1,4,0:0:0:0:
344,88,211602,1,4,0:0:0:0:
424,120,211714,1,4,0:0:0:0:
484,176,211826,1,4,0:0:0:0:
404,208,211937,6,4,L|384:188,17,17.5,0|0|0|0|0|0|0|0|0|0|0|0|0|0|0|0|0|0,0:0|0:0|0:0|0:0|0:0|0:0|0:0|0:0|0:0|0:0|0:0|0:0|0:0|0:0|0:0|0:0|0:0|0:0,0:0:0:0:
256,192,213169,5,4,0:0:0:0:
