osu file format v12

[General]
AudioFilename: uh why.mp3
AudioLeadIn: 1000
PreviewTime: 87078
Countdown: 0
SampleSet: Soft
StackLeniency: 0.7
Mode: 2
LetterboxInBreaks: 1
WidescreenStoryboard: 1

[Editor]
Bookmarks: 19710,30938,64622
DistanceSpacing: 1
BeatDivisor: 4
GridSize: 16

[Metadata]
Title:World's End Dancehall
TitleUnicode:ワールズエンド・ダンスホール
Artist:wowaka
ArtistUnicode:wowaka
Creator:CLSW
Version:Cup
Source:Nico Nico Douga
Tags:Genjitsutouhi-P Nico Nico Chorus VOCALOID Hatsune Miku Megurine Luka どM あにま 【蓮】 タイ焼き屋 vip店長 iciko LOLI.COM Kagamine Rin Kagamine Len newtoniorock8
BeatmapID:284931
BeatmapSetID:108037

[Difficulty]
HPDrainRate:3
CircleSize:3
OverallDifficulty:5
ApproachRate:5
SliderMultiplier:1
SliderTickRate:2

[Events]
//Background and Video events
0,0,"2365.jpg",0,0
//Break Periods
2,19909,29738
2,53593,63422
2,109733,119562
//Storyboard Layer 0 (Background)
//Storyboard Layer 1 (Fail)
//Storyboard Layer 2 (Pass)
//Storyboard Layer 3 (Foreground)
//Storyboard Sound Samples
//Background Colour Transformations
3,100,163,162,255

[TimingPoints]
2868,350.877192982456,4,2,0,50,1,0
8483,-100,4,1,0,80,0,0
74446,-66.6666666666667,4,1,0,80,0,0
75499,-66.6666666666667,4,1,0,80,0,0
75850,-100,4,1,0,80,0,0
86376,-50,4,1,0,80,0,0
87078,-100,4,1,0,80,0,1
109534,-100,4,1,0,80,0,0
120762,-133.333333333333,4,1,0,40,0,0
130587,-100,4,1,0,80,0,0
131990,-100,4,1,0,80,0,0
154446,-100,4,1,0,80,0,1
176552,-100,4,1,0,80,0,0
176903,-100,4,1,0,80,0,1
198657,-100,4,1,0,30,0,0
199183,-100,4,1,0,80,0,0
210587,-100,4,2,0,60,0,0

[Colours]
Combo1 : 255,255,255
Combo2 : 128,255,255

[HitObjects]
256,192,3394,12,2,8218,0:0:0:0:
256,144,8482,5,4,0:0:0:0:
64,144,9008,2,8,L|48:320,1,150,0|8,0:0|0:0,0:0:0:0:
256,144,9885,5,0,0:0:0:0:
448,144,10411,2,0,L|464:320,1,150,8|2,0:0|0:0,0:0:0:0:
256,224,11289,5,0,0:0:0:0:
144,112,11815,1,0,0:0:0:0:
368,112,12341,1,8,0:0:0:0:
256,176,12692,6,0,L|80:176,2,150,0|8|2,0:0|0:0|0:0,0:0:0:0:
448,192,14096,5,0,0:0:0:0:
256,160,14622,1,0,0:0:0:0:
64,192,15148,1,8,0:0:0:0:
256,80,15499,6,0,L|384:208,2,150,0|0|2,0:0|0:0|0:0,0:0:0:0:
96,128,16903,6,0,L|256:128,2,150,0|8|0,0:0|0:0|0:0,0:0:0:0:
256,192,18306,5,0,0:0:0:0:
416,192,18832,1,8,0:0:0:0:
256,192,19359,2,0,L|160:144,1,100,2|4,0:0|0:0,0:0:0:0:
160,144,30938,5,4,0:0:0:0:
400,144,31464,2,0,L|240:96,1,150,8|0,0:0|0:0,0:0:0:0:
32,80,32341,6,0,L|192:128,2,150,0|8|0,0:0|0:0|0:0,0:0:0:0:
256,80,33745,6,0,L|256:256,1,150,0|8,0:0|0:0,0:0:0:0:
160,160,34797,1,0,0:0:0:0:
352,160,35148,2,0,L|176:112,2,150,0|8|0,0:0|0:0|0:0,0:0:0:0:
208,128,36552,6,0,L|208:288,2,150,0|8|0,0:0|0:0|0:0,0:0:0:0:
335,107,37955,6,0,L|192:64,2,150,0|8|0,0:0|0:0|0:0,0:0:0:0:
480,192,39359,6,0,L|304:144,2,150,0|8|0,0:0|0:0|0:0,0:0:0:0:
256,160,40762,6,0,L|80:16,1,200,0|2,0:0|0:0,0:0:0:0:
256,32,41815,1,8,0:0:0:0:
416,96,42166,6,0,L|256:48,2,150,0|8|0,0:0|0:0|0:0,0:0:0:0:
256,176,43569,2,0,L|416:224,1,150,0|8,0:0|0:0,0:0:0:0:
256,240,44446,2,0,L|256:160,1,50,0|2,0:0|0:0,0:0:0:0:
80,192,44973,5,0,0:0:0:0:
256,144,45499,1,8,0:0:0:0:
80,112,45850,1,0,0:0:0:0:
80,128,46025,1,0,0:0:0:0:
256,80,46376,6,0,L|384:48,1,100,0|2,0:0|0:0,0:0:0:0:
176,80,47078,2,0,L|64:48,1,100,0|2,0:0|0:0,0:0:0:0:
256,160,47780,6,0,L|416:128,1,150,0|8,0:0|0:0,0:0:0:0:
336,224,48832,1,0,0:0:0:0:
480,288,49183,6,0,L|320:240,1,150,0|8,0:0|0:0,0:0:0:0:
144,288,50060,1,0,0:0:0:0:
144,288,50236,1,8,0:0:0:0:
256,224,50587,6,0,L|256:64,2,150,0|8|0,0:0|0:0|0:0,0:0:0:0:
80,176,51990,5,2,0:0:0:0:
256,176,52341,1,0,0:0:0:0:
432,176,52692,1,2,0:0:0:0:
256,96,53043,2,0,L|256:208,1,100,8|4,0:0|0:0,0:0:0:0:
256,144,64622,5,4,0:0:0:0:
64,144,65148,1,8,0:0:0:0:
256,160,65499,2,0,L|256:224,1,50
400,192,66025,5,0,0:0:0:0:
192,112,66552,2,0,L|336:240,1,150,8|2,0:0|0:0,0:0:0:0:
112,192,67429,5,0,0:0:0:0:
304,160,67955,2,0,L|160:288,1,150,8|2,0:0|0:0,0:0:0:0:
432,224,68832,5,8,0:0:0:0:
240,224,69359,2,0,L|384:352,1,150,8|2,0:0|0:0,0:0:0:0:
224,160,70236,6,0,L|48:112,1,150,0|10,0:0|0:0,0:0:0:0:
256,96,71113,1,0,0:0:0:0:
256,96,71289,1,0,0:0:0:0:
368,128,71639,6,0,L|496:80,1,100,0|0,0:0|0:0,0:0:0:0:
416,144,72166,2,0,L|256:176,1,150,8|0,0:0|0:0,0:0:0:0:
176,112,73043,6,0,L|176:212,1,100,0|8,0:0|0:0,0:0:0:0:
112,208,73569,2,0,L|112:108,1,100,0|0,0:0|0:0,0:0:0:0:
176,64,74096,1,8,0:0:0:0:
256,192,74446,12,2,75499,0:0:0:0:
48,144,75850,5,0,0:0:0:0:
48,144,76201,1,8,0:0:0:0:
144,144,76376,1,0,0:0:0:0:
144,144,76552,1,0,0:0:0:0:
144,144,76903,1,2,0:0:0:0:
240,144,77078,1,0,0:0:0:0:
240,144,77253,5,0,0:0:0:0:
240,144,77604,1,8,0:0:0:0:
336,144,77780,1,0,0:0:0:0:
336,144,77955,1,0,0:0:0:0:
336,144,78306,1,2,0:0:0:0:
432,144,78482,1,0,0:0:0:0:
432,144,78657,6,0,L|320:112,1,100,8|0,0:0|0:0,0:0:0:0:
256,64,79183,2,0,L|144:96,1,100,8|0,0:0|0:0,0:0:0:0:
256,144,79710,1,2,0:0:0:0:
80,144,80060,6,0,L|80:272,1,100
304,240,80762,2,0,L|208:208,1,100
432,160,81464,5,0,0:0:0:0:
432,160,81815,1,8,0:0:0:0:
336,160,81990,1,0,0:0:0:0:
336,160,82166,1,0,0:0:0:0:
240,160,82517,1,2,0:0:0:0:
80,160,82867,5,0,0:0:0:0:
80,160,83218,1,8,0:0:0:0:
176,160,83394,1,0,0:0:0:0:
176,160,83569,1,0,0:0:0:0:
272,160,83920,1,2,0:0:0:0:
176,112,84271,6,0,L|80:80,1,100
256,112,84973,2,0,L|384:80,1,100
480,64,85675,2,0,L|480:208,2,100
208,96,87078,6,0,L|80:96,1,100,4|0,0:0|0:0,0:0:0:0:
288,160,87780,2,0,L|160:160,1,100,0|2,0:0|0:0,0:0:0:0:
384,224,88482,5,0,0:0:0:0:
256,224,88832,2,0,L|368:224,1,100,8|0,0:0|0:0,0:0:0:0:
144,224,89534,2,0,L|272:224,2,100,2|0|8,0:0|0:0|0:0,0:0:0:0:
256,96,90587,6,0,L|368:96,1,100,0|8,0:0|0:0,0:0:0:0:
256,144,91289,1,0,0:0:0:0:
160,96,91639,2,0,L|48:96,2,100,8|0|2,0:0|0:0|0:0,0:0:0:0:
256,160,92692,5,0,0:0:0:0:
256,160,93043,1,0,0:0:0:0:
160,224,93394,1,8,0:0:0:0:
352,224,93745,1,0,0:0:0:0:
208,80,94096,6,0,L|320:80,3,100,0|8|0|8,0:0|0:0|0:0|0:0,0:0:0:0:
432,80,95499,6,0,L|320:80,1,100,0|8,0:0|0:0,0:0:0:0:
156,80,96201,2,0,L|256:80,1,100,0|8,0:0|0:0,0:0:0:0:
64,80,96903,6,0,L|176:80,1,100,0|8,0:0|0:0,0:0:0:0:
356,80,97604,2,0,L|256:80,1,100,0|2,0:0|0:0,0:0:0:0:
176,144,98306,5,0,0:0:0:0:
336,144,98657,1,8,0:0:0:0:
336,144,99008,1,0,0:0:0:0:
176,144,99359,1,8,0:0:0:0:
256,80,99710,6,0,L|128:80,1,100,0|8,0:0|0:0,0:0:0:0:
256,128,100411,2,0,L|384:128,1,100,0|8,0:0|0:0,0:0:0:0:
464,160,101113,6,0,L|464:272,1,100,0|8,0:0|0:0,0:0:0:0:
304,256,101815,2,0,L|176:256,1,100,0|8,0:0|0:0,0:0:0:0:
48,160,102517,6,0,L|48:272,1,100,0|8,0:0|0:0,0:0:0:0:
208,256,103218,2,0,L|336:256,1,100,0|2,0:0|0:0,0:0:0:0:
256,128,103920,5,0,0:0:0:0:
96,128,104271,1,8,0:0:0:0:
256,128,104622,1,0,0:0:0:0:
176,128,104973,1,10,0:0:0:0:
256,128,105324,5,0,0:0:0:0:
416,128,105675,1,8,0:0:0:0:
256,128,106025,1,0,0:0:0:0:
496,128,106376,1,10,0:0:0:0:
336,128,106727,6,0,L|224:128,1,100,0|8,0:0|0:0,0:0:0:0:
336,80,107429,2,0,L|448:80,1,100,0|8,0:0|0:0,0:0:0:0:
256,80,108131,5,0,0:0:0:0:
160,80,108482,1,8,0:0:0:0:
256,128,108832,2,0,L|368:208,2,100,0|0|4,0:0|0:0|0:0,0:0:0:0:
192,64,120762,6,0,L|96:128,2,112.500004291535
288,112,122166,6,0,L|400:176,2,112.500004291535
192,128,123569,6,0,L|192:256,2,112.500004291535
96,208,124973,6,0,L|224:240,1,112.500004291535
336,224,126025,1,0,0:0:0:0:
464,192,126376,6,0,L|368:128,1,112.500004291535
256,176,127253,2,0,L|256:240,1,37.5000014305115
128,128,127780,6,0,L|240:64,1,112.500004291535
336,80,128657,2,0,L|336:144,1,37.5000014305115
256,192,129183,12,2,131639,0:0:0:0:
288,112,131990,6,0,L|400:112,1,100,0|8,0:0|0:0,0:0:0:0:
288,176,132517,2,0,L|160:176,1,100,0|8,0:0|0:0,0:0:0:0:
288,240,133043,1,2,0:0:0:0:
96,240,133394,6,0,L|80:112,1,100,8|0,0:0|0:0,0:0:0:0:
160,144,133920,2,0,L|176:272,1,100,8|0,0:0|0:0,0:0:0:0:
96,96,134446,1,2,0:0:0:0:
288,96,134797,5,8,0:0:0:0:
384,128,135148,2,0,L|448:128,1,50,0|8,0:0|0:0,0:0:0:0:
288,128,135675,2,0,L|224:128,1,50,0|2,0:0|0:0,0:0:0:0:
128,176,136201,6,0,L|48:96,1,100,8|0,0:0|0:0,0:0:0:0:
112,96,136727,2,0,L|192:160,1,100,8|0,0:0|0:0,0:0:0:0:
256,192,137253,1,2,0:0:0:0:
128,192,137604,6,0,L|128:304,1,100,0|8,0:0|0:0,0:0:0:0:
80,144,138131,2,0,L|192:176,1,100,0|8,0:0|0:0,0:0:0:0:
176,128,138657,1,2,0:0:0:0:
384,192,139008,6,0,L|384:304,1,100,0|8,0:0|0:0,0:0:0:0:
432,160,139534,2,0,L|336:192,1,100,0|8,0:0|0:0,0:0:0:0:
336,128,140060,1,0,0:0:0:0:
464,48,140411,6,0,L|336:48,1,100,0|8,0:0|0:0,0:0:0:0:
272,48,140938,2,0,L|144:48,1,100,0|8,0:0|0:0,0:0:0:0:
80,48,141464,1,0,0:0:0:0:
256,128,141815,5,0,0:0:0:0:
128,192,142166,1,8,0:0:0:0:
256,128,142517,1,0,0:0:0:0:
368,64,142867,1,2,0:0:0:0:
480,144,143218,5,0,0:0:0:0:
480,144,143569,1,8,0:0:0:0:
384,144,143745,1,0,0:0:0:0:
384,144,143920,1,0,0:0:0:0:
384,144,144271,1,10,0:0:0:0:
288,144,144446,1,0,0:0:0:0:
288,144,144622,5,0,0:0:0:0:
288,144,144973,1,8,0:0:0:0:
192,144,145148,1,0,0:0:0:0:
192,144,145324,1,0,0:0:0:0:
192,144,145675,1,8,0:0:0:0:
96,144,145850,1,0,0:0:0:0:
96,144,146025,6,0,L|224:112,1,100,0|8,0:0|0:0,0:0:0:0:
272,64,146552,2,0,L|384:112,1,100,0|8,0:0|0:0,0:0:0:0:
272,144,147078,1,0,0:0:0:0:
416,192,147429,6,0,L|304:240,1,100
128,192,148131,2,0,L|240:240,1,100,8|2,0:0|0:0,0:0:0:0:
256,128,148832,5,0,0:0:0:0:
192,64,149183,2,0,L|144:112,4,50,8|0|0|8|2,0:0|0:0|0:0|0:0|0:0,0:0:0:0:
256,128,150236,5,0,0:0:0:0:
320,64,150587,2,0,L|416:64,1,50,8|0,0:0|0:0,0:0:0:0:
432,64,150938,2,0,L|482:64,2,50,8|8|2,0:0|0:0|0:0,0:0:0:0:
320,176,151639,5,0,0:0:0:0:
224,128,151990,2,0,L|288:128,1,50,8|0,0:0|0:0,0:0:0:0:
320,128,152341,1,0,0:0:0:0:
272,80,152692,2,0,L|336:80,1,50,2|0,0:0|0:0,0:0:0:0:
368,80,153043,5,0,0:0:0:0:
256,48,153394,1,8,0:0:0:0:
128,80,153745,1,0,0:0:0:0:
256,112,154096,1,2,0:0:0:0:
64,192,154446,6,0,L|176:192,1,100,4|0,0:0|0:0,0:0:0:0:
256,192,155148,2,0,L|256:304,1,100,0|2,0:0|0:0,0:0:0:0:
448,192,155850,6,0,L|320:192,1,100,0|8,0:0|0:0,0:0:0:0:
256,160,156552,2,0,L|256:32,1,100,0|2,0:0|0:0,0:0:0:0:
192,64,157253,6,0,L|80:64,3,100,0|8|0|2,0:0|0:0|0:0|0:0,0:0:0:0:
256,112,158657,6,0,L|368:112,2,100,0|8|0,0:0|0:0|0:0,0:0:0:0:
128,112,159710,1,2,0:0:0:0:
256,192,160060,6,0,L|224:96,1,100
400,192,160762,2,0,L|432:96,1,100,8|0,0:0|0:0,0:0:0:0:
256,80,161464,5,0,0:0:0:0:
384,80,161815,1,8,0:0:0:0:
256,80,162166,1,0,0:0:0:0:
128,80,162517,1,2,0:0:0:0:
256,32,162867,6,0,L|128:32,1,100,0|8,0:0|0:0,0:0:0:0:
320,32,163569,2,0,L|320:176,1,100,0|8,0:0|0:0,0:0:0:0:
416,192,164271,6,0,L|304:224,1,100,0|8,0:0|0:0,0:0:0:0:
96,192,164973,2,0,L|208:224,1,100,0|10,0:0|0:0,0:0:0:0:
256,112,165675,6,0,L|256:224,1,100,0|8,0:0|0:0,0:0:0:0:
336,160,166376,1,0,0:0:0:0:
176,160,166727,1,10,0:0:0:0:
256,304,167078,6,0,L|256:192,1,100,0|8,0:0|0:0,0:0:0:0:
144,288,167780,1,0,0:0:0:0:
368,288,168131,1,10,0:0:0:0:
256,192,168482,6,0,L|384:192,1,100,0|8,0:0|0:0,0:0:0:0:
256,128,169183,2,0,L|144:128,1,100,0|8,0:0|0:0,0:0:0:0:
176,80,169885,5,0,0:0:0:0:
336,80,170236,1,8,0:0:0:0:
144,64,170587,1,0,0:0:0:0:
368,64,170938,1,10,0:0:0:0:
256,160,171289,6,0,L|384:160,1,100,0|8,0:0|0:0,0:0:0:0:
208,208,171990,2,0,L|336:208,1,100
144,208,172692,6,0,L|16:208,1,100,0|8,0:0|0:0,0:0:0:0:
240,256,173394,2,0,L|112:256,1,100,0|10,0:0|0:0,0:0:0:0:
352,128,174096,6,0,L|464:128,1,100,0|8,0:0|0:0,0:0:0:0:
288,80,174797,2,0,L|160:80,1,100,0|8,0:0|0:0,0:0:0:0:
352,160,175499,6,0,L|352:272,1,100,0|8,0:0|0:0,0:0:0:0:
160,160,176201,2,0,L|160:272,1,100,0|2,0:0|0:0,0:0:0:0:
352,160,176903,6,0,L|480:160,3,100,0|8|0|8,0:0|0:0|0:0|0:0,0:0:0:0:
480,96,178131,1,0,0:0:0:0:
448,48,178306,6,0,L|320:48,1,100,0|8,0:0|0:0,0:0:0:0:
352,160,179008,2,0,L|464:160,1,100,0|2,0:0|0:0,0:0:0:0:
256,80,179710,5,0,0:0:0:0:
384,80,180060,1,8,0:0:0:0:
192,80,180411,1,0,0:0:0:0:
320,128,180762,1,8,0:0:0:0:
256,128,180938,1,0,0:0:0:0:
320,112,181113,6,0,L|208:112,1,100,0|8,0:0|0:0,0:0:0:0:
112,80,181815,2,0,L|224:80,1,100,0|2,0:0|0:0,0:0:0:0:
48,144,182517,6,0,L|48:256,1,100,0|8,0:0|0:0,0:0:0:0:
208,192,183218,2,0,L|336:192,1,100,0|8,0:0|0:0,0:0:0:0:
224,256,183745,1,0,0:0:0:0:
128,192,183920,6,0,L|128:304,1,100,0|8,0:0|0:0,0:0:0:0:
288,192,184622,2,0,L|432:192,1,100,0|2,0:0|0:0,0:0:0:0:
256,112,185324,5,0,0:0:0:0:
416,112,185675,2,0,L|304:112,1,100,8|0,0:0|0:0,0:0:0:0:
480,112,186376,1,8,0:0:0:0:
256,112,186727,5,0,0:0:0:0:
416,112,187078,2,0,L|304:80,2,100,8|0|2,0:0|0:0|0:0,0:0:0:0:
320,160,187955,1,0,0:0:0:0:
224,192,188131,6,0,L|352:240,3,100,0|8|0|2,0:0|0:0|0:0|0:0,0:0:0:0:
256,144,189534,6,0,L|160:112,2,100,0|8|0,0:0|0:0|0:0,0:0:0:0:
352,144,190587,1,2,0:0:0:0:
480,144,190938,6,0,L|368:176,1,100,0|8,0:0|0:0,0:0:0:0:
224,144,191639,2,0,L|336:176,1,100,0|8,0:0|0:0,0:0:0:0:
384,144,192166,1,0,0:0:0:0:
320,80,192341,6,0,L|208:80,1,100,0|8,0:0|0:0,0:0:0:0:
128,80,193043,2,0,L|240:80,1,100,0|10,0:0|0:0,0:0:0:0:
64,144,193745,6,0,L|64:256,1,100,0|8,0:0|0:0,0:0:0:0:
192,144,194446,2,0,L|192:256,1,100,0|8,0:0|0:0,0:0:0:0:
320,240,195148,6,0,L|320:112,1,100,0|8,0:0|0:0,0:0:0:0:
384,128,195675,1,0,0:0:0:0:
448,128,195850,2,0,L|448:240,1,100,0|2,0:0|0:0,0:0:0:0:
256,192,196552,12,0,198657,0:0:0:0:
256,96,199008,6,4,L|256:240,1,100
208,208,199534,1,0,0:0:0:0:
160,224,199710,2,0,L|48:256,1,100,8|0,0:0|0:0,0:0:0:0:
208,256,200411,6,0,L|304:288,2,100,8|0|8,0:0|0:0|0:0,0:0:0:0:
160,240,201289,1,0,0:0:0:0:
112,112,201464,2,0,L|112:240,1,100,0|8,0:0|0:0,0:0:0:0:
256,176,202166,6,0,L|352:144,2,100,0|8|0,0:0|0:0|0:0,0:0:0:0:
256,160,203218,2,0,L|160:128,2,100,8|0|8,0:0|0:0|0:0,0:0:0:0:
256,160,204096,1,0,0:0:0:0:
256,80,204271,6,0,L|256:224,1,100,0|8,0:0|0:0,0:0:0:0:
112,80,204973,2,0,L|112:192,1,100,0|8,0:0|0:0,0:0:0:0:
192,96,205499,1,0,0:0:0:0:
272,144,205675,2,0,L|400:144,1,100,0|8,0:0|0:0,0:0:0:0:
192,144,206376,6,0,L|192:272,1,100,0|8,0:0|0:0,0:0:0:0:
352,144,207078,2,0,L|464:144,1,100,0|8,0:0|0:0,0:0:0:0:
464,192,207604,1,0,0:0:0:0:
480,240,207780,6,0,L|384:272,1,100,0|8,0:0|0:0,0:0:0:0:
272,272,208482,2,0,L|177:303,1,100,0|8,0:0|0:0,0:0:0:0:
256,192,209183,12,0,210587,0:0:0:0:
