osu file format v13

[General]
AudioFilename: 39th chance.mp3
AudioLeadIn: 500
PreviewTime: 94990
Countdown: 0
SampleSet: Soft
StackLeniency: 0.7
Mode: 2
LetterboxInBreaks: 0
WidescreenStoryboard: 0

[Editor]
DistanceSpacing: 1.4
BeatDivisor: 4
GridSize: 8
TimelineZoom: 1.6

[Metadata]
Title:Unhappy Refrain
TitleUnicode:アンハッピーリフレイン
Artist:wowaka
ArtistUnicode:wowaka
Creator:CLSW
Version:refRain
Source:
Tags:Nico Nico Chorus VOCALOID Hatsune Miku Serena-
BeatmapID:422238
BeatmapSetID:155930

[Difficulty]
HPDrainRate:6.5
CircleSize:4
OverallDifficulty:9.2
ApproachRate:9.2
SliderMultiplier:1.6
SliderTickRate:2

[Events]
//Background and Video events
0,0,"and that is.jpg",0,0
//Break Periods
2,29921,38517
2,118604,122810
//Storyboard Layer 0 (Background)
//Storyboard Layer 1 (Fail)
//Storyboard Layer 2 (Pass)
//Storyboard Layer 3 (Foreground)
//Storyboard Sound Samples
//Background Colour Transformations
3,100,163,162,255

[TimingPoints]
1478.63751994058,292.682926829268,4,2,1,80,1,0
10844,-100,4,1,1,80,0,0
20356,292.682926829268,4,1,1,90,1,0
39087,-100,4,2,2,80,0,0
76551,-100,4,2,2,70,0,0
78892,-100,4,2,2,80,0,0
81234,-100,4,2,2,70,0,0
83575,-100,4,2,2,80,0,0
85916,-100,4,2,2,70,0,0
88258,-100,4,2,2,80,0,0
90307,-100,4,2,2,90,0,0
95282,-100,4,1,1,90,0,1
104502,-100,4,1,1,90,0,0
104648,-100,4,1,1,90,0,1
114014,-100,4,2,1,90,0,0
123380,-100,4,2,1,70,0,0
159673,-100,4,2,2,80,0,0
160551,-100,4,2,2,70,0,0
163185,-100,4,2,2,80,0,0
165526,-100,4,2,2,70,0,0
167868,-100,4,2,2,80,0,0
170209,-100,4,2,2,70,0,0
172551,-100,4,2,2,80,0,0
179575,-100,4,1,1,90,0,1
198307,-100,4,1,1,90,0,0
200648,-100,4,1,1,90,0,1
217038,-100,4,2,1,90,0,0
222014,-100,4,2,1,45,0,0
223477,-100,4,2,1,40,0,0
224648,-100,4,2,1,35,0,0
225819,-100,4,2,1,30,0,0
226990,-100,4,2,1,25,0,0

[Colours]
Combo1 : 120,120,120
Combo2 : 165,165,165

[HitObjects]
112,144,1478,6,0,L|256:256,1,160,2|0,0:0|0:0,0:0:0:0:
400,240,1917,2,0,L|256:352,1,160,2|0,0:0|0:0,0:0:0:0:
112,320,2356,1,2,0:0:0:0:
272,144,2649,6,0,L|416:256,1,160,2|0,0:0|0:0,0:0:0:0:
240,160,3088,2,0,L|96:272,1,160,2|0,0:0|0:0,0:0:0:0:
256,272,3527,1,2,0:0:0:0:
400,224,3820,6,0,L|400:64,1,160,2|0,0:0|0:0,0:0:0:0:
112,64,4259,2,0,L|272:144,1,160,2|0,0:0|0:0,0:0:0:0:
400,64,4698,1,2,0:0:0:0:
112,80,4990,6,0,L|112:240,1,160,2|0,0:0|0:0,0:0:0:0:
400,144,5429,2,0,L|240:224,1,160,2|0,0:0|0:0,0:0:0:0:
112,80,5868,1,2,0:0:0:0:
256,80,6015,1,0,0:0:0:0:
112,128,6161,6,0,L|256:240,1,160,2|0,0:0|0:0,0:0:0:0:
400,176,6600,2,0,L|256:288,1,160,2|0,0:0|0:0,0:0:0:0:
112,256,7039,1,2,0:0:0:0:
336,224,7332,6,0,L|416:48,1,160,2|0,0:0|0:0,0:0:0:0:
176,240,7771,2,0,L|96:64,1,160,2|0,0:0|0:0,0:0:0:0:
400,80,8210,1,2,0:0:0:0:
256,48,8503,6,0,L|432:48,1,160,2|0,0:0|0:0,0:0:0:0:
256,96,8942,2,0,L|80:96,1,160,2|0,0:0|0:0,0:0:0:0:
256,144,9381,1,2,0:0:0:0:
128,144,9673,6,0,L|128:320,1,160,2|0,0:0|0:0,0:0:0:0:
400,304,10112,2,0,L|400:144,1,160,2|0,0:0|0:0,0:0:0:0:
128,192,10551,1,2,0:0:0:0:
272,240,10698,1,0,0:0:0:0:
416,144,10844,6,0,L|336:144,2,80,8|0|8,0:0|0:0|0:0,0:0:0:0:
256,144,11283,2,0,L|336:144,2,80,0|0|8,0:0|0:0|0:0,0:0:0:0:
480,96,11722,2,0,L|480:240,1,120,8|0,0:0|0:0,0:0:0:0:
480,256,12015,5,8,0:0:0:0:
384,256,12161,1,0,0:0:0:0:
288,256,12307,1,8,0:0:0:0:
64,256,12454,1,0,0:0:0:0:
160,256,12600,1,0,0:0:0:0:
256,256,12746,1,8,0:0:0:0:
32,192,12893,2,0,L|32:48,1,120,8|0,0:0|0:0,0:0:0:0:
32,48,13185,5,8,0:0:0:0:
256,32,13332,2,0,L|336:32,2,80,0|8|0,0:0|0:0|0:0,0:0:0:0:
176,32,13771,1,0,0:0:0:0:
336,80,13917,1,8,0:0:0:0:
176,80,14064,2,0,L|176:224,1,120,8|0,0:0|0:0,0:0:0:0:
176,240,14356,5,8,0:0:0:0:
256,240,14503,1,0,0:0:0:0:
176,272,14649,1,8,0:0:0:0:
336,240,14795,2,0,L|256:240,2,80,0|0|8,0:0|0:0|0:0,0:0:0:0:
496,224,15234,2,0,L|496:80,1,120,8|0,0:0|0:0,0:0:0:0:
496,64,15527,5,8,0:0:0:0:
256,64,15673,2,0,L|256:144,1,80,0|8,0:0|0:0,0:0:0:0:
32,64,15966,2,0,L|32:160,1,80
256,112,16259,1,8,0:0:0:0:
256,144,16405,2,0,L|256:288,1,120,8|0,0:0|0:0,0:0:0:0:
256,304,16698,5,8,0:0:0:0:
112,304,16844,1,0,0:0:0:0:
256,304,16990,1,8,0:0:0:0:
400,304,17137,1,0,0:0:0:0:
112,256,17283,2,0,L|112:160,1,80,0|8,0:0|0:0,0:0:0:0:
400,64,17576,2,0,L|400:208,1,120,8|0,0:0|0:0,0:0:0:0:
400,224,17868,6,0,L|512:224,2,80,8|0|8,0:0|0:0|0:0,0:0:0:0:
256,224,18307,2,0,L|144:224,2,80,0|0|8,0:0|0:0|0:0,0:0:0:0:
400,304,18746,2,0,L|400:176,1,120,8|0,0:0|0:0,0:0:0:0:
400,144,19039,5,8,0:0:0:0:
256,144,19185,1,0,0:0:0:0:
144,128,19332,1,8,0:0:0:0:
32,96,19478,1,0,0:0:0:0:
256,96,19624,1,0,0:0:0:0:
480,96,19771,1,8,0:0:0:0:
256,64,19917,2,0,L|80:64,1,160,8|0,0:0|0:0,0:0:0:0:
64,64,20283,1,0,0:0:0:0:
32,64,20356,5,4,0:0:0:0:
256,192,20502,2,0,L|144:192,2,80,0|8|0,0:0|0:0|0:0,0:0:0:0:
352,192,20941,2,0,L|320:272,1,80
160,192,21234,2,0,L|192:272,1,80,8|0,0:0|0:0,0:0:0:0:
352,256,21526,6,0,L|448:256,1,80
272,224,21819,2,0,L|224:256,2,40,8|0|0,0:0|0:0|0:0,0:0:0:0:
160,256,22112,2,0,L|64:256,1,80
240,224,22405,2,0,L|288:256,2,40,8|0|0,0:0|0:0|0:0,0:0:0:0:
464,176,22697,6,0,L|384:176,1,80,4|0,0:0|0:0,0:0:0:0:
224,176,22990,2,0,L|128:176,1,80,8|0,0:0|0:0,0:0:0:0:
64,112,23282,2,0,L|160:112,1,80
304,112,23575,2,0,L|384:112,1,80,8|0,0:0|0:0,0:0:0:0:
448,80,23868,5,0,0:0:0:0:
288,80,24014,1,0,0:0:0:0:
256,96,24087,1,0,0:0:0:0:
224,112,24160,1,8,0:0:0:0:
64,144,24307,1,0,0:0:0:0:
64,192,24453,1,8,0:0:0:0:
224,192,24599,1,0,0:0:0:0:
256,208,24673,1,0,0:0:0:0:
288,224,24746,1,8,0:0:0:0:
448,240,24892,1,0,0:0:0:0:
288,272,25038,6,0,L|128:272,1,160,0|8,0:0|0:0,0:0:0:0:
224,224,25477,1,0,0:0:0:0:
64,224,25624,2,0,L|0:176,3,80,0|0|8|0,0:0|0:0|0:0|0:0,0:0:0:0:
144,176,26209,6,0,L|304:176,1,160,0|8,0:0|0:0,0:0:0:0:
224,128,26648,1,0,0:0:0:0:
384,128,26795,2,0,L|224:128,1,160,0|8,0:0|0:0,0:0:0:0:
304,80,27234,1,0,0:0:0:0:
464,80,27380,6,0,L|480:160,1,80
352,160,27673,2,0,L|336:240,1,80,8|0,0:0|0:0,0:0:0:0:
208,192,27965,2,0,L|224:272,1,80
96,224,28258,2,0,L|80:304,1,80,8|0,0:0|0:0,0:0:0:0:
240,304,28551,5,0,0:0:0:0:
400,304,28697,1,0,0:0:0:0:
440,288,28770,1,0,0:0:0:0:
464,272,28843,1,8,0:0:0:0:
304,240,28990,1,0,0:0:0:0:
144,208,29136,1,8,0:0:0:0:
104,192,29209,1,0,0:0:0:0:
80,176,29282,1,0,0:0:0:0:
240,160,29429,1,8,0:0:0:0:
400,144,29575,1,8,0:0:0:0:
144,112,29721,1,4,0:0:0:0:
352,192,39087,6,0,L|448:192,1,80,10|0,0:0|0:0,0:0:0:0:
272,144,39380,2,0,L|368:144,1,80,8|0,0:0|0:0,0:0:0:0:
192,112,39673,2,0,L|32:112,1,160,10|8,0:0|0:0,0:0:0:0:
192,160,40112,2,0,L|336:272,1,160,10|0,0:0|0:0,0:0:0:0:
160,256,40551,1,10,0:0:0:0:
64,256,40697,1,0,0:0:0:0:
224,256,40843,2,0,L|400:256,1,160,10|8,0:0|0:0,0:0:0:0:
304,48,41282,1,0,0:0:0:0:
144,48,41429,6,0,L|240:48,2,80,10|0|8,0:0|0:0|0:0,0:0:0:0:
320,96,41868,2,0,L|144:96,1,160,2|0,0:0|0:0,0:0:0:0:
320,160,42307,1,8,0:0:0:0:
160,144,42453,2,0,L|336:144,1,160,2|0,0:0|0:0,0:0:0:0:
160,176,42892,1,10,0:0:0:0:
512,112,43185,2,0,L|512:272,1,160,10|8,0:0|0:0,0:0:0:0:
256,272,43770,6,0,L|336:272,1,80,10|0,0:0|0:0,0:0:0:0:
176,272,44063,2,0,L|80:272,1,80,8|0,0:0|0:0,0:0:0:0:
336,240,44355,2,0,L|416:176,1,80,10|0,0:0|0:0,0:0:0:0:
256,192,44648,1,8,0:0:0:0:
112,192,44795,2,0,L|272:112,1,160,2|0,0:0|0:0,0:0:0:0:
416,112,45234,1,10,0:0:0:0:
256,96,45380,1,0,0:0:0:0:
416,80,45526,2,0,L|416:240,1,160,10|8,0:0|0:0,0:0:0:0:
256,224,45965,1,0,0:0:0:0:
96,224,46112,6,0,L|0:224,2,80,10|0|8,0:0|0:0|0:0,0:0:0:0:
256,160,46551,2,0,L|416:160,1,160,2|0,0:0|0:0,0:0:0:0:
256,128,46990,1,8,0:0:0:0:
256,96,47136,2,0,L|80:96,1,160,2|0,0:0|0:0,0:0:0:0:
336,96,47575,2,0,L|240:96,1,80,10|10,0:0|0:0,0:0:0:0:
416,96,47868,1,2,0:0:0:0:
128,256,48160,1,8,0:0:0:0:
416,256,48453,6,0,L|496:256,2,80,10|0|8,0:0|0:0|0:0,0:0:0:0:
256,224,48892,2,0,L|352:224,2,80,2|8|0,0:0|0:0|0:0,0:0:0:0:
96,176,49331,2,0,L|0:176,2,80,10|0|8,0:0|0:0|0:0,0:0:0:0:
256,128,49770,2,0,L|144:128,2,80,2|8|0,0:0|0:0|0:0,0:0:0:0:
416,112,50209,2,0,L|416:272,1,160,10|8,0:0|0:0,0:0:0:0:
96,256,50795,6,0,L|176:256,2,80,10|0|8,0:0|0:0|0:0,0:0:0:0:
320,256,51234,2,0,L|240:256,2,80,2|8|0,0:0|0:0|0:0,0:0:0:0:
160,208,51673,2,0,L|240:208,2,80,10|0|8,0:0|0:0|0:0,0:0:0:0:
384,208,52112,2,0,L|304:208,2,80,2|8|0,0:0|0:0|0:0,0:0:0:0:
224,160,52551,2,0,L|144:48,1,120,10|0,0:0|0:0,0:0:0:0:
352,64,52843,2,0,L|432:176,1,120,10|0,0:0|0:0,0:0:0:0:
336,192,53136,5,10,0:0:0:0:
208,208,53282,1,0,0:0:0:0:
96,208,53429,1,8,0:0:0:0:
256,208,53575,1,0,0:0:0:0:
32,192,53721,2,0,L|16:112,2,80,10|0|8,0:0|0:0|0:0,0:0:0:0:
192,112,54160,2,0,L|352:112,1,160,2|0,0:0|0:0,0:0:0:0:
192,160,54599,2,0,L|112:160,1,80,10|0,0:0|0:0,0:0:0:0:
272,208,54892,2,0,L|432:208,1,160,10|8,0:0|0:0,0:0:0:0:
272,256,55331,1,0,0:0:0:0:
512,128,55477,6,0,L|512:208,2,80,10|0|8,0:0|0:0|0:0,0:0:0:0:
192,240,55916,2,0,L|352:240,1,160,2|0,0:0|0:0,0:0:0:0:
272,176,56355,1,8,0:0:0:0:
112,160,56502,2,0,L|272:160,1,160,2|0,0:0|0:0,0:0:0:0:
112,112,56941,1,10,0:0:0:0:
32,112,57087,1,0,0:0:0:0:
192,112,57234,2,8,L|240:112,1,40,10|8,0:0|0:0,0:0:0:0:
384,112,57380,2,8,L|336:112,1,40
288,112,57526,1,8,0:0:0:0:
32,144,57819,6,0,L|32:304,1,160,10|8,0:0|0:0,0:0:0:0:
256,304,58404,2,0,L|256:224,2,80,10|0|8,0:0|0:0|0:0,0:0:0:0:
96,224,58843,2,0,L|256:224,1,160,2|0,0:0|0:0,0:0:0:0:
432,224,59282,2,0,L|320:224,1,80,10|0,0:0|0:0,0:0:0:0:
192,192,59575,6,0,L|352:192,2,160,10|8|10,0:0|0:0|0:0,0:0:0:0:
448,144,60307,1,0,0:0:0:0:
384,96,60453,1,8,0:0:0:0:
224,96,60599,2,0,L|64:96,1,160,2|0,0:0|0:0,0:0:0:0:
224,144,61038,1,8,0:0:0:0:
144,176,61185,2,0,L|144:336,1,160,2|0,0:0|0:0,0:0:0:0:
368,320,61624,1,10,0:0:0:0:
304,272,61770,1,0,0:0:0:0:
432,272,61916,2,0,L|432:96,1,160,10|8,0:0|0:0,0:0:0:0:
128,272,62502,6,0,L|48:272,1,80,10|0,0:0|0:0,0:0:0:0:
208,224,62795,2,0,L|288:224,1,80,8|0,0:0|0:0,0:0:0:0:
448,176,63087,2,0,L|368:176,2,80,10|0|8,0:0|0:0|0:0,0:0:0:0:
304,144,63526,2,0,L|144:144,1,160,2|0,0:0|0:0,0:0:0:0:
304,192,63965,2,0,L|384:192,1,80,10|0,0:0|0:0,0:0:0:0:
64,288,64258,6,0,L|256:288,2,160,10|8|10,0:0|0:0|0:0,0:0:0:0:
288,288,64990,2,0,L|384:288,1,80,0|8,0:0|0:0,0:0:0:0:
208,256,65283,2,0,L|384:256,1,160,2|0,0:0|0:0,0:0:0:0:
224,208,65722,1,8,0:0:0:0:
80,208,65868,2,0,L|112:368,1,160,2|0,0:0|0:0,0:0:0:0:
400,352,66307,1,10,0:0:0:0:
256,352,66453,1,0,0:0:0:0:
400,288,66599,2,0,L|432:128,1,160,10|8,0:0|0:0,0:0:0:0:
208,160,67185,5,8,0:0:0:0:
320,160,67331,1,0,0:0:0:0:
432,160,67477,1,10,0:0:0:0:
272,160,67624,1,0,0:0:0:0:
160,160,67770,1,8,0:0:0:0:
48,160,67916,1,2,0:0:0:0:
432,112,68063,2,0,L|512:112,2,80,10|0|8,0:0|0:0|0:0,0:0:0:0:
272,112,68502,2,0,L|192:112,2,80,2|8|0,0:0|0:0|0:0,0:0:0:0:
112,112,68941,2,0,L|64:208,1,80,10|0,0:0|0:0,0:0:0:0:
240,176,69234,2,0,L|352:176,1,80,10|0,0:0|0:0,0:0:0:0:
480,208,69526,5,10,0:0:0:0:
368,208,69673,1,0,0:0:0:0:
256,208,69819,1,8,0:0:0:0:
32,208,69965,1,2,0:0:0:0:
144,208,70112,1,8,0:0:0:0:
256,208,70258,1,0,0:0:0:0:
480,208,70404,1,10,0:0:0:0:
368,208,70551,1,0,0:0:0:0:
256,208,70697,1,8,0:0:0:0:
32,208,70843,1,2,0:0:0:0:
144,208,70990,1,8,0:0:0:0:
256,208,71136,1,0,0:0:0:0:
480,128,71282,2,0,L|480:224,1,80,10|0,0:0|0:0,0:0:0:0:
32,208,71575,2,0,L|32:112,1,80,10|0,0:0|0:0,0:0:0:0:
256,128,71868,5,10,0:0:0:0:
112,128,72014,2,0,L|64:128,2,40,0|8|2,0:0|0:0|0:0,0:0:0:0:
256,80,72307,1,0,0:0:0:0:
400,80,72453,2,0,L|400:192,1,80,10|0,0:0|0:0,0:0:0:0:
240,176,72746,1,10,0:0:0:0:
280,176,72819,1,0,0:0:0:0:
320,176,72892,1,0,0:0:0:0:
160,224,73038,5,8,0:0:0:0:
144,256,73112,1,0,0:0:0:0:
128,288,73185,1,0,0:0:0:0:
288,288,73331,1,10,0:0:0:0:
128,320,73477,2,0,L|32:320,1,80,0|10,0:0|0:0,0:0:0:0:
208,320,73770,1,0,0:0:0:0:
48,288,73916,2,0,L|160:288,1,80,8|0,0:0|0:0,0:0:0:0:
384,224,74209,6,0,L|304:224,2,80,10|0|8,0:0|0:0|0:0,0:0:0:0:
224,192,74648,2,0,L|304:192,2,80,2|8|2,0:0|0:0|0:0,0:0:0:0:
384,144,75087,1,8,0:0:0:0:
128,256,75234,6,0,L|64:96,1,160,10|0,0:0|0:0,0:0:0:0:
224,96,75673,2,0,L|304:96,1,80,10|0,0:0|0:0,0:0:0:0:
144,96,75965,2,8,L|80:96,1,40,10|8,0:0|0:0,0:0:0:0:
16,80,76112,2,8,L|64:80,1,40,8|8,0:0|0:0,0:0:0:0:
224,64,76258,1,8,0:0:0:0:
416,64,76551,6,0,L|496:240,1,160,8|0,0:0|0:0,0:0:0:0:
96,64,76990,2,0,L|16:240,1,160,8|0,0:0|0:0,0:0:0:0:
320,160,77429,1,8,0:0:0:0:
192,160,77575,1,0,0:0:0:0:
480,64,77721,6,0,L|400:240,1,160,8|0,0:0|0:0,0:0:0:0:
32,192,78160,2,0,L|98:46,1,160,8|0,0:0|0:0,0:0:0:0:
480,96,78599,1,2,0:0:0:0:
400,48,78746,1,0,0:0:0:0:
112,96,78892,6,0,L|82:170,1,80,10|0,0:0|0:0,0:0:0:0:
224,192,79185,1,10,0:0:0:0:
336,208,79331,1,0,0:0:0:0:
176,192,79477,2,0,L|144:272,1,80,10|0,0:0|0:0,0:0:0:0:
288,288,79770,1,10,0:0:0:0:
400,304,79916,1,0,0:0:0:0:
176,288,80063,2,0,L|16:288,1,160,10|10,0:0|0:0,0:0:0:0:
336,224,80502,1,0,0:0:0:0:
192,224,80648,2,0,L|144:288,1,80,10|0,0:0|0:0,0:0:0:0:
304,288,80941,2,0,L|333:362,1,80,10|0,0:0|0:0,0:0:0:0:
176,336,81234,6,0,L|0:336,1,160,8|0,0:0|0:0,0:0:0:0:
176,288,81673,2,0,L|336:288,1,160,8|0,0:0|0:0,0:0:0:0:
496,224,82112,2,0,L|400:224,1,80,8|0,0:0|0:0,0:0:0:0:
256,224,82404,6,0,L|432:224,1,160,8|0,0:0|0:0,0:0:0:0:
256,176,82843,2,0,L|96:176,1,160,8|0,0:0|0:0,0:0:0:0:
256,128,83282,2,0,L|256:208,1,80,2|0,0:0|0:0,0:0:0:0:
480,96,83575,6,0,L|384:96,1,80,10|0,0:0|0:0,0:0:0:0:
272,96,83868,2,0,L|368:96,1,80,10|0,0:0|0:0,0:0:0:0:
32,96,84160,2,0,L|128:96,1,80,10|0,0:0|0:0,0:0:0:0:
240,96,84453,2,0,L|144:96,1,80,10|0,0:0|0:0,0:0:0:0:
384,144,84746,2,0,L|384:320,1,160,10|8,0:0|0:0,0:0:0:0:
128,304,85185,2,0,L|128:144,1,160,2|0,0:0|0:0,0:0:0:0:
208,128,85624,1,10,0:0:0:0:
48,128,85770,1,0,0:0:0:0:
288,128,85916,6,0,L|448:128,1,160,8|0,0:0|0:0,0:0:0:0:
480,96,86355,2,0,L|304:96,1,160,8|0,0:0|0:0,0:0:0:0:
480,144,86795,1,8,0:0:0:0:
480,192,86941,1,0,0:0:0:0:
224,176,87087,6,0,L|64:176,1,160,8|0,0:0|0:0,0:0:0:0:
32,96,87526,2,0,L|208:96,1,160,8|0,0:0|0:0,0:0:0:0:
32,144,87966,1,2,0:0:0:0:
32,192,88112,1,0,0:0:0:0:
256,224,88258,6,0,L|256:320,1,80,10|0,0:0|0:0,0:0:0:0:
376,160,88551,2,0,L|280:160,1,80,10|0,0:0|0:0,0:0:0:0:
136,160,88843,2,0,L|232:160,1,80,10|0,0:0|0:0,0:0:0:0:
432,112,89136,2,0,L|352:112,1,80,10|0,0:0|0:0,0:0:0:0:
80,112,89429,2,0,L|160:112,1,80,10|0,0:0|0:0,0:0:0:0:
432,160,89721,2,0,L|432:320,1,160,10|8,0:0|0:0,0:0:0:0:
80,208,90307,6,8,L|80:256,1,40
80,192,90453,2,8,L|80:240,1,40
80,144,90599,2,8,L|80:304,1,160
160,304,90965,1,8,0:0:0:0:
240,304,91038,1,8,0:0:0:0:
320,304,91112,1,8,0:0:0:0:
400,304,91185,6,8,L|400:128,1,160
320,144,91551,1,8,0:0:0:0:
240,144,91624,1,8,0:0:0:0:
160,144,91697,1,8,0:0:0:0:
80,144,91770,2,8,L|80:320,1,160
160,304,92136,1,8,0:0:0:0:
240,304,92209,1,8,0:0:0:0:
320,304,92282,1,8,0:0:0:0:
400,304,92355,6,8,L|400:128,1,160
80,176,92795,1,0,0:0:0:0:
224,176,92941,2,0,L|384:176,2,160,10|10|10,0:0|0:0|0:0,0:0:0:0:
304,128,93673,1,2,0:0:0:0:
224,128,93819,1,8,0:0:0:0:
464,96,93965,6,2,L|384:96,1,80,2|8,0:0|0:0,0:0:0:0:
224,96,94258,1,2,0:0:0:0:
384,64,94404,1,10,0:0:0:0:
224,64,94551,1,2,0:0:0:0:
64,64,94697,2,2,L|64:240,1,160,10|8,0:0|0:0,0:0:0:0:
384,160,95282,6,0,L|384:272,1,80,6|0,0:0|0:0,0:0:0:0:
144,272,95575,2,0,L|256:272,1,80,10|2,0:0|0:0,0:0:0:0:
64,272,95868,2,0,L|64:176,1,80,0|2,0:0|0:0,0:0:0:0:
304,160,96160,2,0,L|224:160,1,80,8|2,0:0|0:0,0:0:0:0:
384,96,96453,6,0,L|384:176,1,80,0|2,0:0|0:0,0:0:0:0:
144,176,96746,2,0,L|144:80,1,80,8|2,0:0|0:0,0:0:0:0:
384,48,97038,2,0,L|480:48,1,80,2|0,0:0|0:0,0:0:0:0:
128,48,97331,2,0,L|32:48,1,80,10|0,0:0|0:0,0:0:0:0:
304,48,97624,5,2,0:0:0:0:
160,48,97770,1,2,0:0:0:0:
160,48,97843,1,0,0:0:0:0:
160,48,97916,1,8,0:0:0:0:
304,96,98063,1,2,0:0:0:0:
80,128,98209,2,0,L|160:128,2,80,0|2|8,0:0|0:0|0:0,0:0:0:0:
320,160,98648,6,0,L|480:160,1,160,2|2,0:0|0:0,0:0:0:0:
320,208,99087,2,0,L|224:208,1,80,10|0,0:0|0:0,0:0:0:0:
80,208,99380,2,0,L|160:208,1,80,2|2,0:0|0:0,0:0:0:0:
320,256,99673,2,0,L|240:256,1,80,8|2,0:0|0:0,0:0:0:0:
400,208,99965,6,0,L|384:128,1,80,2|0,0:0|0:0,0:0:0:0:
224,128,100258,1,10,0:0:0:0:
384,96,100404,1,2,0:0:0:0:
272,192,100551,2,0,L|288:112,1,80,0|2,0:0|0:0,0:0:0:0:
448,112,100843,1,8,0:0:0:0:
288,80,100990,1,2,0:0:0:0:
448,48,101136,6,0,L|368:48,1,80,0|2,0:0|0:0,0:0:0:0:
256,48,101429,2,0,L|160:48,1,80,8|2,0:0|0:0,0:0:0:0:
16,48,101721,2,0,L|96:48,1,80,2|0,0:0|0:0,0:0:0:0:
224,48,102014,2,0,L|320:48,1,80,8|2,0:0|0:0,0:0:0:0:
432,80,102307,5,2,0:0:0:0:
272,128,102453,1,2,0:0:0:0:
256,160,102526,1,0,0:0:0:0:
240,192,102599,1,8,0:0:0:0:
80,208,102746,1,2,0:0:0:0:
240,256,102892,2,0,L|336:256,2,80,0|0|8,0:0|0:0|0:0,0:0:0:0:
80,256,103331,6,0,P|48:192|96:96,1,160,2|0,0:0|0:0,0:0:0:0:
256,96,103770,1,10,0:0:0:0:
256,64,103916,1,0,0:0:0:0:
80,64,104063,1,10,0:0:0:0:
64,96,104136,1,0,0:0:0:0:
64,128,104209,1,2,0:0:0:0:
64,160,104282,1,0,0:0:0:0:
80,192,104355,1,0,0:0:0:0:
176,192,104502,1,2,0:0:0:0:
400,192,104648,6,0,L|512:192,1,80,6|0,0:0|0:0,0:0:0:0:
320,224,104941,2,0,L|320:320,1,80,8|2,0:0|0:0,0:0:0:0:
80,224,105234,2,0,L|0:224,1,80,0|2,0:0|0:0,0:0:0:0:
160,304,105526,2,0,L|160:208,1,80,8|2,0:0|0:0,0:0:0:0:
416,144,105819,6,0,L|496:144,1,80,2|2,0:0|0:0,0:0:0:0:
256,192,106112,2,0,L|352:192,1,80,8|2,0:0|0:0,0:0:0:0:
208,160,106404,2,0,L|304:160,1,80,0|2,0:0|0:0,0:0:0:0:
64,160,106697,1,8,0:0:0:0:
144,128,106843,1,2,0:0:0:0:
416,96,106990,6,0,L|320:96,1,80,2|0,0:0|0:0,0:0:0:0:
288,96,107209,1,0,0:0:0:0:
240,96,107282,1,10,0:0:0:0:
336,48,107429,1,0,0:0:0:0:
32,160,107575,2,0,L|112:160,2,80,2|0|10,0:0|0:0|0:0,0:0:0:0:
256,160,108014,6,0,L|352:160,1,80,2|0,0:0|0:0,0:0:0:0:
176,160,108307,1,2,0:0:0:0:
336,112,108453,1,8,0:0:0:0:
416,80,108599,1,2,0:0:0:0:
96,32,108746,2,0,L|96:128,1,80,2|0,0:0|0:0,0:0:0:0:
416,144,109038,2,0,L|416:48,1,80,10|0,0:0|0:0,0:0:0:0:
96,96,109331,5,2,0:0:0:0:
176,48,109477,1,0,0:0:0:0:
336,48,109624,1,10,0:0:0:0:
496,48,109770,1,2,0:0:0:0:
416,96,109916,1,0,0:0:0:0:
336,48,110062,1,2,0:0:0:0:
176,48,110209,1,8,0:0:0:0:
16,48,110355,1,2,0:0:0:0:
328,112,110502,1,0,0:0:0:0:
184,112,110648,1,0,0:0:0:0:
416,128,110795,2,0,L|416:208,1,80,8|2,0:0|0:0,0:0:0:0:
96,216,111087,2,0,L|96:136,1,80,2|0,0:0|0:0,0:0:0:0:
480,208,111380,2,0,L|480:128,1,80,10|0,0:0|0:0,0:0:0:0:
184,192,111673,5,2,0:0:0:0:
328,192,111819,1,0,0:0:0:0:
328,192,111892,1,0,0:0:0:0:
328,192,111965,1,10,0:0:0:0:
184,152,112112,1,0,0:0:0:0:
416,112,112258,2,0,L|496:112,2,80,2|0|10,0:0|0:0|0:0,0:0:0:0:
256,96,112697,6,0,L|80:96,1,160,2|2,0:0|0:0,0:0:0:0:
256,144,113136,2,0,L|352:144,1,80,8|2,0:0|0:0,0:0:0:0:
48,144,113429,2,0,L|0:144,1,40,10|0,0:0|0:0,0:0:0:0:
144,176,113575,2,0,L|192:176,2,40,0|0|0,0:0|0:0|0:0,0:0:0:0:
48,128,113868,1,0,0:0:0:0:
512,192,114014,6,0,L|512:32,1,160,6|0,0:0|0:0,0:0:0:0:
352,32,114453,1,0,0:0:0:0:
512,96,114599,1,0,0:0:0:0:
0,112,115038,5,0,0:0:0:0:
128,112,115184,2,0,L|208:112,1,80,2|0,0:0|0:0,0:0:0:0:
80,112,115477,2,0,L|0:112,2,80
496,128,116209,5,0,0:0:0:0:
480,160,116355,1,2,0:0:0:0:
368,160,116501,1,0,0:0:0:0:
256,160,116648,1,0,0:0:0:0:
496,192,116794,1,0,0:0:0:0:
376,192,116941,1,0,0:0:0:0:
32,80,117380,5,0,0:0:0:0:
256,80,117526,1,2,0:0:0:0:
160,80,117673,1,0,0:0:0:0:
64,80,117819,1,0,0:0:0:0:
288,80,117965,1,0,0:0:0:0:
64,112,118112,2,0,L|32:272,1,160,0|0,0:0|0:0,0:0:0:0:
320,112,123380,6,0,L|448:240,1,160,2|2,0:0|0:0,0:0:0:0:
208,112,123965,2,0,L|80:240,1,160,0|0,0:0|0:0,0:0:0:0:
256,224,124404,2,0,L|416:224,1,160,2|0,0:0|0:0,0:0:0:0:
336,272,124843,1,2,0:0:0:0:
256,304,124990,1,0,0:0:0:0:
96,304,125136,2,0,L|256:304,2,160,2|0|2,0:0|0:0|0:0,0:0:0:0:
216,256,125868,5,0,0:0:0:0:
328,216,126014,1,0,0:0:0:0:
448,160,126160,2,0,L|288:160,1,160,2|0,0:0|0:0,0:0:0:0:
176,136,126599,1,0,0:0:0:0:
16,96,126746,2,0,L|176:96,1,160,2|0,0:0|0:0,0:0:0:0:
16,128,127185,1,2,0:0:0:0:
256,112,127477,2,0,L|256:288,1,160,0|0,0:0|0:0,0:0:0:0:
480,96,128063,6,0,L|480:256,1,160,2|2,0:0|0:0,0:0:0:0:
256,256,128648,1,0,0:0:0:0:
176,208,128795,1,0,0:0:0:0:
96,176,128941,1,2,0:0:0:0:
256,160,129087,2,0,L|416:160,1,160,0|0,0:0|0:0,0:0:0:0:
256,112,129526,2,0,L|176:112,1,80,2|0,0:0|0:0,0:0:0:0:
336,64,129819,2,0,L|416:240,2,160,2|0|2,0:0|0:0|0:0,0:0:0:0:
176,64,130551,5,0,0:0:0:0:
96,64,130697,1,0,0:0:0:0:
336,160,130843,2,0,L|496:160,1,160,2|0,0:0|0:0,0:0:0:0:
240,192,131282,1,0,0:0:0:0:
336,192,131429,2,0,L|496:192,1,160,2|0,0:0|0:0,0:0:0:0:
336,176,131868,2,0,L|432:176,1,80
176,176,132160,2,0,L|16:176,1,160,2|0,0:0|0:0,0:0:0:0:
480,80,132746,6,0,L|368:224,1,160,6|0,0:0|0:0,0:0:0:0:
128,224,133331,2,0,L|208:224,2,80,2|0|0,0:0|0:0|0:0,0:0:0:0:
288,80,133770,2,0,L|448:80,1,160,2|0,0:0|0:0,0:0:0:0:
288,128,134209,1,0,0:0:0:0:
208,128,134355,1,0,0:0:0:0:
368,144,134502,2,0,L|480:288,1,160,2|0,0:0|0:0,0:0:0:0:
224,128,135087,6,0,L|64:128,1,160,2|0,0:0|0:0,0:0:0:0:
288,128,135673,2,0,L|448:128,1,160,2|0,0:0|0:0,0:0:0:0:
288,160,136112,2,0,L|112:160,1,160,2|0,0:0|0:0,0:0:0:0:
288,208,136551,2,0,L|368:208,1,80,2|0,0:0|0:0,0:0:0:0:
208,240,136843,2,0,L|384:240,1,160,2|0,0:0|0:0,0:0:0:0:
64,160,137429,6,0,L|-16:224,3,80,2|0|0|0,0:0|0:0|0:0|0:0,0:0:0:0:
160,208,138014,2,0,L|256:208,2,80,2|0|0,0:0|0:0|0:0,0:0:0:0:
320,176,138453,2,0,L|464:64,1,160,2|0,0:0|0:0,0:0:0:0:
304,64,138892,1,2,0:0:0:0:
160,64,139038,1,0,0:0:0:0:
16,64,139185,2,0,L|16:256,1,160,2|0,0:0|0:0,0:0:0:0:
256,144,139770,1,8,0:1:0:0:
256,192,139916,12,8,141819,0:0:0:0:
48,80,142112,6,0,L|80:160,1,80,10|0,0:0|0:0,0:0:0:0:
208,144,142404,2,0,L|240:224,1,80,10|0,0:0|0:0,0:0:0:0:
368,208,142697,2,0,L|464:208,2,80,10|0|8,0:0|0:0|0:0,0:0:0:0:
208,208,143136,6,0,L|48:208,1,160,2|0,0:0|0:0,0:0:0:0:
320,144,143575,2,0,L|336:224,1,80,10|0,0:0|0:0,0:0:0:0:
192,144,143868,2,0,L|176:224,1,80,10|0,0:0|0:0,0:0:0:0:
400,144,144160,2,0,L|416:224,1,80,8|0,0:0|0:0,0:0:0:0:
256,224,144453,6,0,L|160:224,2,80,10|0|8,0:0|0:0|0:0,0:0:0:0:
32,224,144892,2,0,L|160:96,1,160,2|0,0:0|0:0,0:0:0:0:
256,96,145331,1,8,0:0:0:0:
480,224,145477,6,0,L|352:96,1,160,2|0,0:0|0:0,0:0:0:0:
32,224,145916,2,0,L|160:96,2,160,10|8|8,0:0|0:0|0:0,0:0:0:0:
144,224,146648,1,0,0:0:0:0:
368,176,146795,6,0,L|464:176,1,80,10|0,0:0|0:0,0:0:0:0:
288,176,147087,2,0,L|288:256,1,80,8|0,0:0|0:0,0:0:0:0:
128,256,147380,2,0,L|224:256,2,80,10|0|8,0:0|0:0|0:0,0:0:0:0:
288,256,147819,6,0,L|112:256,1,160,2|0,0:0|0:0,0:0:0:0:
288,304,148258,2,0,L|384:304,1,80,10|0,0:0|0:0,0:0:0:0:
144,304,148551,2,0,L|256:304,1,80,10|0,0:0|0:0,0:0:0:0:
336,304,148843,2,0,L|432:304,1,80,8|0,0:0|0:0,0:0:0:0:
256,192,149136,6,0,L|352:192,1,80,10|0,0:0|0:0,0:0:0:0:
96,192,149429,1,8,0:0:0:0:
208,144,149575,2,0,L|368:144,1,160,2|0,0:0|0:0,0:0:0:0:
96,128,150014,1,8,0:0:0:0:
240,96,150160,6,0,L|272:256,1,160,2|0,0:0|0:0,0:0:0:0:
112,256,150599,1,10,0:0:0:0:
80,224,150746,1,0,0:0:0:0:
240,224,150892,2,0,L|400:224,1,160,10|8,0:0|0:0,0:0:0:0:
112,176,151477,6,0,L|32:176,2,80,10|0|8,0:0|0:0|0:0,0:0:0:0:
336,176,151916,2,0,L|432:176,2,80,2|8|0,0:0|0:0|0:0,0:0:0:0:
176,144,152355,6,0,L|80:144,2,80,10|0|8,0:0|0:0|0:0,0:0:0:0:
400,144,152795,2,0,L|480:144,2,80,2|8|0,0:0|0:0|0:0,0:0:0:0:
240,96,153234,6,0,L|128:96,1,80,10|0,0:0|0:0,0:0:0:0:
320,96,153526,2,0,L|400:96,1,80,10|0,0:0|0:0,0:0:0:0:
240,48,153819,5,10,0:0:0:0:
160,80,153965,1,0,0:0:0:0:
320,80,154112,1,8,0:0:0:0:
160,80,154258,1,2,0:0:0:0:
80,112,154404,1,8,0:0:0:0:
240,112,154551,1,0,0:0:0:0:
80,128,154697,6,0,L|0:128,2,80,10|0|8,0:0|0:0|0:0,0:0:0:0:
240,128,155136,2,0,L|336:128,2,80,2|8|0,0:0|0:0|0:0,0:0:0:0:
400,224,155575,6,0,L|496:224,1,80,10|0,0:0|0:0,0:0:0:0:
112,224,155868,2,0,L|16:224,1,80,10|0,0:0|0:0,0:0:0:0:
400,256,156160,5,10,0:0:0:0:
256,256,156307,1,0,0:0:0:0:
256,256,156380,1,0,0:0:0:0:
256,256,156453,1,10,0:0:0:0:
112,256,156599,1,0,0:0:0:0:
256,304,156746,2,0,L|336:304,2,80,10|0|8,0:0|0:0|0:0,0:0:0:0:
96,304,157185,6,0,L|48:240,2,80,2|8|0,0:0|0:0|0:0,0:0:0:0:
256,224,157624,2,0,L|256:144,1,80,10|0,0:0|0:0,0:0:0:0:
416,144,157916,2,0,L|464:208,1,80,10|0,0:0|0:0,0:0:0:0:
96,144,158209,2,0,L|48:208,1,80,8|0,0:0|0:0,0:0:0:0:
256,144,158502,5,10,0:0:0:0:
416,144,158648,2,0,L|432:64,1,80,0|8,0:0|0:0,0:0:0:0:
256,144,158941,1,2,0:0:0:0:
96,144,159087,2,0,L|80:65,1,80,8|2,0:0|0:0,0:0:0:0:
256,64,159380,1,8,0:0:0:0:
32,128,159526,6,0,L|64:208,1,80,10|0,0:0|0:0,0:0:0:0:
160,192,159819,1,2,0:0:0:0:
480,176,159965,2,0,L|384:176,1,80,10|0,0:0|0:0,0:0:0:0:
240,160,160258,2,8,L|192:160,1,40
112,112,160404,2,8,L|160:112,1,40
304,112,160551,1,0,0:0:0:0:
480,64,160843,6,0,L|496:224,1,160,8|0,0:0|0:0,0:0:0:0:
256,240,161282,2,0,L|240:80,1,160,8|0,0:0|0:0,0:0:0:0:
32,80,161721,2,0,L|48:192,1,80,8|0,0:0|0:0,0:0:0:0:
256,208,162014,6,0,L|240:48,1,160,8|0,0:0|0:0,0:0:0:0:
480,48,162453,2,0,L|496:208,1,160,8|0,0:0|0:0,0:0:0:0:
256,176,162892,2,0,L|272:96,1,80,10|0,0:0|0:0,0:0:0:0:
32,80,163185,6,0,L|112:80,1,80,14|0,0:0|0:0,0:0:0:0:
272,80,163477,2,0,L|192:80,1,80,10|0,0:0|0:0,0:0:0:0:
480,80,163770,2,0,L|384:80,1,80,10|0,0:0|0:0,0:0:0:0:
240,80,164063,2,0,L|336:80,1,80,2|0,0:0|0:0,0:0:0:0:
48,64,164355,2,0,L|144:64,1,80,10|0,0:0|0:0,0:0:0:0:
288,64,164648,1,10,0:0:0:0:
128,96,164795,1,0,0:0:0:0:
400,128,164941,2,0,L|288:128,1,80,10|0,0:0|0:0,0:0:0:0:
192,128,165234,2,0,L|80:128,1,80,2|0,0:0|0:0,0:0:0:0:
256,160,165526,6,0,L|240:320,1,160,8|0,0:0|0:0,0:0:0:0:
32,320,165965,2,0,L|48:160,1,160,8|0,0:0|0:0,0:0:0:0:
256,160,166404,2,0,L|240:272,1,80,8|0,0:0|0:0,0:0:0:0:
480,320,166697,2,0,L|496:160,1,160,8|0,0:0|0:0,0:0:0:0:
256,160,167136,2,0,L|240:320,1,160,8|0,0:0|0:0,0:0:0:0:
32,288,167575,2,0,L|48:176,1,80,2|0,0:0|0:0,0:0:0:0:
160,160,167868,6,0,L|240:160,1,80,14|0,0:0|0:0,0:0:0:0:
96,128,168160,2,0,L|16:128,1,80,10|0,0:0|0:0,0:0:0:0:
256,128,168453,2,0,L|352:128,1,80,10|0,0:0|0:0,0:0:0:0:
176,96,168746,2,0,L|96:96,1,80,10|0,0:0|0:0,0:0:0:0:
336,96,169038,2,0,L|416:96,2,80,10|0|8,0:0|0:0|0:0,0:0:0:0:
176,144,169477,2,0,L|80:144,1,80,2|8,0:0|0:0,0:0:0:0:
416,144,169770,1,2,0:0:0:0:
288,176,169916,1,8,0:0:0:0:
160,176,170063,1,2,0:0:0:0:
32,128,170209,6,0,L|16:288,1,160,8|0,0:0|0:0,0:0:0:0:
256,256,170648,2,0,L|272:96,1,160,8|0,0:0|0:0,0:0:0:0:
480,96,171087,2,0,L|464:208,1,80,8|0,0:0|0:0,0:0:0:0:
256,80,171380,6,0,L|272:240,1,160,8|0,0:0|0:0,0:0:0:0:
32,224,171819,2,0,L|16:64,1,160,8|0,0:0|0:0,0:0:0:0:
256,112,172258,2,0,L|272:224,1,80,2|0,0:0|0:0,0:0:0:0:
416,96,172551,6,0,L|320:96,1,80,14|0,0:0|0:0,0:0:0:0:
176,96,172843,2,0,L|96:96,1,80,10|0,0:0|0:0,0:0:0:0:
336,160,173136,2,0,L|416:160,1,80,10|0,0:0|0:0,0:0:0:0:
96,160,173429,2,0,L|176:160,1,80,10|0,0:0|0:0,0:0:0:0:
336,160,173721,2,0,L|432:160,1,80,10|0,0:0|0:0,0:0:0:0:
176,160,174014,2,0,L|80:160,1,80,10|0,0:0|0:0,0:0:0:0:
336,128,174307,2,0,L|416:128,1,80,10|0,0:0|0:0,0:0:0:0:
32,144,174599,6,8,L|0:176,4,40
176,192,175185,2,0,L|368:192,1,160,8|8,0:0|0:0,0:0:0:0:
480,144,175770,6,8,L|512:176,4,40
336,128,176355,2,0,L|160:128,1,160,8|8,0:0|0:0,0:0:0:0:
96,80,176941,5,8,0:0:0:0:
176,80,177014,1,8,0:0:0:0:
256,80,177087,1,8,0:0:0:0:
336,80,177160,1,8,0:0:0:0:
416,80,177234,6,0,L|416:192,1,80,14|2,0:0|0:0,0:0:0:0:
96,80,177526,2,0,L|96:192,1,80,10|2,0:0|0:0,0:0:0:0:
256,176,177819,2,0,L|352:176,1,80,10|10,0:0|0:0,0:0:0:0:
256,128,178112,2,0,L|176:128,1,80,2|10,0:0|0:0,0:0:0:0:
416,112,178404,2,0,L|512:112,1,80,2|10,0:0|0:0,0:0:0:0:
96,112,178697,2,0,L|0:112,1,80,10|10,0:0|0:0,0:0:0:0:
256,96,178990,2,0,L|256:272,1,160,10|0,0:0|0:0,0:0:0:0:
80,144,179575,6,0,L|144:224,1,80,6|0,0:0|0:0,0:0:0:0:
256,192,179868,2,0,L|320:272,1,80,10|2,0:0|0:0,0:0:0:0:
432,224,180160,2,0,L|368:304,1,80,0|2,0:0|0:0,0:0:0:0:
256,224,180453,2,0,L|192:304,1,80,8|2,0:0|0:0,0:0:0:0:
80,288,180746,6,0,L|32:224,1,80,0|2,0:0|0:0,0:0:0:0:
432,288,181038,2,0,L|480:224,1,80,8|2,0:0|0:0,0:0:0:0:
192,208,181331,1,2,0:0:0:0:
320,192,181477,1,0,0:0:0:0:
176,160,181624,1,10,0:0:0:0:
336,144,181770,1,0,0:0:0:0:
176,112,181916,6,0,L|64:112,1,80,2|0,0:0|0:0,0:0:0:0:
80,144,182136,1,0,0:0:0:0:
96,176,182209,2,0,L|192:176,1,80,10|2,0:0|0:0,0:0:0:0:
16,224,182502,2,0,L|96:224,2,80,0|2|8,0:0|0:0|0:0,0:0:0:0:
176,224,182941,6,0,L|96:224,1,80,2|2,0:0|0:0,0:0:0:0:
336,224,183234,2,0,L|240:224,1,80,0|10,0:0|0:0,0:0:0:0:
96,272,183526,1,0,0:0:0:0:
416,272,183673,2,0,L|416:176,1,80,2|2,0:0|0:0,0:0:0:0:
256,176,183965,2,0,L|256:80,1,80,8|2,0:0|0:0,0:0:0:0:
416,96,184258,6,0,L|512:96,1,80,2|0,0:0|0:0,0:0:0:0:
256,80,184551,2,0,L|256:176,1,80,10|0,0:0|0:0,0:0:0:0:
96,160,184843,1,2,0:0:0:0:
256,192,184990,2,0,L|352:192,1,80,2|8,0:0|0:0,0:0:0:0:
160,192,185282,1,2,0:0:0:0:
256,240,185429,6,0,L|368:240,1,80,2|0,0:0|0:0,0:0:0:0:
32,240,185721,2,0,L|32:336,1,80,10|0,0:0|0:0,0:0:0:0:
256,240,186014,2,0,L|160:240,1,80,2|0,0:0|0:0,0:0:0:0:
480,320,186307,2,0,L|480:208,1,80,10|2,0:0|0:0,0:0:0:0:
256,144,186599,5,2,0:0:0:0:
400,112,186746,2,0,L|464:112,2,40,0|0|10,0:0|0:0|0:0,0:0:0:0:
256,64,187038,1,2,0:0:0:0:
480,48,187185,1,2,0:0:0:0:
368,48,187331,1,2,0:0:0:0:
256,32,187477,1,8,0:0:0:0:
32,48,187624,6,0,L|192:48,1,160,2|2,0:0|0:0,0:0:0:0:
480,48,188063,2,0,L|384:48,1,80,8|2,0:0|0:0,0:0:0:0:
32,96,188355,1,2,0:0:0:0:
80,96,188429,1,0,0:0:0:0:
128,96,188502,1,0,0:0:0:0:
176,96,188575,1,0,0:0:0:0:
224,96,188648,2,0,L|320:96,1,80,10|0,0:0|0:0,0:0:0:0:
144,176,188941,6,0,L|64:176,2,80,6|0|10,0:0|0:0|0:0,0:0:0:0:
272,176,189380,1,2,0:0:0:0:
400,176,189526,2,0,L|480:176,2,80,0|2|8,0:0|0:0|0:0,0:0:0:0:
256,208,189965,1,2,0:0:0:0:
112,224,190112,6,0,L|80:304,1,80,0|2,0:0|0:0,0:0:0:0:
400,224,190404,2,0,L|432:304,1,80,8|2,0:0|0:0,0:0:0:0:
288,304,190697,1,2,0:0:0:0:
144,304,190843,1,0,0:0:0:0:
368,256,190990,1,10,0:0:0:0:
224,256,191136,1,0,0:0:0:0:
480,160,191282,6,0,L|480:256,1,80,2|2,0:0|0:0,0:0:0:0:
416,240,191502,1,0,0:0:0:0:
352,240,191575,2,0,L|352:160,1,80,8|2,0:0|0:0,0:0:0:0:
288,160,191795,1,0,0:0:0:0:
224,160,191868,2,0,L|112:160,2,80,0|2|10,0:0|0:0|0:0,0:0:0:0:
480,112,192307,6,0,L|368:112,1,80,0|2,0:0|0:0,0:0:0:0:
256,112,192599,2,0,L|160:112,2,80,0|10|2,0:0|0:0|0:0,0:0:0:0:
416,64,193038,2,0,L|496:64,1,80,0|2,0:0|0:0,0:0:0:0:
336,64,193331,2,0,L|256:64,1,80,8|2,0:0|0:0,0:0:0:0:
32,64,193624,6,0,L|32:160,1,80,2|0,0:0|0:0,0:0:0:0:
176,144,193916,1,10,0:0:0:0:
32,144,194063,1,2,0:0:0:0:
480,64,194209,2,0,L|480:160,1,80,0|2,0:0|0:0,0:0:0:0:
336,144,194501,1,8,0:0:0:0:
480,144,194648,1,2,0:0:0:0:
256,192,194795,6,0,L|256:288,1,80,2|0,0:0|0:0,0:0:0:0:
328,272,195087,1,10,0:0:0:0:
184,272,195234,1,2,0:0:0:0:
328,240,195380,1,0,0:0:0:0:
184,240,195526,1,2,0:0:0:0:
328,208,195673,1,8,0:0:0:0:
184,208,195819,1,2,0:0:0:0:
480,112,195965,6,0,L|384:112,1,80,2|2,0:0|0:0,0:0:0:0:
368,112,196185,1,0,0:0:0:0:
336,112,196258,2,0,L|256:112,1,80,8|2,0:0|0:0,0:0:0:0:
224,112,196477,1,0,0:0:0:0:
256,80,196551,2,0,L|352:80,2,80,0|2|8,0:0|0:0|0:0,0:0:0:0:
96,80,196990,6,0,L|256:80,1,160,2|0,0:0|0:0,0:0:0:0:
416,80,197429,2,0,L|320:80,1,80,10|0,0:0|0:0,0:0:0:0:
496,80,197721,1,8,0:0:0:0:
485,118,197794,1,0,0:0:0:0:
460,148,197867,1,0,0:0:0:0:
424,165,197940,1,0,0:0:0:0:
384,165,198013,1,0,0:0:0:0:
176,160,198307,5,8,0:0:0:0:
320,160,198453,1,0,0:0:0:0:
32,112,198746,5,0,0:0:0:0:
176,112,198892,1,8,0:0:0:0:
32,96,199038,1,0,0:0:0:0:
320,96,199331,5,0,0:0:0:0:
176,128,199477,1,8,0:0:0:0:
320,160,199624,1,0,0:0:0:0:
32,80,199916,5,0,0:0:0:0:
256,32,200063,1,8,0:0:0:0:
480,32,200209,1,0,0:0:0:0:
256,96,200502,5,8,0:0:0:0:
480,128,200648,6,0,L|384:128,1,80,6|0,0:0|0:0,0:0:0:0:
368,144,200868,1,0,0:0:0:0:
400,160,200941,1,10,0:0:0:0:
240,176,201087,2,0,L|336:176,1,80,2|0,0:0|0:0,0:0:0:0:
352,208,201307,1,0,0:0:0:0:
320,240,201380,1,2,0:0:0:0:
160,240,201526,1,8,0:0:0:0:
320,288,201673,6,0,L|416:288,2,80,2|0|2,0:0|0:0|0:0,0:0:0:0:
160,288,202112,2,0,L|48:288,1,80,8|2,0:0|0:0,0:0:0:0:
240,224,202404,2,0,L|288:320,1,80,2|2,0:0|0:0,0:0:0:0:
432,272,202697,2,0,L|352:272,1,80,8|2,0:0|0:0,0:0:0:0:
112,208,202990,6,0,L|128:128,1,80,0|2,0:0|0:0,0:0:0:0:
288,128,203283,1,8,0:0:0:0:
128,96,203429,1,2,0:0:0:0:
240,192,203575,2,0,L|224:112,1,80,0|2,0:0|0:0,0:0:0:0:
64,112,203869,1,10,0:0:0:0:
224,80,204015,1,0,0:0:0:0:
64,48,204161,6,0,L|144:48,1,80,2|0,0:0|0:0,0:0:0:0:
368,80,204454,2,0,L|272:80,1,80,10|2,0:0|0:0,0:0:0:0:
448,48,204746,2,0,L|368:48,1,80,0|2,0:0|0:0,0:0:0:0:
128,80,205039,2,0,L|224:80,1,80,8|2,0:0|0:0,0:0:0:0:
368,128,205331,5,2,0:0:0:0:
208,144,205477,2,0,L|176:176,2,40,0|0|10,0:0|0:0|0:0,0:0:0:0:
368,176,205770,1,2,0:0:0:0:
144,176,205916,2,0,L|48:176,2,80,0|2|8,0:0|0:0|0:0,0:0:0:0:
368,208,206355,6,0,L|464:208,2,80,2|0|2,0:0|0:0|0:0,0:0:0:0:
208,224,206795,1,8,0:0:0:0:
368,224,206941,1,2,0:0:0:0:
112,192,207087,2,0,L|64:192,3,40,10|0|0|0,0:0|0:0|0:0|0:0,0:0:0:0:
144,160,207380,2,0,L|208:160,3,40,2|0|0|0,0:0|0:0|0:0|0:0,0:0:0:0:
272,128,207673,6,0,L|352:128,1,80,6|0,0:0|0:0,0:0:0:0:
192,96,207965,2,0,L|80:96,1,80,10|2,0:0|0:0,0:0:0:0:
416,96,208258,2,0,L|448:192,1,80,0|2,0:0|0:0,0:0:0:0:
192,192,208551,1,8,0:0:0:0:
336,192,208697,1,2,0:0:0:0:
480,192,208843,6,0,L|480:304,1,80,0|2,0:0|0:0,0:0:0:0:
256,288,209136,2,0,L|256:192,1,80,8|2,0:0|0:0,0:0:0:0:
480,128,209429,2,0,L|480:240,1,80,2|0,0:0|0:0,0:0:0:0:
32,224,209721,2,0,L|32:112,1,80,10|0,0:0|0:0,0:0:0:0:
256,144,210014,5,2,0:0:0:0:
112,144,210160,2,0,L|64:144,2,40,2|0|8,0:0|0:0|0:0,0:0:0:0:
400,144,210453,2,0,L|448:144,2,40,2|0|0,0:0|0:0|0:0,0:0:0:0:
256,112,210746,1,2,0:0:0:0:
112,112,210892,1,10,0:0:0:0:
416,112,211038,6,0,L|368:208,1,80,2|0,0:0|0:0,0:0:0:0:
256,192,211331,1,2,0:0:0:0:
96,112,211477,2,0,L|144:208,1,80,8|2,0:0|0:0,0:0:0:0:
416,112,211770,2,0,L|368:208,1,80,2|0,0:0|0:0,0:0:0:0:
128,192,212063,1,8,0:0:0:0:
384,192,212209,1,2,0:0:0:0:
176,240,212355,6,0,L|176:144,1,80,2|0,0:0|0:0,0:0:0:0:
16,160,212648,1,10,0:0:0:0:
176,128,212795,1,2,0:0:0:0:
336,112,212941,2,0,L|336:208,1,80,0|2,0:0|0:0,0:0:0:0:
496,80,213234,1,8,0:0:0:0:
336,64,213380,1,2,0:0:0:0:
176,64,213526,6,0,L|96:64,1,80,0|2,0:0|0:0,0:0:0:0:
336,64,213819,1,10,0:0:0:0:
96,64,213965,1,0,0:0:0:0:
336,144,214112,2,0,L|448:144,1,80,2|0,0:0|0:0,0:0:0:0:
176,144,214404,2,0,L|64:144,1,80,10|2,0:0|0:0,0:0:0:0:
256,176,214697,5,2,0:0:0:0:
416,176,214843,2,0,L|480:176,2,40,0|0|10,0:0|0:0|0:0,0:0:0:0:
256,224,215136,1,2,0:0:0:0:
200,232,215209,1,0,0:0:0:0:
160,208,215282,1,0,0:0:0:0:
200,192,215355,1,0,0:0:0:0:
256,136,215429,1,10,0:0:0:0:
384,136,215575,1,0,0:0:0:0:
32,144,215721,6,0,L|-16:176,2,40,10|0|2,0:0|0:0|0:0,0:0:0:0:
192,144,216014,1,0,0:0:0:0:
480,112,216160,1,8,0:0:0:0:
440,112,216233,1,0,0:0:0:0:
400,112,216306,1,0,0:0:0:0:
240,96,216453,2,0,L|176:96,1,40,10|0,0:0|0:0,0:0:0:0:
112,96,216599,2,0,L|160:96,1,40
240,64,216746,2,0,L|192:64,1,40
112,64,216892,2,0,L|160:64,1,40
320,64,217038,6,0,L|480:64,1,160,0|2,0:0|0:0,0:0:0:0:
240,208,217477,1,0,0:0:0:0:
112,208,217624,1,0,0:0:0:0:
368,160,218063,5,0,0:0:0:0:
144,160,218209,2,0,L|144:256,1,80,2|0,0:0|0:0,0:0:0:0:
400,224,218502,2,0,L|400:320,1,80
112,240,218795,1,0,0:0:0:0:
416,96,219234,5,0,0:0:0:0:
256,64,219380,2,0,L|352:64,1,80,2|0,0:0|0:0,0:0:0:0:
176,96,219673,1,0,0:0:0:0:
336,96,219819,1,0,0:0:0:0:
96,96,219965,1,0,0:0:0:0:
256,160,220404,5,0,0:0:0:0:
176,128,220551,1,2,0:0:0:0:
336,128,220697,1,0,0:0:0:0:
176,96,220843,1,0,0:0:0:0:
400,96,220990,1,0,0:0:0:0:
288,96,221136,1,0,0:0:0:0:
144,160,221575,5,0,0:0:0:0:
368,160,221721,1,2,0:0:0:0:
144,160,221868,1,0,0:0:0:0:
256,192,222014,12,0,227575,0:0:0:0:
