osu file format v14

[General]
AudioFilename: a.mp3
AudioLeadIn: 0
PreviewTime: 87204
Countdown: 1
SampleSet: Normal
StackLeniency: 0.7
Mode: 1
LetterboxInBreaks: 1
WidescreenStoryboard: 0

[Editor]
DistanceSpacing: 0.8
BeatDivisor: 4
GridSize: 32
TimelineZoom: 3.299999

[Metadata]
Title:Daraku no Sono
TitleUnicode:堕楽の園
Artist:witch's slave
ArtistUnicode:witch's slave
Creator:Ryui
Version:Ryui's Taiko
Source:
Tags:
BeatmapID:1046043
BeatmapSetID:490800

[Difficulty]
HPDrainRate:6
CircleSize:5
OverallDifficulty:6
ApproachRate:5
SliderMultiplier:1.4
SliderTickRate:1

[Events]
//Background and Video events
0,0,"41186382_p0.jpg",0,0
//Break Periods
//Storyboard Layer 0 (Background)
//Storyboard Layer 1 (Fail)
//Storyboard Layer 2 (Pass)
//Storyboard Layer 3 (Foreground)
//Storyboard Sound Samples

[TimingPoints]
1490,357.142857142857,4,1,0,100,1,0
1490,-133.333333333333,4,1,0,50,0,0
7204,-100,4,1,0,100,0,0
10150,-105.263157894737,4,1,0,70,0,0
10507,-111.111111111111,4,1,0,70,0,0
10864,-117.647058823529,4,1,0,70,0,0
11222,-125,4,1,0,70,0,0
11579,-133.333333333333,4,1,0,70,0,0
11936,-142.857142857143,4,1,0,70,0,0
12293,-100,4,1,0,70,0,0
12829,-100,4,1,0,100,0,0
70150,-100,4,1,0,70,0,0
78543,-100,4,1,0,100,0,0
87204,-100,4,1,0,100,0,1
104436,-133.333333333333,4,1,0,50,0,0
105686,-100,4,1,0,100,0,1
117293,-100,4,1,0,70,0,0
118632,-100,4,1,0,100,0,0
120150,-100,4,1,0,70,0,0
121489,-100,4,1,0,100,0,0

[HitObjects]
256,192,1490,5,0,0:0:0:0:
256,192,1668,1,0,0:0:0:0:
256,192,1847,1,8,0:0:0:0:
256,192,2025,1,8,0:0:0:0:
256,192,2204,1,0,0:0:0:0:
256,192,2382,1,8,0:0:0:0:
256,192,2561,1,0,0:0:0:0:
256,192,2740,1,0,0:0:0:0:
256,192,2918,1,8,0:0:0:0:
256,192,3097,1,0,0:0:0:0:
256,192,3275,1,8,0:0:0:0:
256,192,3454,1,8,0:0:0:0:
256,192,3632,1,0,0:0:0:0:
256,192,3811,1,0,0:0:0:0:
256,192,3900,1,0,0:0:0:0:
256,192,3990,1,8,0:0:0:0:
256,192,4168,1,8,0:0:0:0:
256,192,4347,1,0,0:0:0:0:
256,192,4525,1,8,0:0:0:0:
256,192,4615,1,0,0:0:0:0:
256,192,4704,1,0,0:0:0:0:
256,192,4882,1,8,0:0:0:0:
256,192,5061,1,0,0:0:0:0:
256,192,5240,1,0,0:0:0:0:
256,192,5418,1,8,0:0:0:0:
256,192,5597,1,0,0:0:0:0:
256,192,5686,1,8,0:0:0:0:
256,192,5775,1,0,0:0:0:0:
256,192,5954,1,0,0:0:0:0:
256,192,6132,1,8,0:0:0:0:
256,192,6311,1,0,0:0:0:0:
256,192,6490,1,8,0:0:0:0:
256,192,6668,1,0,0:0:0:0:
256,192,6757,1,0,0:0:0:0:
256,192,6847,1,0,0:0:0:0:
256,192,7025,1,8,0:0:0:0:
256,192,7204,1,4,0:0:0:0:
256,192,7382,1,8,0:0:0:0:
256,192,7561,1,0,0:0:0:0:
256,192,7740,1,8,0:0:0:0:
256,192,7829,1,8,0:0:0:0:
256,192,7918,1,0,0:0:0:0:
256,192,8097,1,8,0:0:0:0:
256,192,8275,1,0,0:0:0:0:
256,192,8365,1,8,0:0:0:0:
256,192,8454,1,8,0:0:0:0:
256,192,8513,1,8,0:0:0:0:
256,192,8573,1,8,0:0:0:0:
256,192,8632,1,0,0:0:0:0:
256,192,8722,1,8,0:0:0:0:
256,192,8811,1,8,0:0:0:0:
256,192,8990,1,0,0:0:0:0:
256,192,9168,1,8,0:0:0:0:
256,192,9257,1,8,0:0:0:0:
256,192,9347,1,0,0:0:0:0:
256,192,9436,1,8,0:0:0:0:
256,192,9525,1,8,0:0:0:0:
256,192,9615,1,8,0:0:0:0:
256,192,9704,1,0,0:0:0:0:
256,192,9793,1,8,0:0:0:0:
256,192,9882,1,8,0:0:0:0:
256,192,10061,1,4,0:0:0:0:
256,192,10418,1,8,0:0:0:0:
256,192,10775,1,8,0:0:0:0:
256,192,11132,1,8,0:0:0:0:
256,192,11490,1,8,0:0:0:0:
256,192,11847,1,8,0:0:0:0:
256,192,12204,1,8,0:0:0:0:
256,192,12382,1,8,0:0:0:0:
256,192,12472,1,8,0:0:0:0:
256,192,12561,1,0,0:0:0:0:
256,192,12650,1,0,0:0:0:0:
256,192,12740,1,8,0:0:0:0:
256,192,12918,1,4,0:0:0:0:
256,192,13097,1,8,0:0:0:0:
256,192,13186,1,8,0:0:0:0:
256,192,13275,1,0,0:0:0:0:
256,192,13454,1,8,0:0:0:0:
256,192,13543,1,8,0:0:0:0:
256,192,13632,1,0,0:0:0:0:
256,192,13811,1,8,0:0:0:0:
256,192,13900,1,8,0:0:0:0:
256,192,13990,1,0,0:0:0:0:
256,192,14168,1,8,0:0:0:0:
256,192,14257,1,0,0:0:0:0:
256,192,14347,1,0,0:0:0:0:
256,192,14525,1,8,0:0:0:0:
256,192,14615,1,8,0:0:0:0:
256,192,14704,1,0,0:0:0:0:
256,192,14882,1,8,0:0:0:0:
256,192,14972,1,8,0:0:0:0:
256,192,15061,1,0,0:0:0:0:
256,192,15240,1,8,0:0:0:0:
256,192,15329,1,8,0:0:0:0:
256,192,15418,1,0,0:0:0:0:
256,192,15597,1,8,0:0:0:0:
256,192,15686,1,0,0:0:0:0:
256,192,15775,1,0,0:0:0:0:
256,192,15954,1,8,0:0:0:0:
256,192,16043,1,8,0:0:0:0:
256,192,16132,1,0,0:0:0:0:
256,192,16311,1,8,0:0:0:0:
256,192,16400,1,8,0:0:0:0:
256,192,16490,1,0,0:0:0:0:
256,192,16668,1,8,0:0:0:0:
256,192,16757,1,8,0:0:0:0:
256,192,16847,1,0,0:0:0:0:
256,192,17025,1,8,0:0:0:0:
256,192,17115,1,0,0:0:0:0:
256,192,17204,1,0,0:0:0:0:
256,192,17382,1,8,0:0:0:0:
256,192,17472,1,0,0:0:0:0:
256,192,17561,1,0,0:0:0:0:
256,192,17740,1,8,0:0:0:0:
256,192,17829,1,8,0:0:0:0:
256,192,17918,1,0,0:0:0:0:
256,192,18097,1,8,0:0:0:0:
256,192,18186,1,0,0:0:0:0:
256,192,18275,1,8,0:0:0:0:
256,192,18365,1,8,0:0:0:0:
256,192,18454,1,0,0:0:0:0:
256,192,18543,1,0,0:0:0:0:
256,192,18632,1,0,0:0:0:0:
256,192,18811,1,8,0:0:0:0:
256,192,18900,1,8,0:0:0:0:
256,192,18990,1,0,0:0:0:0:
256,192,19168,1,8,0:0:0:0:
256,192,19257,1,0,0:0:0:0:
256,192,19347,1,0,0:0:0:0:
256,192,19525,1,8,0:0:0:0:
256,192,19615,1,8,0:0:0:0:
256,192,19704,1,0,0:0:0:0:
256,192,19793,1,0,0:0:0:0:
256,192,19882,1,8,0:0:0:0:
256,192,19972,1,8,0:0:0:0:
256,192,20061,1,0,0:0:0:0:
256,192,20240,1,8,0:0:0:0:
256,192,20329,1,0,0:0:0:0:
256,192,20418,1,0,0:0:0:0:
256,192,20597,1,8,0:0:0:0:
256,192,20686,1,8,0:0:0:0:
256,192,20775,1,0,0:0:0:0:
256,192,20865,1,0,0:0:0:0:
256,192,20954,1,8,0:0:0:0:
256,192,21043,1,0,0:0:0:0:
256,192,21132,1,0,0:0:0:0:
256,192,21192,1,0,0:0:0:0:
256,192,21251,1,0,0:0:0:0:
256,192,21311,1,8,0:0:0:0:
256,192,21370,1,8,0:0:0:0:
256,192,21430,1,8,0:0:0:0:
256,192,21490,1,0,0:0:0:0:
256,192,21757,1,12,0:0:0:0:
256,192,22025,1,4,0:0:0:0:
256,192,22204,1,0,0:0:0:0:
256,192,22293,1,0,0:0:0:0:
256,192,22382,1,0,0:0:0:0:
256,192,22472,1,0,0:0:0:0:
256,192,22561,1,8,0:0:0:0:
256,192,22650,1,8,0:0:0:0:
256,192,22740,1,0,0:0:0:0:
256,192,22918,1,4,0:0:0:0:
256,192,23097,1,8,0:0:0:0:
256,192,23186,1,8,0:0:0:0:
256,192,23275,1,0,0:0:0:0:
256,192,23454,1,8,0:0:0:0:
256,192,23543,1,0,0:0:0:0:
256,192,23632,1,0,0:0:0:0:
256,192,23811,1,8,0:0:0:0:
256,192,23900,1,8,0:0:0:0:
256,192,23990,1,0,0:0:0:0:
256,192,24079,1,0,0:0:0:0:
256,192,24168,1,0,0:0:0:0:
256,192,24257,1,0,0:0:0:0:
256,192,24347,1,0,0:0:0:0:
256,192,24525,1,8,0:0:0:0:
256,192,24615,1,0,0:0:0:0:
256,192,24704,1,8,0:0:0:0:
256,192,24882,1,0,0:0:0:0:
256,192,25061,1,8,0:0:0:0:
256,192,25240,1,8,0:0:0:0:
256,192,25329,1,8,0:0:0:0:
256,192,25418,1,0,0:0:0:0:
256,192,25597,1,8,0:0:0:0:
256,192,25686,1,8,0:0:0:0:
256,192,25775,1,0,0:0:0:0:
256,192,25865,1,0,0:0:0:0:
256,192,25954,1,8,0:0:0:0:
256,192,26043,1,0,0:0:0:0:
256,192,26132,1,8,0:0:0:0:
256,192,26311,1,0,0:0:0:0:
256,192,26400,1,8,0:0:0:0:
256,192,26490,1,0,0:0:0:0:
256,192,26668,1,8,0:0:0:0:
256,192,26757,1,0,0:0:0:0:
256,192,26847,1,8,0:0:0:0:
256,192,27025,1,8,0:0:0:0:
256,192,27115,1,8,0:0:0:0:
256,192,27204,1,0,0:0:0:0:
256,192,27382,1,8,0:0:0:0:
256,192,27472,1,0,0:0:0:0:
256,192,27561,1,8,0:0:0:0:
256,192,27650,1,8,0:0:0:0:
256,192,27740,1,0,0:0:0:0:
256,192,27829,1,8,0:0:0:0:
256,192,27918,1,0,0:0:0:0:
256,192,28097,1,0,0:0:0:0:
256,192,28186,1,0,0:0:0:0:
256,192,28275,1,8,0:0:0:0:
256,192,28454,1,0,0:0:0:0:
256,192,28543,1,8,0:0:0:0:
256,192,28632,1,0,0:0:0:0:
256,192,28722,1,0,0:0:0:0:
256,192,28811,1,8,0:0:0:0:
256,192,28900,1,0,0:0:0:0:
256,192,28990,1,8,0:0:0:0:
256,192,29168,1,8,0:0:0:0:
256,192,29257,1,8,0:0:0:0:
256,192,29347,1,0,0:0:0:0:
256,192,29525,1,8,0:0:0:0:
256,192,29615,1,0,0:0:0:0:
256,192,29704,1,0,0:0:0:0:
256,192,29793,1,0,0:0:0:0:
256,192,29882,1,8,0:0:0:0:
256,192,29972,1,8,0:0:0:0:
256,192,30061,1,0,0:0:0:0:
256,192,30240,1,8,0:0:0:0:
256,192,30329,1,0,0:0:0:0:
256,192,30418,1,0,0:0:0:0:
256,192,30597,1,8,0:0:0:0:
256,192,30686,1,0,0:0:0:0:
256,192,30775,1,8,0:0:0:0:
256,192,30954,1,0,0:0:0:0:
256,192,31043,1,8,0:0:0:0:
256,192,31132,1,0,0:0:0:0:
256,192,31222,1,0,0:0:0:0:
256,192,31311,1,8,0:0:0:0:
256,192,31400,1,0,0:0:0:0:
256,192,31490,1,8,0:0:0:0:
256,192,31668,1,8,0:0:0:0:
256,192,31757,1,8,0:0:0:0:
256,192,31847,1,0,0:0:0:0:
256,192,32025,1,8,0:0:0:0:
256,192,32115,1,8,0:0:0:0:
256,192,32204,1,0,0:0:0:0:
256,192,32293,1,0,0:0:0:0:
256,192,32382,1,8,0:0:0:0:
256,192,32472,1,0,0:0:0:0:
256,192,32561,1,8,0:0:0:0:
256,192,32650,1,8,0:0:0:0:
256,192,32740,1,0,0:0:0:0:
256,192,32918,1,4,0:0:0:0:
256,192,33097,1,8,0:0:0:0:
256,192,33186,1,0,0:0:0:0:
256,192,33275,1,0,0:0:0:0:
256,192,33365,1,0,0:0:0:0:
256,192,33454,1,8,0:0:0:0:
256,192,33632,1,0,0:0:0:0:
256,192,33722,1,0,0:0:0:0:
256,192,33811,1,0,0:0:0:0:
256,192,33900,1,0,0:0:0:0:
256,192,33990,1,8,0:0:0:0:
256,192,34079,1,0,0:0:0:0:
256,192,34168,1,8,0:0:0:0:
256,192,34347,1,8,0:0:0:0:
256,192,34436,1,0,0:0:0:0:
256,192,34525,1,0,0:0:0:0:
256,192,34615,1,8,0:0:0:0:
256,192,34704,1,0,0:0:0:0:
256,192,34793,1,8,0:0:0:0:
256,192,34972,1,8,0:0:0:0:
256,192,35061,1,0,0:0:0:0:
256,192,35150,1,8,0:0:0:0:
256,192,35240,1,8,0:0:0:0:
256,192,35329,1,8,0:0:0:0:
256,192,35418,1,8,0:0:0:0:
256,192,35478,1,8,0:0:0:0:
256,192,35537,1,8,0:0:0:0:
256,192,35597,1,0,0:0:0:0:
256,192,35775,1,4,0:0:0:0:
256,192,35954,1,8,0:0:0:0:
256,192,36043,1,0,0:0:0:0:
256,192,36132,1,8,0:0:0:0:
256,192,36311,1,0,0:0:0:0:
256,192,36400,1,0,0:0:0:0:
256,192,36490,1,8,0:0:0:0:
256,192,36579,1,0,0:0:0:0:
256,192,36668,1,8,0:0:0:0:
256,192,36847,1,8,0:0:0:0:
256,192,37025,1,0,0:0:0:0:
256,192,37115,1,8,0:0:0:0:
256,192,37204,1,0,0:0:0:0:
256,192,37293,1,8,0:0:0:0:
256,192,37382,1,8,0:0:0:0:
256,192,37472,1,0,0:0:0:0:
256,192,37561,1,8,0:0:0:0:
256,192,37650,1,8,0:0:0:0:
256,192,37740,1,0,0:0:0:0:
256,192,37829,1,8,0:0:0:0:
256,192,37918,1,0,0:0:0:0:
256,192,38007,1,8,0:0:0:0:
256,192,38097,1,8,0:0:0:0:
256,192,38186,1,0,0:0:0:0:
256,192,38275,1,8,0:0:0:0:
256,192,38454,1,8,0:0:0:0:
256,192,38543,1,0,0:0:0:0:
256,192,38632,1,0,0:0:0:0:
256,192,38811,1,8,0:0:0:0:
256,192,38900,1,0,0:0:0:0:
256,192,38989,1,8,0:0:0:0:
256,192,39168,1,0,0:0:0:0:
256,192,39257,1,0,0:0:0:0:
256,192,39347,1,8,0:0:0:0:
256,192,39436,1,0,0:0:0:0:
256,192,39525,1,8,0:0:0:0:
256,192,39704,1,8,0:0:0:0:
256,192,39793,1,8,0:0:0:0:
256,192,39882,1,0,0:0:0:0:
256,192,40061,1,0,0:0:0:0:
256,192,40150,1,8,0:0:0:0:
256,192,40239,1,8,0:0:0:0:
256,192,40329,1,0,0:0:0:0:
256,192,40418,1,0,0:0:0:0:
256,192,40507,1,0,0:0:0:0:
256,192,40597,1,8,0:0:0:0:
256,192,40686,1,0,0:0:0:0:
256,192,40775,1,8,0:0:0:0:
256,192,40864,1,8,0:0:0:0:
256,192,40954,1,8,0:0:0:0:
256,192,41043,1,8,0:0:0:0:
256,192,41132,1,0,0:0:0:0:
256,192,41311,1,8,0:0:0:0:
256,192,41400,1,0,0:0:0:0:
256,192,41489,1,0,0:0:0:0:
256,192,41668,1,8,0:0:0:0:
256,192,41757,1,0,0:0:0:0:
256,192,41847,1,8,0:0:0:0:
256,192,42025,1,0,0:0:0:0:
256,192,42114,1,0,0:0:0:0:
256,192,42204,1,8,0:0:0:0:
256,192,42293,1,0,0:0:0:0:
256,192,42382,1,8,0:0:0:0:
256,192,42561,1,8,0:0:0:0:
256,192,42739,1,0,0:0:0:0:
256,192,42918,1,0,0:0:0:0:
256,192,43007,1,8,0:0:0:0:
256,192,43097,1,8,0:0:0:0:
256,192,43186,1,0,0:0:0:0:
256,192,43275,1,8,0:0:0:0:
256,192,43364,1,8,0:0:0:0:
256,192,43454,1,0,0:0:0:0:
256,192,43543,1,8,0:0:0:0:
256,192,43632,1,0,0:0:0:0:
256,192,43722,1,8,0:0:0:0:
256,192,43811,1,8,0:0:0:0:
256,192,43900,1,0,0:0:0:0:
256,192,43989,1,0,0:0:0:0:
256,192,44168,1,8,0:0:0:0:
256,192,44257,1,8,0:0:0:0:
256,192,44347,1,0,0:0:0:0:
256,192,44525,1,8,0:0:0:0:
256,192,44614,1,0,0:0:0:0:
256,192,44704,1,8,0:0:0:0:
256,192,44882,1,0,0:0:0:0:
256,192,44972,1,0,0:0:0:0:
256,192,45061,1,8,0:0:0:0:
256,192,45150,1,0,0:0:0:0:
256,192,45239,1,8,0:0:0:0:
256,192,45418,1,8,0:0:0:0:
256,192,45507,1,8,0:0:0:0:
256,192,45597,1,0,0:0:0:0:
256,192,45775,1,0,0:0:0:0:
256,192,45864,1,8,0:0:0:0:
256,192,45954,1,8,0:0:0:0:
256,192,46043,1,0,0:0:0:0:
256,192,46132,1,0,0:0:0:0:
256,192,46222,1,0,0:0:0:0:
256,192,46311,1,8,0:0:0:0:
256,192,46400,1,0,0:0:0:0:
256,192,46489,1,8,0:0:0:0:
256,192,46579,1,8,0:0:0:0:
256,192,46668,1,8,0:0:0:0:
256,192,46757,1,8,0:0:0:0:
256,192,46847,1,0,0:0:0:0:
256,192,47025,1,8,0:0:0:0:
256,192,47114,1,8,0:0:0:0:
256,192,47204,1,0,0:0:0:0:
256,192,47293,1,8,0:0:0:0:
256,192,47382,1,8,0:0:0:0:
256,192,47472,1,0,0:0:0:0:
256,192,47561,1,8,0:0:0:0:
256,192,47739,1,0,0:0:0:0:
256,192,47829,1,8,0:0:0:0:
256,192,47918,1,8,0:0:0:0:
256,192,48007,1,0,0:0:0:0:
256,192,48097,1,8,0:0:0:0:
256,192,48275,1,8,0:0:0:0:
256,192,48364,1,8,0:0:0:0:
256,192,48454,1,0,0:0:0:0:
256,192,48543,1,8,0:0:0:0:
256,192,48632,1,0,0:0:0:0:
256,192,48692,1,0,0:0:0:0:
256,192,48751,1,0,0:0:0:0:
256,192,48811,1,8,0:0:0:0:
256,192,48870,1,0,0:0:0:0:
256,192,48930,1,0,0:0:0:0:
256,192,48989,1,0,0:0:0:0:
256,192,49049,1,8,0:0:0:0:
256,192,49109,1,0,0:0:0:0:
256,192,49168,1,0,0:0:0:0:
256,192,49228,1,0,0:0:0:0:
256,192,49287,1,0,0:0:0:0:
256,192,49347,1,8,0:0:0:0:
256,192,49436,1,8,0:0:0:0:
256,192,49525,1,0,0:0:0:0:
256,192,49614,1,8,0:0:0:0:
256,192,49704,1,0,0:0:0:0:
256,192,49882,1,8,0:0:0:0:
256,192,49972,1,0,0:0:0:0:
256,192,50061,1,0,0:0:0:0:
256,192,50150,1,8,0:0:0:0:
256,192,50239,1,8,0:0:0:0:
256,192,50329,1,0,0:0:0:0:
256,192,50418,1,8,0:0:0:0:
256,192,50597,1,0,0:0:0:0:
256,192,50686,1,8,0:0:0:0:
256,192,50775,1,8,0:0:0:0:
256,192,50864,1,0,0:0:0:0:
256,192,50954,1,8,0:0:0:0:
256,192,51132,1,8,0:0:0:0:
256,192,51311,1,8,0:0:0:0:
256,192,51370,1,0,0:0:0:0:
256,192,51430,1,0,0:0:0:0:
256,192,51489,1,8,0:0:0:0:
256,192,51579,1,0,0:0:0:0:
256,192,51668,1,0,0:0:0:0:
256,192,51757,1,0,0:0:0:0:
256,192,51847,1,8,0:0:0:0:
256,192,51936,1,0,0:0:0:0:
256,192,52025,1,0,0:0:0:0:
256,192,52114,1,8,0:0:0:0:
256,192,52204,1,0,0:0:0:0:
256,192,52293,1,8,0:0:0:0:
256,192,52382,1,8,0:0:0:0:
256,192,52561,1,8,0:0:0:0:
256,192,52620,1,8,0:0:0:0:
256,192,52680,1,8,0:0:0:0:
256,192,52739,1,8,0:0:0:0:
256,192,52799,1,8,0:0:0:0:
256,192,52859,1,8,0:0:0:0:
256,192,52918,1,0,0:0:0:0:
256,192,53007,1,8,0:0:0:0:
256,192,53097,1,8,0:0:0:0:
256,192,53186,1,0,0:0:0:0:
256,192,53275,1,8,0:0:0:0:
256,192,53454,1,0,0:0:0:0:
256,192,53543,1,8,0:0:0:0:
256,192,53632,1,8,0:0:0:0:
256,192,53722,1,0,0:0:0:0:
256,192,53811,1,8,0:0:0:0:
256,192,53989,1,0,0:0:0:0:
256,192,54168,1,8,0:0:0:0:
256,192,54257,1,8,0:0:0:0:
256,192,54347,1,0,0:0:0:0:
256,192,54436,1,0,0:0:0:0:
256,192,54525,1,8,0:0:0:0:
256,192,54614,1,0,0:0:0:0:
256,192,54704,1,0,0:0:0:0:
256,192,54763,1,0,0:0:0:0:
256,192,54823,1,0,0:0:0:0:
256,192,54882,1,8,0:0:0:0:
256,192,54942,1,0,0:0:0:0:
256,192,55001,1,0,0:0:0:0:
256,192,55061,1,8,0:0:0:0:
256,192,55239,1,0,0:0:0:0:
256,192,55329,1,0,0:0:0:0:
256,192,55418,1,8,0:0:0:0:
256,192,55597,1,8,0:0:0:0:
256,192,55686,1,8,0:0:0:0:
256,192,55775,1,0,0:0:0:0:
256,192,55864,1,0,0:0:0:0:
256,192,55954,1,8,0:0:0:0:
256,192,56043,1,0,0:0:0:0:
256,192,56132,1,8,0:0:0:0:
256,192,56222,1,0,0:0:0:0:
256,192,56311,1,8,0:0:0:0:
256,192,56370,1,8,0:0:0:0:
256,192,56430,1,8,0:0:0:0:
256,192,56489,1,0,0:0:0:0:
256,192,56579,1,8,0:0:0:0:
256,192,56668,1,0,0:0:0:0:
256,192,56757,1,0,0:0:0:0:
256,192,56847,1,0,0:0:0:0:
256,192,56906,1,0,0:0:0:0:
256,192,56966,1,0,0:0:0:0:
256,192,57025,1,8,0:0:0:0:
256,192,57085,1,8,0:0:0:0:
256,192,57144,1,8,0:0:0:0:
256,192,57204,1,0,0:0:0:0:
256,192,57293,1,8,0:0:0:0:
256,192,57382,1,0,0:0:0:0:
256,192,57472,1,0,0:0:0:0:
256,192,57561,1,8,0:0:0:0:
256,192,57650,1,8,0:0:0:0:
256,192,57739,1,0,0:0:0:0:
256,192,57829,1,8,0:0:0:0:
256,192,57918,1,0,0:0:0:0:
256,192,58037,1,0,0:0:0:0:
256,192,58156,1,0,0:0:0:0:
256,192,58275,1,8,0:0:0:0:
256,192,58394,1,0,0:0:0:0:
256,192,58454,1,0,0:0:0:0:
256,192,58513,1,0,0:0:0:0:
256,192,58573,1,0,0:0:0:0:
256,192,58632,1,0,0:0:0:0:
256,192,58811,1,8,0:0:0:0:
256,192,58900,1,0,0:0:0:0:
256,192,58989,1,8,0:0:0:0:
256,192,59168,1,0,0:0:0:0:
256,192,59347,1,8,0:0:0:0:
256,192,59525,1,8,0:0:0:0:
256,192,59614,1,0,0:0:0:0:
256,192,59704,1,0,0:0:0:0:
256,192,59882,1,8,0:0:0:0:
256,192,59972,1,0,0:0:0:0:
256,192,60061,1,8,0:0:0:0:
256,192,60239,1,0,0:0:0:0:
256,192,60418,1,8,0:0:0:0:
256,192,60597,1,8,0:0:0:0:
256,192,60686,1,8,0:0:0:0:
256,192,60775,1,0,0:0:0:0:
256,192,60954,1,8,0:0:0:0:
256,192,61043,1,0,0:0:0:0:
256,192,61132,1,8,0:0:0:0:
256,192,61311,1,0,0:0:0:0:
256,192,61489,1,8,0:0:0:0:
256,192,61668,1,0,0:0:0:0:
256,192,61757,1,8,0:0:0:0:
256,192,61847,1,0,0:0:0:0:
256,192,61936,1,0,0:0:0:0:
256,192,62025,1,8,0:0:0:0:
256,192,62204,1,8,0:0:0:0:
256,192,62382,1,8,0:0:0:0:
256,192,62472,1,0,0:0:0:0:
256,192,62561,1,8,0:0:0:0:
256,192,62739,1,0,0:0:0:0:
256,192,62829,1,8,0:0:0:0:
256,192,62918,1,0,0:0:0:0:
256,192,63007,1,0,0:0:0:0:
256,192,63097,1,8,0:0:0:0:
256,192,63275,1,8,0:0:0:0:
256,192,63454,1,8,0:0:0:0:
256,192,63543,1,0,0:0:0:0:
256,192,63632,1,0,0:0:0:0:
256,192,63811,1,8,0:0:0:0:
256,192,63900,1,8,0:0:0:0:
256,192,63989,1,0,0:0:0:0:
256,192,64079,1,0,0:0:0:0:
256,192,64168,1,8,0:0:0:0:
256,192,64257,1,0,0:0:0:0:
256,192,64347,1,0,0:0:0:0:
256,192,64525,1,0,0:0:0:0:
256,192,64614,1,0,0:0:0:0:
256,192,64704,1,8,0:0:0:0:
256,192,64882,1,8,0:0:0:0:
256,192,65061,1,0,0:0:0:0:
256,192,65239,1,8,0:0:0:0:
256,192,65329,1,8,0:0:0:0:
256,192,65418,1,0,0:0:0:0:
256,192,65507,1,0,0:0:0:0:
256,192,65597,1,8,0:0:0:0:
256,192,65686,1,8,0:0:0:0:
256,192,65775,1,0,0:0:0:0:
256,192,65954,1,8,0:0:0:0:
256,192,66043,1,0,0:0:0:0:
256,192,66132,1,0,0:0:0:0:
256,192,66311,1,8,0:0:0:0:
256,192,66400,1,8,0:0:0:0:
256,192,66489,1,0,0:0:0:0:
256,192,66579,1,0,0:0:0:0:
256,192,66668,1,8,0:0:0:0:
256,192,66757,1,0,0:0:0:0:
256,192,66847,1,8,0:0:0:0:
256,192,66936,1,0,0:0:0:0:
256,192,67025,1,8,0:0:0:0:
256,192,67114,1,8,0:0:0:0:
256,192,67204,1,0,0:0:0:0:
256,192,67382,1,8,0:0:0:0:
256,192,67472,1,0,0:0:0:0:
256,192,67561,1,8,0:0:0:0:
256,192,67650,1,8,0:0:0:0:
256,192,67739,1,0,0:0:0:0:
256,192,67829,1,8,0:0:0:0:
256,192,67918,1,0,0:0:0:0:
256,192,67978,1,0,0:0:0:0:
256,192,68037,1,0,0:0:0:0:
256,192,68097,1,0,0:0:0:0:
256,192,68186,1,0,0:0:0:0:
256,192,68275,1,8,0:0:0:0:
256,192,68454,1,0,0:0:0:0:
256,192,68543,1,8,0:0:0:0:
256,192,68632,1,0,0:0:0:0:
256,192,68722,1,0,0:0:0:0:
256,192,68811,1,0,0:0:0:0:
256,192,68900,1,0,0:0:0:0:
256,192,68989,1,8,0:0:0:0:
256,192,69079,1,0,0:0:0:0:
256,192,69168,1,0,0:0:0:0:
256,192,69257,1,0,0:0:0:0:
256,192,69347,1,8,0:0:0:0:
256,192,69436,1,0,0:0:0:0:
256,192,69525,1,8,0:0:0:0:
256,192,69614,1,8,0:0:0:0:
256,192,69704,1,0,0:0:0:0:
256,192,69763,1,8,0:0:0:0:
256,192,69823,1,8,0:0:0:0:
256,192,69882,1,8,0:0:0:0:
256,192,69942,1,8,0:0:0:0:
256,192,70001,1,8,0:0:0:0:
256,192,70061,1,0,0:0:0:0:
256,192,70239,1,0,0:0:0:0:
256,192,70329,1,0,0:0:0:0:
256,192,70418,1,8,0:0:0:0:
256,192,70507,1,8,0:0:0:0:
256,192,70597,1,0,0:0:0:0:
256,192,70686,1,8,0:0:0:0:
256,192,70775,1,0,0:0:0:0:
256,192,70864,1,8,0:0:0:0:
256,192,70954,1,8,0:0:0:0:
256,192,71043,1,8,0:0:0:0:
256,192,71132,1,0,0:0:0:0:
256,192,71311,1,8,0:0:0:0:
256,192,71400,1,0,0:0:0:0:
256,192,71489,1,8,0:0:0:0:
256,192,71847,1,0,0:0:0:0:
256,192,72204,1,0,0:0:0:0:
256,192,72472,1,0,0:0:0:0:
256,192,72561,1,8,0:0:0:0:
256,192,72650,1,8,0:0:0:0:
256,192,72739,1,0,0:0:0:0:
256,192,72829,1,8,0:0:0:0:
256,192,72918,1,0,0:0:0:0:
256,192,73007,1,0,0:0:0:0:
256,192,73097,1,8,0:0:0:0:
256,192,73186,1,8,0:0:0:0:
256,192,73275,1,0,0:0:0:0:
256,192,73454,1,8,0:0:0:0:
256,192,73543,1,0,0:0:0:0:
256,192,73632,1,8,0:0:0:0:
256,192,73989,1,8,0:0:0:0:
256,192,74168,1,0,0:0:0:0:
256,192,74347,1,4,0:0:0:0:
256,192,74614,1,0,0:0:0:0:
256,192,74704,1,8,0:0:0:0:
256,192,74793,1,0,0:0:0:0:
256,192,74882,1,8,0:0:0:0:
256,192,74972,1,8,0:0:0:0:
256,192,75061,1,0,0:0:0:0:
256,192,75239,1,8,0:0:0:0:
256,192,75329,1,8,0:0:0:0:
256,192,75418,1,0,0:0:0:0:
256,192,75597,1,8,0:0:0:0:
256,192,75656,1,8,0:0:0:0:
256,192,75716,1,8,0:0:0:0:
256,192,75775,1,0,0:0:0:0:
256,192,75954,1,0,0:0:0:0:
256,192,76043,1,0,0:0:0:0:
256,192,76132,1,8,0:0:0:0:
256,192,76222,1,0,0:0:0:0:
256,192,76311,1,8,0:0:0:0:
256,192,76370,1,8,0:0:0:0:
256,192,76430,1,8,0:0:0:0:
256,192,76489,1,0,0:0:0:0:
256,192,76579,1,0,0:0:0:0:
256,192,76668,1,8,0:0:0:0:
256,192,76757,1,0,0:0:0:0:
256,192,76847,1,8,0:0:0:0:
256,192,77025,1,0,0:0:0:0:
256,192,77114,1,8,0:0:0:0:
256,192,77204,1,8,0:0:0:0:
256,192,77293,1,8,0:0:0:0:
256,192,77382,1,0,0:0:0:0:
256,192,77472,1,8,0:0:0:0:
256,192,77561,1,0,0:0:0:0:
256,192,77739,1,8,0:0:0:0:
256,192,77829,1,0,0:0:0:0:
256,192,77918,1,8,0:0:0:0:
256,192,78097,1,0,0:0:0:0:
256,192,78275,1,8,0:0:0:0:
256,192,78335,1,8,0:0:0:0:
256,192,78394,1,8,0:0:0:0:
256,192,78454,1,0,0:0:0:0:
256,192,78632,1,4,0:0:0:0:
256,192,78811,1,0,0:0:0:0:
256,192,78900,1,0,0:0:0:0:
256,192,78989,1,8,0:0:0:0:
256,192,79079,1,0,0:0:0:0:
256,192,79168,1,8,0:0:0:0:
256,192,79257,1,8,0:0:0:0:
256,192,79347,1,0,0:0:0:0:
256,192,79406,1,0,0:0:0:0:
256,192,79466,1,0,0:0:0:0:
256,192,79525,1,8,0:0:0:0:
256,192,79614,1,8,0:0:0:0:
256,192,79704,1,0,0:0:0:0:
256,192,79882,1,8,0:0:0:0:
256,192,79972,1,0,0:0:0:0:
256,192,80061,1,8,0:0:0:0:
256,192,80239,1,0,0:0:0:0:
256,192,80329,1,8,0:0:0:0:
256,192,80418,1,0,0:0:0:0:
256,192,80597,1,8,0:0:0:0:
256,192,80686,1,8,0:0:0:0:
256,192,80775,1,0,0:0:0:0:
256,192,80954,1,8,0:0:0:0:
256,192,81043,1,0,0:0:0:0:
256,192,81132,1,0,0:0:0:0:
256,192,81222,1,0,0:0:0:0:
256,192,81311,1,8,0:0:0:0:
256,192,81400,1,8,0:0:0:0:
256,192,81489,1,0,0:0:0:0:
256,192,81549,1,0,0:0:0:0:
256,192,81609,1,0,0:0:0:0:
256,192,81668,1,8,0:0:0:0:
256,192,81757,1,8,0:0:0:0:
256,192,81847,1,0,0:0:0:0:
256,192,82025,1,8,0:0:0:0:
256,192,82114,1,0,0:0:0:0:
256,192,82204,1,8,0:0:0:0:
256,192,82382,1,8,0:0:0:0:
256,192,82472,1,8,0:0:0:0:
256,192,82561,1,0,0:0:0:0:
256,192,82739,1,8,0:0:0:0:
256,192,82829,1,0,0:0:0:0:
256,192,82918,1,0,0:0:0:0:
256,192,83007,1,0,0:0:0:0:
256,192,83097,1,8,0:0:0:0:
256,192,83186,1,0,0:0:0:0:
256,192,83275,1,8,0:0:0:0:
256,192,83364,1,0,0:0:0:0:
256,192,83454,1,8,0:0:0:0:
256,192,83543,1,8,0:0:0:0:
256,192,83632,1,0,0:0:0:0:
256,192,83722,1,0,0:0:0:0:
256,192,83811,1,8,0:0:0:0:
256,192,83870,1,8,0:0:0:0:
256,192,83930,1,8,0:0:0:0:
256,192,83989,1,0,0:0:0:0:
256,192,84079,1,0,0:0:0:0:
256,192,84168,1,8,0:0:0:0:
256,192,84228,1,0,0:0:0:0:
256,192,84287,1,0,0:0:0:0:
256,192,84347,1,8,0:0:0:0:
256,192,84436,1,0,0:0:0:0:
256,192,84525,1,8,0:0:0:0:
256,192,84614,1,8,0:0:0:0:
256,192,84704,1,0,0:0:0:0:
256,192,84793,1,0,0:0:0:0:
256,192,84882,1,8,0:0:0:0:
256,192,84942,1,8,0:0:0:0:
256,192,85001,1,8,0:0:0:0:
256,192,85061,1,0,0:0:0:0:
256,192,85150,1,8,0:0:0:0:
256,192,85239,1,0,0:0:0:0:
256,192,85329,1,8,0:0:0:0:
256,192,85418,1,8,0:0:0:0:
256,192,85507,1,0,0:0:0:0:
256,192,85597,1,8,0:0:0:0:
256,192,85686,1,0,0:0:0:0:
256,192,85775,1,8,0:0:0:0:
256,192,85864,1,8,0:0:0:0:
256,192,85954,1,0,0:0:0:0:
256,192,86013,1,0,0:0:0:0:
256,192,86073,1,0,0:0:0:0:
256,192,86132,1,8,0:0:0:0:
256,192,86192,1,8,0:0:0:0:
256,192,86251,1,8,0:0:0:0:
256,192,86311,1,8,0:0:0:0:
256,192,86370,1,8,0:0:0:0:
256,192,86430,1,8,0:0:0:0:
256,192,86489,1,0,0:0:0:0:
256,192,86609,1,0,0:0:0:0:
256,192,86728,1,0,0:0:0:0:
256,192,86847,1,8,0:0:0:0:
256,192,86966,1,8,0:0:0:0:
256,192,87085,1,8,0:0:0:0:
256,192,87204,1,4,0:0:0:0:
256,192,87382,1,8,0:0:0:0:
256,192,87472,1,0,0:0:0:0:
256,192,87561,1,8,0:0:0:0:
256,192,87650,1,8,0:0:0:0:
256,192,87739,1,8,0:0:0:0:
256,192,87829,1,8,0:0:0:0:
256,192,87918,1,0,0:0:0:0:
256,192,88007,1,0,0:0:0:0:
256,192,88097,1,8,0:0:0:0:
256,192,88186,1,0,0:0:0:0:
256,192,88275,1,8,0:0:0:0:
256,192,88454,1,0,0:0:0:0:
256,192,88543,1,0,0:0:0:0:
256,192,88632,1,8,0:0:0:0:
256,192,88811,1,8,0:0:0:0:
256,192,88900,1,8,0:0:0:0:
256,192,88989,1,0,0:0:0:0:
256,192,89168,1,8,0:0:0:0:
256,192,89257,1,0,0:0:0:0:
256,192,89347,1,0,0:0:0:0:
256,192,89525,1,8,0:0:0:0:
256,192,89614,1,0,0:0:0:0:
256,192,89704,1,8,0:0:0:0:
256,192,89793,1,8,0:0:0:0:
256,192,89882,1,0,0:0:0:0:
256,192,89972,1,8,0:0:0:0:
256,192,90061,1,0,0:0:0:0:
256,192,90150,1,8,0:0:0:0:
256,192,90239,1,8,0:0:0:0:
256,192,90329,1,8,0:0:0:0:
256,192,90418,1,0,0:0:0:0:
256,192,90597,1,8,0:0:0:0:
256,192,90686,1,0,0:0:0:0:
256,192,90775,1,8,0:0:0:0:
256,192,90954,1,8,0:0:0:0:
256,192,91043,1,8,0:0:0:0:
256,192,91132,1,0,0:0:0:0:
256,192,91311,1,8,0:0:0:0:
256,192,91400,1,0,0:0:0:0:
256,192,91489,1,0,0:0:0:0:
256,192,91668,1,8,0:0:0:0:
256,192,91757,1,0,0:0:0:0:
256,192,91847,1,8,0:0:0:0:
256,192,91936,1,0,0:0:0:0:
256,192,92025,1,8,0:0:0:0:
256,192,92114,1,8,0:0:0:0:
256,192,92204,1,0,0:0:0:0:
256,192,92293,1,8,0:0:0:0:
256,192,92382,1,8,0:0:0:0:
256,192,92472,1,8,0:0:0:0:
256,192,92561,1,0,0:0:0:0:
256,192,92739,1,0,0:0:0:0:
256,192,92799,1,0,0:0:0:0:
256,192,92859,1,0,0:0:0:0:
256,192,92918,1,8,0:0:0:0:
256,192,93097,1,0,0:0:0:0:
256,192,93186,1,0,0:0:0:0:
256,192,93275,1,8,0:0:0:0:
256,192,93364,1,0,0:0:0:0:
256,192,93454,1,8,0:0:0:0:
256,192,93543,1,8,0:0:0:0:
256,192,93632,1,8,0:0:0:0:
256,192,93722,1,0,0:0:0:0:
256,192,93811,1,8,0:0:0:0:
256,192,93900,1,0,0:0:0:0:
256,192,93989,1,0,0:0:0:0:
256,192,94079,1,8,0:0:0:0:
256,192,94168,1,0,0:0:0:0:
256,192,94257,1,8,0:0:0:0:
256,192,94347,1,8,0:0:0:0:
256,192,94436,1,8,0:0:0:0:
256,192,94525,1,0,0:0:0:0:
256,192,94614,1,8,0:0:0:0:
256,192,94704,1,0,0:0:0:0:
256,192,94882,1,8,0:0:0:0:
256,192,94972,1,0,0:0:0:0:
256,192,95061,1,8,0:0:0:0:
256,192,95239,1,8,0:0:0:0:
256,192,95329,1,8,0:0:0:0:
256,192,95418,1,0,0:0:0:0:
256,192,95478,1,0,0:0:0:0:
256,192,95537,1,0,0:0:0:0:
256,192,95597,1,8,0:0:0:0:
256,192,95775,1,0,0:0:0:0:
256,192,95954,1,8,0:0:0:0:
256,192,96043,1,0,0:0:0:0:
256,192,96132,1,8,0:0:0:0:
256,192,96222,1,8,0:0:0:0:
256,192,96311,1,0,0:0:0:0:
256,192,96400,1,8,0:0:0:0:
256,192,96489,1,0,0:0:0:0:
256,192,96668,1,8,0:0:0:0:
256,192,96757,1,0,0:0:0:0:
256,192,96847,1,0,0:0:0:0:
256,192,97025,1,8,0:0:0:0:
256,192,97114,1,0,0:0:0:0:
256,192,97204,1,0,0:0:0:0:
256,192,97293,1,0,0:0:0:0:
256,192,97382,1,8,0:0:0:0:
256,192,97472,1,8,0:0:0:0:
256,192,97561,1,0,0:0:0:0:
256,192,97650,1,8,0:0:0:0:
256,192,97739,1,8,0:0:0:0:
256,192,97829,1,0,0:0:0:0:
256,192,97918,1,0,0:0:0:0:
256,192,98007,1,0,0:0:0:0:
256,192,98097,1,8,0:0:0:0:
256,192,98186,1,0,0:0:0:0:
256,192,98275,1,8,0:0:0:0:
256,192,98454,1,8,0:0:0:0:
256,192,98543,1,8,0:0:0:0:
256,192,98632,1,0,0:0:0:0:
256,192,98811,1,8,0:0:0:0:
256,192,98900,1,0,0:0:0:0:
256,192,98989,1,0,0:0:0:0:
256,192,99168,1,0,0:0:0:0:
256,192,99257,1,0,0:0:0:0:
256,192,99347,1,8,0:0:0:0:
256,192,99525,1,8,0:0:0:0:
256,192,99614,1,8,0:0:0:0:
256,192,99704,1,0,0:0:0:0:
256,192,99793,1,8,0:0:0:0:
256,192,99882,1,8,0:0:0:0:
256,192,99972,1,0,0:0:0:0:
256,192,100061,1,0,0:0:0:0:
256,192,100150,1,8,0:0:0:0:
256,192,100239,1,0,0:0:0:0:
256,192,100329,1,0,0:0:0:0:
256,192,100418,1,8,0:0:0:0:
256,192,100507,1,0,0:0:0:0:
256,192,100597,1,8,0:0:0:0:
256,192,100686,1,8,0:0:0:0:
256,192,100775,1,0,0:0:0:0:
256,192,100954,1,8,0:0:0:0:
256,192,101043,1,0,0:0:0:0:
256,192,101132,1,8,0:0:0:0:
256,192,101222,1,0,0:0:0:0:
256,192,101311,1,0,0:0:0:0:
256,192,101370,1,0,0:0:0:0:
256,192,101430,1,0,0:0:0:0:
256,192,101489,1,8,0:0:0:0:
256,192,101668,1,8,0:0:0:0:
256,192,101757,1,8,0:0:0:0:
256,192,101847,1,0,0:0:0:0:
256,192,102025,1,0,0:0:0:0:
256,192,102085,1,0,0:0:0:0:
256,192,102144,1,0,0:0:0:0:
256,192,102204,1,8,0:0:0:0:
256,192,102293,1,0,0:0:0:0:
256,192,102382,1,8,0:0:0:0:
256,192,102472,1,0,0:0:0:0:
256,192,102561,1,8,0:0:0:0:
256,192,102650,1,0,0:0:0:0:
256,192,102739,1,8,0:0:0:0:
256,192,102829,1,0,0:0:0:0:
256,192,102918,1,8,0:0:0:0:
256,192,103007,1,8,0:0:0:0:
256,192,103097,1,0,0:0:0:0:
256,192,103186,1,0,0:0:0:0:
256,192,103275,1,8,0:0:0:0:
256,192,103364,1,8,0:0:0:0:
256,192,103454,1,0,0:0:0:0:
256,192,103543,1,8,0:0:0:0:
256,192,103632,1,8,0:0:0:0:
256,192,103722,1,0,0:0:0:0:
256,192,103811,1,8,0:0:0:0:
256,192,103989,1,4,0:0:0:0:
256,192,104168,1,0,0:0:0:0:
256,192,104228,1,0,0:0:0:0:
256,192,104287,1,0,0:0:0:0:
256,192,104704,1,0,0:0:0:0:
256,192,105061,1,8,0:0:0:0:
256,192,105418,1,8,0:0:0:0:
256,192,105775,1,4,0:0:0:0:
256,192,105954,1,8,0:0:0:0:
256,192,106043,1,0,0:0:0:0:
256,192,106132,1,8,0:0:0:0:
256,192,106311,1,8,0:0:0:0:
256,192,106400,1,0,0:0:0:0:
256,192,106489,1,8,0:0:0:0:
256,192,106579,1,0,0:0:0:0:
256,192,106668,1,0,0:0:0:0:
256,192,106757,1,0,0:0:0:0:
256,192,106847,1,8,0:0:0:0:
256,192,106936,1,8,0:0:0:0:
256,192,107025,1,0,0:0:0:0:
256,192,107114,1,8,0:0:0:0:
256,192,107204,1,0,0:0:0:0:
256,192,107293,1,0,0:0:0:0:
256,192,107382,1,8,0:0:0:0:
256,192,107472,1,0,0:0:0:0:
256,192,107561,1,8,0:0:0:0:
256,192,107739,1,0,0:0:0:0:
256,192,107829,1,8,0:0:0:0:
256,192,107918,1,0,0:0:0:0:
256,192,108007,1,8,0:0:0:0:
256,192,108097,1,0,0:0:0:0:
256,192,108186,1,0,0:0:0:0:
256,192,108275,1,8,0:0:0:0:
256,192,108364,1,8,0:0:0:0:
256,192,108454,1,0,0:0:0:0:
256,192,108513,1,0,0:0:0:0:
256,192,108573,1,0,0:0:0:0:
256,192,108632,1,0,0:0:0:0:
256,192,108722,1,0,0:0:0:0:
256,192,108811,1,8,0:0:0:0:
256,192,108900,1,0,0:0:0:0:
256,192,108989,1,8,0:0:0:0:
256,192,109079,1,0,0:0:0:0:
256,192,109168,1,8,0:0:0:0:
256,192,109257,1,8,0:0:0:0:
256,192,109347,1,0,0:0:0:0:
256,192,109406,1,0,0:0:0:0:
256,192,109466,1,0,0:0:0:0:
256,192,109525,1,8,0:0:0:0:
256,192,109614,1,0,0:0:0:0:
256,192,109704,1,8,0:0:0:0:
256,192,109793,1,0,0:0:0:0:
256,192,109882,1,8,0:0:0:0:
256,192,109972,1,8,0:0:0:0:
256,192,110061,1,0,0:0:0:0:
256,192,110150,1,8,0:0:0:0:
256,192,110239,1,0,0:0:0:0:
256,192,110329,1,0,0:0:0:0:
256,192,110418,1,8,0:0:0:0:
256,192,110507,1,0,0:0:0:0:
256,192,110597,1,0,0:0:0:0:
256,192,110686,1,8,0:0:0:0:
256,192,110775,1,0,0:0:0:0:
256,192,110954,1,0,0:0:0:0:
256,192,111043,1,0,0:0:0:0:
256,192,111132,1,8,0:0:0:0:
256,192,111311,1,8,0:0:0:0:
256,192,111400,1,8,0:0:0:0:
256,192,111489,1,0,0:0:0:0:
256,192,111579,1,0,0:0:0:0:
256,192,111668,1,8,0:0:0:0:
256,192,111757,1,0,0:0:0:0:
256,192,111847,1,8,0:0:0:0:
256,192,112025,1,8,0:0:0:0:
256,192,112114,1,8,0:0:0:0:
256,192,112204,1,0,0:0:0:0:
256,192,112382,1,0,0:0:0:0:
256,192,112472,1,0,0:0:0:0:
256,192,112561,1,8,0:0:0:0:
256,192,112650,1,0,0:0:0:0:
256,192,112739,1,8,0:0:0:0:
256,192,112829,1,8,0:0:0:0:
256,192,112918,1,0,0:0:0:0:
256,192,113007,1,8,0:0:0:0:
256,192,113097,1,8,0:0:0:0:
256,192,113186,1,8,0:0:0:0:
256,192,113275,1,0,0:0:0:0:
256,192,113364,1,8,0:0:0:0:
256,192,113454,1,0,0:0:0:0:
256,192,113543,1,0,0:0:0:0:
256,192,113632,1,8,0:0:0:0:
256,192,113722,1,0,0:0:0:0:
256,192,113811,1,8,0:0:0:0:
256,192,113900,1,0,0:0:0:0:
256,192,113989,1,8,0:0:0:0:
256,192,114079,1,0,0:0:0:0:
256,192,114168,1,0,0:0:0:0:
256,192,114228,1,0,0:0:0:0:
256,192,114287,1,0,0:0:0:0:
256,192,114347,1,8,0:0:0:0:
256,192,114436,1,8,0:0:0:0:
256,192,114525,1,0,0:0:0:0:
256,192,114614,1,0,0:0:0:0:
256,192,114704,1,8,0:0:0:0:
256,192,114793,1,0,0:0:0:0:
256,192,114882,1,0,0:0:0:0:
256,192,114972,1,0,0:0:0:0:
256,192,115061,1,8,0:0:0:0:
256,192,115150,1,0,0:0:0:0:
256,192,115239,1,8,0:0:0:0:
256,192,115329,1,8,0:0:0:0:
256,192,115418,1,0,0:0:0:0:
256,192,115507,1,0,0:0:0:0:
256,192,115597,1,8,0:0:0:0:
256,192,115686,1,0,0:0:0:0:
256,192,115775,1,0,0:0:0:0:
256,192,115864,1,0,0:0:0:0:
256,192,115954,1,8,0:0:0:0:
256,192,116043,1,0,0:0:0:0:
256,192,116132,1,0,0:0:0:0:
256,192,116222,1,0,0:0:0:0:
256,192,116311,1,8,0:0:0:0:
256,192,116400,1,8,0:0:0:0:
256,192,116489,1,0,0:0:0:0:
256,192,116579,1,8,0:0:0:0:
256,192,116668,1,8,0:0:0:0:
256,192,116757,1,8,0:0:0:0:
256,192,116847,1,0,0:0:0:0:
256,192,116936,1,8,0:0:0:0:
256,192,117025,1,8,0:0:0:0:
256,192,117114,1,8,0:0:0:0:
256,192,117204,1,0,0:0:0:0:
256,192,117382,1,8,0:0:0:0:
256,192,117472,1,0,0:0:0:0:
256,192,117561,1,8,0:0:0:0:
256,192,117739,1,0,0:0:0:0:
256,192,117918,1,8,0:0:0:0:
256,192,118007,1,0,0:0:0:0:
256,192,118097,1,8,0:0:0:0:
256,192,118275,1,0,0:0:0:0:
256,192,118454,1,8,0:0:0:0:
256,192,118543,1,0,0:0:0:0:
256,192,118632,1,0,0:0:0:0:
256,192,118722,1,0,0:0:0:0:
256,192,118811,1,8,0:0:0:0:
256,192,118900,1,8,0:0:0:0:
256,192,118989,1,0,0:0:0:0:
256,192,119079,1,8,0:0:0:0:
256,192,119168,1,0,0:0:0:0:
256,192,119228,1,0,0:0:0:0:
256,192,119287,1,0,0:0:0:0:
256,192,119347,1,0,0:0:0:0:
256,192,119436,1,0,0:0:0:0:
256,192,119525,1,8,0:0:0:0:
256,192,119614,1,0,0:0:0:0:
256,192,119704,1,8,0:0:0:0:
256,192,119882,1,0,0:0:0:0:
256,192,119942,1,0,0:0:0:0:
256,192,120001,1,0,0:0:0:0:
256,192,120061,1,0,0:0:0:0:
256,192,120239,1,8,0:0:0:0:
256,192,120329,1,0,0:0:0:0:
256,192,120418,1,8,0:0:0:0:
256,192,120597,1,8,0:0:0:0:
256,192,120775,1,8,0:0:0:0:
256,192,120864,1,0,0:0:0:0:
256,192,120954,1,8,0:0:0:0:
256,192,121132,1,8,0:0:0:0:
256,192,121311,1,8,0:0:0:0:
256,192,121400,1,8,0:0:0:0:
256,192,121489,1,0,0:0:0:0:
256,192,121579,1,0,0:0:0:0:
256,192,121668,1,8,0:0:0:0:
256,192,121757,1,0,0:0:0:0:
256,192,121847,1,8,0:0:0:0:
256,192,121936,1,0,0:0:0:0:
256,192,122025,1,8,0:0:0:0:
256,192,122114,1,8,0:0:0:0:
256,192,122204,1,0,0:0:0:0:
256,192,122323,1,0,0:0:0:0:
256,192,122442,1,0,0:0:0:0:
256,192,122561,1,8,0:0:0:0:
256,192,122620,1,8,0:0:0:0:
256,192,122680,1,8,0:0:0:0:
256,192,122739,1,0,0:0:0:0:
256,192,122829,1,0,0:0:0:0:
256,192,123097,1,8,0:0:0:0:
256,192,123186,1,0,0:0:0:0:
256,192,123275,1,8,0:0:0:0:
256,192,123454,1,0,0:0:0:0:
256,192,123543,1,0,0:0:0:0:
256,192,123632,1,8,0:0:0:0:
256,192,123722,1,0,0:0:0:0:
256,192,123811,1,8,0:0:0:0:
256,192,123989,1,8,0:0:0:0:
256,192,124168,1,0,0:0:0:0:
256,192,124257,1,0,0:0:0:0:
256,192,124347,1,8,0:0:0:0:
256,192,124436,1,0,0:0:0:0:
256,192,124525,1,0,0:0:0:0:
256,192,124614,1,8,0:0:0:0:
256,192,124704,1,0,0:0:0:0:
256,192,124793,1,8,0:0:0:0:
256,192,124882,1,0,0:0:0:0:
256,192,124972,1,0,0:0:0:0:
256,192,125061,1,8,0:0:0:0:
256,192,125150,1,8,0:0:0:0:
256,192,125239,1,0,0:0:0:0:
256,192,125329,1,8,0:0:0:0:
256,192,125418,1,0,0:0:0:0:
256,192,125597,1,0,0:0:0:0:
256,192,125686,1,0,0:0:0:0:
256,192,125954,1,8,0:0:0:0:
256,192,126043,1,0,0:0:0:0:
256,192,126132,1,8,0:0:0:0:
256,192,126311,1,0,0:0:0:0:
256,192,126400,1,0,0:0:0:0:
256,192,126489,1,8,0:0:0:0:
256,192,126579,1,0,0:0:0:0:
256,192,126668,1,8,0:0:0:0:
256,192,126847,1,8,0:0:0:0:
256,192,127025,1,0,0:0:0:0:
256,192,127114,1,0,0:0:0:0:
256,192,127204,1,0,0:0:0:0:
256,192,127293,1,8,0:0:0:0:
256,192,127382,1,0,0:0:0:0:
256,192,127472,1,0,0:0:0:0:
256,192,127561,1,0,0:0:0:0:
256,192,127650,1,0,0:0:0:0:
256,192,127739,1,8,0:0:0:0:
256,192,127829,1,8,0:0:0:0:
256,192,127918,1,0,0:0:0:0:
256,192,128097,1,8,0:0:0:0:
256,192,128186,1,0,0:0:0:0:
256,192,128275,1,0,0:0:0:0:
256,192,128454,1,8,0:0:0:0:
256,192,128543,1,8,0:0:0:0:
256,192,128632,1,0,0:0:0:0:
256,192,128722,1,0,0:0:0:0:
256,192,128811,1,8,0:0:0:0:
256,192,128900,1,0,0:0:0:0:
256,192,128989,1,8,0:0:0:0:
256,192,129168,1,0,0:0:0:0:
256,192,129257,1,0,0:0:0:0:
256,192,129347,1,8,0:0:0:0:
256,192,129436,1,0,0:0:0:0:
256,192,129525,1,8,0:0:0:0:
256,192,129704,1,8,0:0:0:0:
256,192,129793,1,8,0:0:0:0:
256,192,129882,1,0,0:0:0:0:
256,192,129972,1,0,0:0:0:0:
256,192,130061,1,8,0:0:0:0:
256,192,130120,1,0,0:0:0:0:
256,192,130180,1,0,0:0:0:0:
256,192,130239,1,8,0:0:0:0:
256,192,130299,1,0,0:0:0:0:
256,192,130359,1,0,0:0:0:0:
256,192,130418,1,8,0:0:0:0:
256,192,130478,1,0,0:0:0:0:
256,192,130537,1,0,0:0:0:0:
256,192,130597,1,0,0:0:0:0:
256,192,130656,1,0,0:0:0:0:
256,192,130716,1,0,0:0:0:0:
256,192,130775,1,8,0:0:0:0:
256,192,130864,1,0,0:0:0:0:
256,192,130954,1,0,0:0:0:0:
256,192,131132,1,0,0:0:0:0:
256,192,131311,1,8,0:0:0:0:
256,192,131400,1,8,0:0:0:0:
256,192,131489,1,0,0:0:0:0:
256,192,131579,1,8,0:0:0:0:
256,192,131668,1,8,0:0:0:0:
256,192,131757,1,0,0:0:0:0:
256,192,131847,1,8,0:0:0:0:
256,192,132025,1,0,0:0:0:0:
256,192,132114,1,8,0:0:0:0:
256,192,132204,1,8,0:0:0:0:
256,192,132293,1,0,0:0:0:0:
256,192,132382,1,8,0:0:0:0:
256,192,132561,1,0,0:0:0:0:
256,192,132739,1,8,0:0:0:0:
256,192,132829,1,8,0:0:0:0:
256,192,132918,1,8,0:0:0:0:
256,192,133007,1,8,0:0:0:0:
256,192,133097,1,0,0:0:0:0:
256,192,133186,1,0,0:0:0:0:
256,192,133275,1,0,0:0:0:0:
256,192,133364,1,8,0:0:0:0:
256,192,133454,1,0,0:0:0:0:
256,192,133543,1,0,0:0:0:0:
256,192,133632,1,8,0:0:0:0:
256,192,133722,1,8,0:0:0:0:
256,192,133811,1,8,0:0:0:0:
256,192,133900,1,8,0:0:0:0:
256,192,133989,1,0,0:0:0:0:
256,192,134049,1,0,0:0:0:0:
256,192,134109,1,0,0:0:0:0:
256,192,134168,1,0,0:0:0:0:
256,192,134228,1,0,0:0:0:0:
256,192,134287,1,0,0:0:0:0:
256,192,134347,1,0,0:0:0:0:
256,192,134436,1,8,0:0:0:0:
256,192,134525,1,8,0:0:0:0:
256,192,134614,1,0,0:0:0:0:
256,192,134704,1,8,0:0:0:0:
256,192,134882,1,0,0:0:0:0:
256,192,134972,1,8,0:0:0:0:
256,192,135061,1,8,0:0:0:0:
256,192,135150,1,0,0:0:0:0:
256,192,135239,1,8,0:0:0:0:
256,192,135418,1,0,0:0:0:0:
256,192,135597,1,8,0:0:0:0:
256,192,135686,1,8,0:0:0:0:
256,192,135775,1,0,0:0:0:0:
256,192,135864,1,0,0:0:0:0:
256,192,135954,1,8,0:0:0:0:
256,192,136043,1,8,0:0:0:0:
256,192,136132,1,0,0:0:0:0:
256,192,136192,1,0,0:0:0:0:
256,192,136251,1,0,0:0:0:0:
256,192,136311,1,8,0:0:0:0:
256,192,136370,1,8,0:0:0:0:
256,192,136430,1,8,0:0:0:0:
256,192,136489,1,0,0:0:0:0:
256,192,136668,1,8,0:0:0:0:
256,192,136757,1,0,0:0:0:0:
256,192,136847,1,0,0:0:0:0:
256,192,137025,1,8,0:0:0:0:
256,192,137114,1,8,0:0:0:0:
256,192,137204,1,0,0:0:0:0:
256,192,137293,1,8,0:0:0:0:
256,192,137382,1,8,0:0:0:0:
256,192,137472,1,0,0:0:0:0:
256,192,137561,1,8,0:0:0:0:
256,192,137650,1,0,0:0:0:0:
256,192,137739,1,0,0:0:0:0:
256,192,137799,1,0,0:0:0:0:
256,192,137859,1,0,0:0:0:0:
256,192,137918,1,8,0:0:0:0:
256,192,138007,1,0,0:0:0:0:
256,192,138097,1,8,0:0:0:0:
256,192,138186,1,8,0:0:0:0:
256,192,138275,1,0,0:0:0:0:
256,192,138335,1,0,0:0:0:0:
256,192,138394,1,0,0:0:0:0:
256,192,138454,1,8,0:0:0:0:
256,192,138513,1,8,0:0:0:0:
256,192,138573,1,8,0:0:0:0:
256,192,138632,1,0,0:0:0:0:
256,192,138722,1,8,0:0:0:0:
256,192,138811,1,0,0:0:0:0:
256,192,138900,1,0,0:0:0:0:
256,192,138989,1,8,0:0:0:0:
256,192,139079,1,0,0:0:0:0:
256,192,139168,1,0,0:0:0:0:
256,192,139257,1,8,0:0:0:0:
256,192,139347,1,0,0:0:0:0:
256,192,139466,1,0,0:0:0:0:
256,192,139585,1,0,0:0:0:0:
256,192,139704,1,8,0:0:0:0:
256,192,139823,1,8,0:0:0:0:
256,192,139942,1,8,0:0:0:0:
256,192,140061,1,8,0:0:0:0:
256,192,140150,1,8,0:0:0:0:
256,192,140239,1,8,0:0:0:0:
256,192,140329,1,8,0:0:0:0:
256,192,140418,1,8,0:0:0:0:
256,192,140507,1,8,0:0:0:0:
256,192,140597,1,8,0:0:0:0:
256,192,140686,1,8,0:0:0:0:
256,192,140775,1,0,0:0:0:0:
256,192,140864,1,0,0:0:0:0:
256,192,140954,1,0,0:0:0:0:
256,192,141043,1,0,0:0:0:0:
256,192,141132,1,8,0:0:0:0:
256,192,141192,1,8,0:0:0:0:
256,192,141251,1,8,0:0:0:0:
256,192,141311,1,8,0:0:0:0:
256,192,141370,1,8,0:0:0:0:
256,192,141430,1,8,0:0:0:0:
256,192,141489,12,0,141757,0:0:0:0:
256,192,141847,5,4,0:0:0:0:
