osu file format v10

[General]
AudioFilename: weyheyhey !! - Helical Scan -03 I'm Your Daddy.mp3
AudioLeadIn: 0
PreviewTime: 62004
Countdown: 0
SampleSet: Normal
StackLeniency: 0.7
Mode: 1
LetterboxInBreaks: 0

[Editor]
Bookmarks: 6804,23870,40937,58004,62270,79337,96404,113470,130537,147604,164670,181737,198804,215870
DistanceSpacing: 0
BeatDivisor: 4
GridSize: 8

[Metadata]
Title:I'm Your Daddy
TitleUnicode:I'm Your Daddy
Artist:weyheyhey !!
ArtistUnicode:weyheyhey !!
Creator:Loctav
Version:Oni
Source:
Tags:Helical Scan Luanny PhNyx [Luanny PhNyx] breakcore jungle [Luanny]
BeatmapID:179236
BeatmapSetID:59859

[Difficulty]
HPDrainRate:5
CircleSize:6
OverallDifficulty:5
ApproachRate:6
SliderMultiplier:1.4
SliderTickRate:1

[Events]
//Background and Video events
0,0,"bg.jpg"
//Break Periods
//Storyboard Layer 0 (Background)
//Storyboard Layer 1 (Fail)
//Storyboard Layer 2 (Pass)
//Storyboard Layer 3 (Foreground)
Sprite,Foreground,Centre,"loctav.jpg",320,240 M,0,6804,,68,275 S,0,6804,,0.5967999 F,0,6804,6937,0,1 F,0,215870,216004,1,0
//Storyboard Sound Samples
//Background Colour Transformations
3,100,0,0,0

[TimingPoints]
6804,266.666666666667,4,1,0,100,1,0
57603,-111.111111111111,4,1,0,100,0,0
58004,-125,4,1,0,100,0,0
62270,-100,4,1,0,100,0,1
96404,-100,4,1,0,100,0,0
164270,-111.111111111111,4,1,0,100,0,0
164937,-125,4,1,0,70,0,0
181737,-100,4,1,0,100,0,1
197737,-100,4,1,0,100,0,0
198804,-100,4,1,0,100,0,1
214804,-100,4,1,0,70,0,0

[Colours]
Combo1 : 5,5,240
Combo2 : 255,0,0

[HitObjects]
256,192,6804,5,0,0:0:0
256,192,6937,1,0,0:0:0
256,192,7070,5,8,0:0:0
256,192,7204,5,0,0:0:0
256,192,7337,1,0,0:0:0
256,192,7604,5,8,0:0:0
256,192,7737,5,0,0:0:0
256,192,7870,1,0,0:0:0
256,192,8137,5,0,0:0:0
256,192,8270,1,0,0:0:0
256,192,8337,1,0,0:0:0
256,192,8404,5,8,0:0:0
256,192,8537,5,8,0:0:0
256,192,8670,5,0,0:0:0
256,192,8804,5,8,0:0:0
256,192,8937,5,0,0:0:0
256,192,9070,1,0,0:0:0
256,192,9204,5,8,0:0:0
256,192,9337,5,0,0:0:0
256,192,9470,1,0,0:0:0
256,192,9604,6,8,B|472:192,1,210
256,192,10270,5,4,0:0:0
256,192,10537,1,0,0:0:0
256,192,10670,1,0,0:0:0
256,192,10803,5,8,0:0:0
256,192,11070,5,0,0:0:0
256,192,11203,1,0,0:0:0
256,192,11270,1,0,0:0:0
256,192,11337,5,8,0:0:0
256,192,11470,5,0,0:0:0
256,192,11603,1,0,0:0:0
256,192,11737,5,8,0:0:0
256,192,11870,5,0,0:0:0
256,192,12003,5,8,0:0:0
256,192,12137,5,4,0:0:0
256,192,12403,5,8,0:0:0
256,192,12537,1,8,0:0:0
256,192,12804,1,8,0:0:0
256,192,12870,1,8,0:0:0
256,192,12937,1,8,0:0:0
256,192,13203,5,0,0:0:0
256,192,13337,1,0,0:0:0
256,192,13403,1,0,0:0:0
256,192,13470,5,8,0:0:0
256,192,13603,5,0,0:0:0
256,192,13737,5,8,0:0:0
256,192,14137,5,0,0:0:0
256,192,14270,1,0,0:0:0
256,192,14537,5,8,0:0:0
256,192,14603,1,8,0:0:0
256,192,14670,1,8,0:0:0
256,192,14803,5,0,0:0:0
256,192,14937,1,0,0:0:0
256,192,15070,5,8,0:0:0
256,192,15203,1,8,0:0:0
256,192,15337,5,0,0:0:0
256,192,15603,5,8,0:0:0
256,192,15737,5,0,0:0:0
256,192,15870,1,0,0:0:0
256,192,16137,5,8,0:0:0
256,192,16203,1,8,0:0:0
256,192,16270,1,8,0:0:0
256,192,16403,5,0,0:0:0
256,192,16670,5,0,0:0:0
256,192,16937,5,8,0:0:0
256,192,17070,5,8,0:0:0
256,192,17137,1,8,0:0:0
256,192,17203,1,8,0:0:0
256,192,17337,1,8,0:0:0
256,192,17470,5,0,0:0:0
256,192,17603,5,8,0:0:0
256,192,17670,1,8,0:0:0
256,192,17737,1,8,0:0:0
256,192,17870,5,0,0:0:0
256,192,18003,5,8,0:0:0
256,192,18137,1,8,0:0:0
256,192,18270,1,8,0:0:0
256,192,18403,5,0,0:0:0
256,192,18537,1,0,0:0:0
256,192,18803,1,0,0:0:0
256,192,18937,1,0,0:0:0
256,192,19070,1,0,0:0:0
256,192,19337,5,8,0:0:0
256,192,19604,5,0,0:0:0
256,192,19737,5,8,0:0:0
256,192,20004,5,0,0:0:0
256,192,20137,5,8,0:0:0
256,192,20204,1,8,0:0:0
256,192,20270,1,8,0:0:0
256,192,20404,1,8,0:0:0
256,192,20537,1,8,0:0:0
256,192,20670,5,0,0:0:0
256,192,20804,5,8,0:0:0
256,192,20937,5,0,0:0:0
256,192,21070,1,0,0:0:0
256,192,21337,1,0,0:0:0
256,192,21470,5,8,0:0:0
256,192,21737,5,0,0:0:0
256,192,21870,1,0,0:0:0
256,192,21937,1,0,0:0:0
256,192,22004,5,8,0:0:0
256,192,22137,5,0,0:0:0
256,192,22270,5,8,0:0:0
256,192,22404,5,0,0:0:0
256,192,22537,1,0,0:0:0
256,192,22670,1,0,0:0:0
256,192,22804,5,8,0:0:0
256,192,22937,5,0,0:0:0
256,192,23004,1,0,0:0:0
256,192,23070,1,0,0:0:0
256,192,23204,1,0,0:0:0
256,192,23337,5,8,0:0:0
256,192,23470,5,0,0:0:0
256,192,23604,1,0,0:0:0
256,192,23870,1,0,0:0:0
256,192,24004,1,0,0:0:0
256,192,24070,1,0,0:0:0
256,192,24137,5,8,0:0:0
256,192,24270,5,0,0:0:0
256,192,24404,1,0,0:0:0
256,192,24670,5,8,0:0:0
256,192,24804,5,0,0:0:0
256,192,24937,1,0,0:0:0
256,192,25204,1,0,0:0:0
256,192,25337,1,0,0:0:0
256,192,25404,1,0,0:0:0
256,192,25470,5,8,0:0:0
256,192,25604,1,8,0:0:0
256,192,25737,5,0,0:0:0
256,192,25870,5,8,0:0:0
256,192,26004,5,0,0:0:0
256,192,26137,1,0,0:0:0
256,192,26204,1,0,0:0:0
256,192,26270,5,8,0:0:0
256,192,26404,5,0,0:0:0
256,192,26537,1,0,0:0:0
256,192,26804,5,8,0:0:0
256,192,26937,5,0,0:0:0
256,192,27070,1,4,0:0:0
256,192,27470,1,4,0:0:0
256,192,27870,1,4,0:0:0
256,192,28137,1,0,0:0:0
256,192,28270,1,0,0:0:0
256,192,28337,1,0,0:0:0
256,192,28404,5,8,0:0:0
256,192,28537,5,0,0:0:0
256,192,28670,1,0,0:0:0
256,192,28937,5,8,0:0:0
256,192,29070,5,0,0:0:0
256,192,29204,1,0,0:0:0
256,192,29470,1,0,0:0:0
256,192,29604,1,0,0:0:0
256,192,29670,1,0,0:0:0
256,192,29737,5,8,0:0:0
256,192,29870,1,8,0:0:0
256,192,30004,5,0,0:0:0
256,192,30137,5,8,0:0:0
256,192,30270,5,0,0:0:0
256,192,30404,1,0,0:0:0
256,192,30470,1,0,0:0:0
256,192,30537,5,8,0:0:0
256,192,30670,5,0,0:0:0
256,192,30804,1,0,0:0:0
256,192,31070,5,8,0:0:0
256,192,31204,1,8,0:0:0
256,192,31337,1,8,0:0:0
256,192,31604,1,8,0:0:0
256,192,31737,5,0,0:0:0
256,192,31870,1,0,0:0:0
256,192,32004,1,0,0:0:0
256,192,32137,5,8,0:0:0
256,192,32270,1,8,0:0:0
256,192,32404,5,0,0:0:0
256,192,32537,1,0,0:0:0
256,192,32604,1,0,0:0:0
256,192,32670,5,8,0:0:0
256,192,32804,5,0,0:0:0
256,192,32937,5,8,0:0:0
256,192,33204,1,8,0:0:0
256,192,33337,5,0,0:0:0
256,192,33470,1,0,0:0:0
256,192,33604,1,0,0:0:0
256,192,33670,1,0,0:0:0
256,192,33737,1,0,0:0:0
256,192,33870,1,0,0:0:0
256,192,34004,5,8,0:0:0
256,192,34137,5,0,0:0:0
256,192,34270,5,8,0:0:0
256,192,34537,5,0,0:0:0
256,192,34670,1,0,0:0:0
256,192,34737,1,0,0:0:0
256,192,34804,5,8,0:0:0
256,192,34937,5,0,0:0:0
256,192,35070,1,0,0:0:0
256,192,35337,5,8,0:0:0
256,192,35470,5,0,0:0:0
256,192,35604,1,4,0:0:0
256,192,36004,1,4,0:0:0
256,192,36404,1,4,0:0:0
256,192,36670,1,0,0:0:0
256,192,36804,1,0,0:0:0
256,192,36870,1,0,0:0:0
256,192,36937,5,8,0:0:0
256,192,37070,5,0,0:0:0
256,192,37204,1,0,0:0:0
256,192,37470,5,8,0:0:0
256,192,37604,5,0,0:0:0
256,192,37737,1,0,0:0:0
256,192,38004,1,0,0:0:0
256,192,38137,1,0,0:0:0
256,192,38204,1,0,0:0:0
256,192,38270,5,8,0:0:0
256,192,38404,1,8,0:0:0
256,192,38537,5,0,0:0:0
256,192,38670,5,8,0:0:0
256,192,38804,5,0,0:0:0
256,192,38937,1,0,0:0:0
256,192,39004,1,0,0:0:0
256,192,39070,5,8,0:0:0
256,192,39204,5,0,0:0:0
256,192,39337,1,0,0:0:0
256,192,39604,5,8,0:0:0
256,192,39737,5,0,0:0:0
256,192,39870,1,0,0:0:0
256,192,40137,5,8,0:0:0
256,192,40270,5,0,0:0:0
256,192,40403,1,0,0:0:0
256,192,40670,5,8,0:0:0
256,192,40937,5,0,0:0:0
256,192,41203,5,8,0:0:0
256,192,41337,5,0,0:0:0
256,192,41603,5,8,0:0:0
256,192,41737,1,8,0:0:0
256,192,41803,1,8,0:0:0
256,192,41870,1,8,0:0:0
256,192,42003,5,0,0:0:0
256,192,42270,5,8,0:0:0
256,192,42403,5,0,0:0:0
256,192,42537,5,8,0:0:0
256,192,42803,1,8,0:0:0
256,192,43070,5,0,0:0:0
256,192,43337,5,8,0:0:0
256,192,43470,5,0,0:0:0
256,192,43737,5,8,0:0:0
256,192,43870,1,8,0:0:0
256,192,43937,1,8,0:0:0
256,192,44003,1,8,0:0:0
256,192,44137,5,0,0:0:0
256,192,44403,1,0,0:0:0
256,192,44537,5,8,0:0:0
256,192,44803,1,8,0:0:0
256,192,44937,1,8,0:0:0
256,192,45070,1,8,0:0:0
256,192,45203,5,0,0:0:0
256,192,45470,5,8,0:0:0
256,192,45603,5,0,0:0:0
256,192,45870,5,8,0:0:0
256,192,46003,1,8,0:0:0
256,192,46070,1,8,0:0:0
256,192,46137,1,8,0:0:0
256,192,46270,5,0,0:0:0
256,192,46537,1,0,0:0:0
256,192,46670,5,8,0:0:0
256,192,46803,5,0,0:0:0
256,192,46937,1,0,0:0:0
256,192,47070,5,8,0:0:0
256,192,47203,5,0,0:0:0
256,192,47337,1,0,0:0:0
256,192,47603,5,8,0:0:0
256,192,47737,5,0,0:0:0
256,192,48003,5,8,0:0:0
256,192,48137,1,8,0:0:0
256,192,48270,1,8,0:0:0
256,192,48403,5,0,0:0:0
256,192,48670,1,0,0:0:0
256,192,48803,5,8,0:0:0
256,192,49070,1,8,0:0:0
256,192,49203,1,8,0:0:0
256,192,49270,1,8,0:0:0
256,192,49337,1,8,0:0:0
256,192,49470,5,0,0:0:0
256,192,49737,5,8,0:0:0
256,192,49870,5,0,0:0:0
256,192,50137,5,8,0:0:0
256,192,50270,1,8,0:0:0
256,192,50403,1,8,0:0:0
256,192,50537,5,0,0:0:0
256,192,50803,1,0,0:0:0
256,192,50937,1,0,0:0:0
256,192,51203,5,8,0:0:0
256,192,51337,1,8,0:0:0
256,192,51403,1,8,0:0:0
256,192,51470,1,8,0:0:0
256,192,51603,5,0,0:0:0
256,192,51870,5,8,0:0:0
256,192,52003,5,0,0:0:0
256,192,52270,5,8,0:0:0
256,192,52403,1,8,0:0:0
256,192,52537,1,8,0:0:0
256,192,52670,5,0,0:0:0
256,192,52937,1,0,0:0:0
256,192,53070,5,8,0:0:0
256,192,53337,1,8,0:0:0
256,192,53470,1,8,0:0:0
256,192,53537,1,8,0:0:0
256,192,53603,1,8,0:0:0
256,192,53737,5,0,0:0:0
256,192,54003,1,0,0:0:0
256,192,54270,1,0,0:0:0
256,192,54403,5,8,0:0:0
256,192,54537,1,8,0:0:0
256,192,54670,1,8,0:0:0
256,192,54803,5,0,0:0:0
256,192,55070,1,0,0:0:0
256,192,55203,5,8,0:0:0
256,192,55337,5,0,0:0:0
256,192,55603,5,8,0:0:0
256,192,55737,1,8,0:0:0
256,192,55870,5,0,0:0:0
256,192,56137,5,8,0:0:0
256,192,56270,5,0,0:0:0
256,192,56537,5,8,0:0:0
256,192,56670,1,8,0:0:0
256,192,56737,1,8,0:0:0
256,192,56803,1,8,0:0:0
256,192,56937,5,0,0:0:0
256,192,57203,1,0,0:0:0
256,192,57337,5,8,0:0:0
256,192,57603,1,8,0:0:0
256,192,57737,1,8,0:0:0
256,192,57870,1,8,0:0:0
256,192,58003,5,0,0:0:0
256,192,58270,5,8,0:0:0
256,192,58537,5,0,0:0:0
256,192,58670,1,0,0:0:0
256,192,58803,5,8,0:0:0
256,192,58937,1,8,0:0:0
256,192,59070,5,0,0:0:0
232,208,59337,5,8,0:0:0
256,192,59603,5,0,0:0:0
256,192,59870,5,8,0:0:0
256,192,60137,5,0,0:0:0
256,192,60403,5,8,0:0:0
256,192,60670,5,0,0:0:0
256,192,60803,1,0,0:0:0
256,192,60937,5,8,0:0:0
256,192,61070,1,8,0:0:0
256,192,61203,12,0,62137,0:0:0
256,192,62270,5,0,0:0:0
256,192,62537,5,8,0:0:0
256,192,62670,5,0,0:0:0
256,192,62803,5,8,0:0:0
256,192,62870,1,8,0:0:0
256,192,62937,1,8,0:0:0
256,192,63070,5,0,0:0:0
256,192,63203,5,8,0:0:0
256,192,63337,5,0,0:0:0
256,192,63603,5,8,0:0:0
256,192,63737,5,0,0:0:0
256,192,63870,5,8,0:0:0
256,192,63937,1,8,0:0:0
256,192,64003,1,8,0:0:0
256,192,64137,5,0,0:0:0
256,192,64270,5,8,0:0:0
256,192,64403,5,0,0:0:0
256,192,64670,5,8,0:0:0
256,192,64803,5,0,0:0:0
256,192,64937,5,8,0:0:0
256,192,65003,1,8,0:0:0
256,192,65070,1,8,0:0:0
256,192,65203,5,0,0:0:0
256,192,65337,5,8,0:0:0
256,192,65470,5,0,0:0:0
256,192,65670,1,0,0:0:0
256,192,65870,5,8,0:0:0
256,192,66137,1,8,0:0:0
256,192,66270,1,8,0:0:0
256,192,66337,1,8,0:0:0
256,192,66403,5,0,0:0:0
256,192,66537,1,0,0:0:0
256,192,66803,5,8,0:0:0
256,192,66937,5,0,0:0:0
256,192,67070,5,8,0:0:0
256,192,67137,1,8,0:0:0
256,192,67203,1,8,0:0:0
256,192,67337,5,0,0:0:0
256,192,67470,5,8,0:0:0
256,192,67603,5,0,0:0:0
256,192,67737,1,0,0:0:0
256,192,67870,1,0,0:0:0
256,192,68003,5,8,0:0:0
256,192,68270,1,8,0:0:0
256,192,68403,1,8,0:0:0
256,192,68470,1,8,0:0:0
256,192,68537,1,8,0:0:0
256,192,68670,5,0,0:0:0
256,192,68937,5,8,0:0:0
256,192,69070,5,0,0:0:0
256,192,69203,5,8,0:0:0
256,192,69270,1,8,0:0:0
256,192,69337,1,8,0:0:0
256,192,69470,5,0,0:0:0
256,192,69603,5,8,0:0:0
256,192,69737,5,0,0:0:0
256,192,70003,5,8,0:0:0
256,192,70137,5,0,0:0:0
256,192,70270,5,8,0:0:0
256,192,70470,1,8,0:0:0
256,192,70670,1,8,0:0:0
256,192,70803,5,0,0:0:0
256,192,71070,5,8,0:0:0
256,192,71203,5,0,0:0:0
256,192,71337,5,8,0:0:0
256,192,71403,1,8,0:0:0
256,192,71470,1,8,0:0:0
256,192,71603,5,0,0:0:0
256,192,71737,5,8,0:0:0
256,192,71870,5,0,0:0:0
256,192,72137,5,8,0:0:0
256,192,72270,5,0,0:0:0
256,192,72403,5,8,0:0:0
256,192,72537,1,8,0:0:0
256,192,72670,5,0,0:0:0
256,192,72803,5,8,0:0:0
256,192,72937,5,0,0:0:0
256,192,73337,5,8,0:0:0
256,192,73603,1,8,0:0:0
256,192,73870,1,8,0:0:0
256,192,74003,5,0,0:0:0
256,192,74137,1,0,0:0:0
256,192,74270,1,0,0:0:0
256,192,74403,5,8,0:0:0
256,192,74670,1,8,0:0:0
256,192,74937,1,8,0:0:0
256,192,75070,5,0,0:0:0
256,192,75337,5,8,0:0:0
256,192,75470,5,0,0:0:0
256,192,75603,5,8,0:0:0
256,192,75670,1,8,0:0:0
256,192,75737,1,8,0:0:0
256,192,75870,5,0,0:0:0
256,192,76003,5,8,0:0:0
256,192,76137,5,0,0:0:0
256,192,76403,5,8,0:0:0
256,192,76537,5,0,0:0:0
256,192,76670,5,8,0:0:0
256,192,76737,1,8,0:0:0
256,192,76803,1,8,0:0:0
256,192,76937,5,0,0:0:0
256,192,77070,5,8,0:0:0
256,192,77203,5,0,0:0:0
256,192,77470,5,8,0:0:0
256,192,77603,5,0,0:0:0
256,192,77737,5,8,0:0:0
256,192,77803,1,8,0:0:0
256,192,77870,1,8,0:0:0
256,192,78003,5,0,0:0:0
256,192,78137,5,8,0:0:0
256,192,78270,5,0,0:0:0
256,192,78470,1,0,0:0:0
256,192,78670,5,8,0:0:0
256,192,78937,1,8,0:0:0
256,192,79070,1,8,0:0:0
256,192,79137,1,8,0:0:0
256,192,79204,5,0,0:0:0
256,192,79337,1,4,0:0:0
256,192,79604,1,4,0:0:0
256,192,79870,1,4,0:0:0
256,192,80137,5,8,0:0:0
256,192,80204,1,8,0:0:0
256,192,80270,1,8,0:0:0
256,192,80404,5,0,0:0:0
256,192,80537,1,0,0:0:0
256,192,80670,5,8,0:0:0
256,192,80804,1,8,0:0:0
256,192,80937,5,0,0:0:0
256,192,81070,5,8,0:0:0
256,192,81204,5,0,0:0:0
256,192,81337,5,8,0:0:0
256,192,81470,1,12,0:0:0
256,192,81737,1,12,0:0:0
256,192,82004,1,12,0:0:0
256,192,82270,1,8,0:0:0
256,192,82337,1,8,0:0:0
256,192,82404,1,8,0:0:0
256,192,82537,5,0,0:0:0
256,192,82670,5,8,0:0:0
256,192,82804,1,8,0:0:0
256,192,82937,5,0,0:0:0
256,192,83070,5,8,0:0:0
256,192,83204,1,8,0:0:0
256,192,83337,1,8,0:0:0
256,192,83404,1,8,0:0:0
256,192,83470,1,8,0:0:0
256,192,83604,5,4,0:0:0
256,192,83870,1,4,0:0:0
256,192,84137,1,4,0:0:0
256,192,84404,1,0,0:0:0
256,192,84470,1,0,0:0:0
256,192,84537,1,0,0:0:0
256,192,84670,5,8,0:0:0
256,192,84804,5,0,0:0:0
256,192,84937,1,0,0:0:0
256,192,85070,1,0,0:0:0
256,192,85204,5,8,0:0:0
256,192,85337,1,8,0:0:0
256,192,85470,5,0,0:0:0
256,192,85604,5,8,0:0:0
256,192,85737,1,12,0:0:0
256,192,86004,1,12,0:0:0
256,192,86270,1,12,0:0:0
256,192,86404,5,0,0:0:0
256,192,86470,1,0,0:0:0
256,192,86537,5,8,0:0:0
256,192,86670,1,8,0:0:0
256,192,86804,1,8,0:0:0
256,192,86937,5,0,0:0:0
256,192,87070,1,0,0:0:0
256,192,87204,5,8,0:0:0
256,192,87337,5,0,0:0:0
256,192,87470,1,0,0:0:0
256,192,87604,5,8,0:0:0
256,192,87670,1,8,0:0:0
256,192,87737,1,8,0:0:0
256,192,87870,5,4,0:0:0
256,192,88137,5,12,0:0:0
256,192,88404,5,4,0:0:0
256,192,88537,1,0,0:0:0
256,192,88670,5,8,0:0:0
256,192,88737,1,8,0:0:0
256,192,88804,1,8,0:0:0
256,192,88937,5,0,0:0:0
256,192,89070,5,8,0:0:0
256,192,89204,5,0,0:0:0
256,192,89337,5,8,0:0:0
256,192,89470,1,8,0:0:0
256,192,89604,1,8,0:0:0
256,192,89737,5,0,0:0:0
256,192,89804,1,0,0:0:0
256,192,89870,1,0,0:0:0
256,192,90004,5,12,0:0:0
256,192,90270,5,4,0:0:0
256,192,90537,5,12,0:0:0
256,192,90804,5,0,0:0:0
256,192,90870,1,0,0:0:0
256,192,90937,5,8,0:0:0
256,192,91070,1,8,0:0:0
256,192,91204,1,8,0:0:0
256,192,91337,5,0,0:0:0
256,192,91470,5,8,0:0:0
256,192,91604,5,0,0:0:0
256,192,91737,1,0,0:0:0
256,192,91870,5,8,0:0:0
256,192,91937,1,8,0:0:0
256,192,92004,1,8,0:0:0
256,192,92137,1,12,0:0:0
256,192,92404,5,4,0:0:0
256,192,92670,1,0,0:0:0
256,192,92737,1,0,0:0:0
256,192,92804,1,0,0:0:0
256,192,92937,5,8,0:0:0
256,192,93070,1,8,0:0:0
256,192,93204,5,0,0:0:0
256,192,93337,1,0,0:0:0
256,192,93470,5,8,0:0:0
256,192,93537,1,8,0:0:0
256,192,93604,1,8,0:0:0
256,192,93737,1,8,0:0:0
256,192,93870,5,0,0:0:0
256,192,94004,5,8,0:0:0
256,192,94137,5,0,0:0:0
256,192,94270,1,0,0:0:0
256,192,94404,5,8,0:0:0
256,192,94470,1,8,0:0:0
256,192,94537,1,8,0:0:0
256,192,94670,1,8,0:0:0
256,192,94804,1,8,0:0:0
256,192,94937,5,0,0:0:0
256,192,95070,5,8,0:0:0
256,192,95204,5,0,0:0:0
256,192,95337,1,0,0:0:0
256,192,95404,1,0,0:0:0
256,192,95470,5,8,0:0:0
256,192,95604,1,12,0:0:0
256,192,96404,5,0,0:0:0
256,192,96537,1,0,0:0:0
256,192,96604,1,0,0:0:0
256,192,96670,5,8,0:0:0
256,192,96804,5,0,0:0:0
256,192,96937,1,0,0:0:0
256,192,97070,1,0,0:0:0
256,192,97137,1,0,0:0:0
256,192,97204,5,8,0:0:0
256,192,97337,1,8,0:0:0
256,192,97470,5,0,0:0:0
256,192,97604,1,0,0:0:0
256,192,97737,5,8,0:0:0
256,192,97870,5,0,0:0:0
256,192,98004,1,0,0:0:0
256,192,98270,5,8,0:0:0
256,192,98537,5,0,0:0:0
256,192,98670,1,0,0:0:0
256,192,98737,1,0,0:0:0
256,192,98804,5,8,0:0:0
256,192,98937,5,0,0:0:0
256,192,99070,1,0,0:0:0
256,192,99137,1,0,0:0:0
256,192,99204,5,8,0:0:0
256,192,99337,5,0,0:0:0
256,192,99470,5,8,0:0:0
256,192,99604,1,8,0:0:0
256,192,99870,5,0,0:0:0
256,192,100004,5,8,0:0:0
256,192,100137,5,0,0:0:0
256,192,100270,1,0,0:0:0
256,192,100404,5,8,0:0:0
256,192,100537,1,8,0:0:0
256,192,100670,5,0,0:0:0
256,192,100804,1,0,0:0:0
256,192,100870,1,0,0:0:0
256,192,100937,5,8,0:0:0
256,192,101070,5,0,0:0:0
256,192,101204,1,0,0:0:0
256,192,101337,1,0,0:0:0
256,192,101404,1,0,0:0:0
256,192,101470,5,8,0:0:0
256,192,101604,1,8,0:0:0
256,192,101737,5,0,0:0:0
256,192,101870,1,0,0:0:0
256,192,102004,5,8,0:0:0
256,192,102137,5,0,0:0:0
256,192,102270,1,0,0:0:0
256,192,102537,5,8,0:0:0
256,192,102804,5,0,0:0:0
256,192,102937,1,0,0:0:0
256,192,103004,1,0,0:0:0
256,192,103070,5,8,0:0:0
256,192,103204,5,0,0:0:0
256,192,103337,1,0,0:0:0
256,192,103470,5,8,0:0:0
256,192,103604,5,0,0:0:0
256,192,103737,5,8,0:0:0
256,192,103870,1,8,0:0:0
256,192,104137,5,0,0:0:0
232,176,104270,5,8,0:0:0
232,176,104404,5,0,0:0:0
232,176,104670,5,8,0:0:0
232,176,104804,1,8,0:0:0
256,192,104937,5,0,0:0:0
256,192,105070,1,0,0:0:0
256,192,105137,1,0,0:0:0
256,192,105204,5,8,0:0:0
256,192,105337,5,0,0:0:0
256,192,105470,1,0,0:0:0
256,192,105604,1,0,0:0:0
256,192,105670,1,0,0:0:0
256,192,105737,5,8,0:0:0
256,192,105870,1,8,0:0:0
256,192,106004,5,0,0:0:0
256,192,106137,1,0,0:0:0
256,192,106270,5,8,0:0:0
256,192,106404,5,0,0:0:0
256,192,106537,1,0,0:0:0
256,192,106670,5,8,0:0:0
256,192,106804,5,0,0:0:0
256,192,106937,5,8,0:0:0
256,192,107070,5,0,0:0:0
256,192,107204,1,0,0:0:0
256,192,107270,1,0,0:0:0
256,192,107337,5,8,0:0:0
256,192,107470,5,0,0:0:0
256,192,107604,1,0,0:0:0
256,192,107737,5,8,0:0:0
256,192,107870,5,0,0:0:0
256,192,108004,5,8,0:0:0
256,192,108137,1,8,0:0:0
256,192,108404,5,0,0:0:0
256,192,108537,5,8,0:0:0
256,192,108670,5,0,0:0:0
256,192,108804,1,0,0:0:0
256,192,108937,5,8,0:0:0
256,192,109070,1,8,0:0:0
256,192,109204,5,0,0:0:0
256,192,109337,1,0,0:0:0
256,192,109404,1,0,0:0:0
256,192,109470,5,8,0:0:0
256,192,109604,5,0,0:0:0
256,192,109737,1,0,0:0:0
256,192,109870,1,0,0:0:0
256,192,109937,1,0,0:0:0
256,192,110004,5,8,0:0:0
256,192,110137,1,8,0:0:0
256,192,110270,5,0,0:0:0
256,192,110404,1,0,0:0:0
256,192,110537,5,8,0:0:0
256,192,110670,5,0,0:0:0
256,192,110804,1,0,0:0:0
256,192,110870,1,0,0:0:0
256,192,110937,5,8,0:0:0
256,192,111070,5,0,0:0:0
256,192,111204,5,8,0:0:0
256,192,111337,5,0,0:0:0
256,192,111470,1,0,0:0:0
256,192,111537,1,0,0:0:0
256,192,111604,5,8,0:0:0
256,192,111737,5,0,0:0:0
256,192,111870,1,0,0:0:0
256,192,111937,1,0,0:0:0
256,192,112004,5,8,0:0:0
256,192,112137,5,0,0:0:0
256,192,112270,5,8,0:0:0
256,192,112404,12,8,113337,0:0:0
256,192,113470,5,0,0:0:0
256,192,113604,1,0,0:0:0
256,192,113670,1,0,0:0:0
256,192,113737,5,8,0:0:0
256,192,113870,5,0,0:0:0
256,192,114004,1,0,0:0:0
256,192,114137,1,0,0:0:0
256,192,114204,1,0,0:0:0
256,192,114270,5,8,0:0:0
256,192,114404,1,8,0:0:0
256,192,114537,5,0,0:0:0
256,192,114670,1,0,0:0:0
256,192,114804,5,8,0:0:0
256,192,114937,5,0,0:0:0
256,192,115070,1,0,0:0:0
256,192,115337,5,8,0:0:0
256,192,115604,5,0,0:0:0
256,192,115737,1,0,0:0:0
256,192,115804,1,0,0:0:0
256,192,115870,5,8,0:0:0
256,192,116004,5,0,0:0:0
256,192,116137,1,0,0:0:0
256,192,116204,1,0,0:0:0
256,192,116270,5,8,0:0:0
256,192,116404,5,0,0:0:0
256,192,116537,5,8,0:0:0
256,192,116670,1,8,0:0:0
256,192,116937,5,0,0:0:0
256,192,117070,5,8,0:0:0
256,192,117204,5,0,0:0:0
256,192,117337,1,0,0:0:0
256,192,117470,5,8,0:0:0
256,192,117604,1,8,0:0:0
256,192,117737,5,0,0:0:0
256,192,117870,1,0,0:0:0
256,192,117937,1,0,0:0:0
256,192,118004,5,8,0:0:0
256,192,118137,5,0,0:0:0
256,192,118270,1,0,0:0:0
256,192,118404,1,0,0:0:0
256,192,118470,1,0,0:0:0
256,192,118537,5,8,0:0:0
256,192,118670,1,8,0:0:0
256,192,118804,5,0,0:0:0
256,192,118937,1,0,0:0:0
256,192,119070,5,8,0:0:0
256,192,119204,5,0,0:0:0
256,192,119337,1,0,0:0:0
256,192,119604,5,8,0:0:0
256,192,119870,5,0,0:0:0
256,192,120004,1,0,0:0:0
256,192,120070,1,0,0:0:0
256,192,120137,5,8,0:0:0
256,192,120270,5,0,0:0:0
256,192,120404,1,0,0:0:0
256,192,120537,5,8,0:0:0
256,192,120670,5,0,0:0:0
256,192,120804,5,8,0:0:0
256,192,120937,1,8,0:0:0
256,192,121204,5,0,0:0:0
232,176,121337,5,8,0:0:0
232,176,121470,5,0,0:0:0
232,176,121737,5,8,0:0:0
232,176,121870,1,8,0:0:0
256,192,122004,5,0,0:0:0
256,192,122137,1,0,0:0:0
256,192,122204,1,0,0:0:0
256,192,122270,5,8,0:0:0
256,192,122404,5,0,0:0:0
256,192,122537,1,0,0:0:0
256,192,122670,1,0,0:0:0
256,192,122737,1,0,0:0:0
256,192,122804,5,8,0:0:0
256,192,122937,1,8,0:0:0
256,192,123070,5,0,0:0:0
256,192,123204,1,0,0:0:0
256,192,123337,5,8,0:0:0
256,192,123470,5,0,0:0:0
256,192,123604,1,0,0:0:0
256,192,123737,5,8,0:0:0
256,192,123870,5,0,0:0:0
256,192,124004,5,8,0:0:0
256,192,124137,5,0,0:0:0
256,192,124270,1,0,0:0:0
256,192,124337,1,0,0:0:0
256,192,124404,5,8,0:0:0
256,192,124537,5,0,0:0:0
256,192,124670,1,0,0:0:0
256,192,124804,5,8,0:0:0
256,192,124937,5,0,0:0:0
256,192,125070,5,8,0:0:0
256,192,125204,1,8,0:0:0
256,192,125470,5,0,0:0:0
256,192,125604,5,8,0:0:0
256,192,125737,5,0,0:0:0
256,192,125870,1,0,0:0:0
256,192,126004,5,8,0:0:0
256,192,126137,1,8,0:0:0
256,192,126270,5,0,0:0:0
256,192,126404,1,0,0:0:0
256,192,126470,1,0,0:0:0
256,192,126537,5,8,0:0:0
256,192,126670,5,0,0:0:0
256,192,126804,1,0,0:0:0
256,192,126937,1,0,0:0:0
256,192,127004,1,0,0:0:0
256,192,127070,5,8,0:0:0
256,192,127204,1,8,0:0:0
256,192,127337,5,0,0:0:0
256,192,127470,1,0,0:0:0
256,192,127537,1,0,0:0:0
256,192,127604,5,8,0:0:0
256,192,127737,5,0,0:0:0
256,192,127870,1,0,0:0:0
256,192,128004,5,8,0:0:0
256,192,128137,5,0,0:0:0
256,192,128270,5,8,0:0:0
256,192,128404,5,0,0:0:0
256,192,128537,1,0,0:0:0
256,192,128604,1,0,0:0:0
256,192,128670,5,8,0:0:0
256,192,128804,5,0,0:0:0
256,192,128937,1,0,0:0:0
256,192,129070,5,8,0:0:0
256,192,129204,5,0,0:0:0
256,192,129337,5,8,0:0:0
256,192,129470,12,8,130137,0:0:0
256,192,130270,1,8,0:0:0
256,192,130404,5,8,0:0:0
256,192,130537,5,4,0:0:0
256,192,130804,5,8,0:0:0
256,192,130937,5,0,0:0:0
256,192,131204,5,8,0:0:0
256,192,131337,1,8,0:0:0
256,192,131470,1,8,0:0:0
256,192,131604,5,0,0:0:0
256,192,131870,5,8,0:0:0
256,192,132004,5,0,0:0:0
256,192,132270,5,8,0:0:0
256,192,132404,5,0,0:0:0
256,192,132537,5,8,0:0:0
256,192,132670,5,0,0:0:0
256,192,132937,5,8,0:0:0
256,192,133070,5,0,0:0:0
256,192,133337,5,8,0:0:0
256,192,133470,5,0,0:0:0
256,192,133604,1,0,0:0:0
256,192,133670,1,0,0:0:0
256,192,133737,1,0,0:0:0
256,192,133870,1,0,0:0:0
256,192,134004,1,0,0:0:0
256,192,134137,5,8,0:0:0
256,192,134270,1,8,0:0:0
256,192,134337,1,8,0:0:0
256,192,134404,1,8,0:0:0
256,192,134537,1,8,0:0:0
256,192,134670,1,8,0:0:0
256,192,134804,5,4,0:0:0
256,192,135070,5,8,0:0:0
256,192,135204,5,0,0:0:0
256,192,135470,5,8,0:0:0
256,192,135604,1,8,0:0:0
256,192,135737,1,8,0:0:0
256,192,135870,5,0,0:0:0
256,192,136137,5,8,0:0:0
256,192,136270,5,0,0:0:0
256,192,136537,5,8,0:0:0
256,192,136670,5,0,0:0:0
256,192,136804,5,8,0:0:0
256,192,136937,5,0,0:0:0
256,192,137204,5,8,0:0:0
256,192,137337,5,0,0:0:0
256,192,137604,5,8,0:0:0
256,192,137737,5,0,0:0:0
256,192,137870,1,0,0:0:0
256,192,137937,1,0,0:0:0
256,192,138004,1,0,0:0:0
256,192,138137,1,0,0:0:0
256,192,138270,1,0,0:0:0
256,192,138404,5,8,0:0:0
256,192,138537,1,8,0:0:0
256,192,138604,1,8,0:0:0
256,192,138670,1,8,0:0:0
256,192,138804,1,8,0:0:0
256,192,138937,1,8,0:0:0
256,192,139070,5,4,0:0:0
256,192,139337,5,8,0:0:0
256,192,139470,5,0,0:0:0
256,192,139737,5,8,0:0:0
256,192,139870,1,8,0:0:0
256,192,140004,1,8,0:0:0
256,192,140137,5,0,0:0:0
256,192,140404,5,8,0:0:0
256,192,140537,5,0,0:0:0
256,192,140804,5,8,0:0:0
256,192,140937,5,0,0:0:0
256,192,141070,5,8,0:0:0
256,192,141204,5,0,0:0:0
256,192,141470,5,8,0:0:0
256,192,141604,5,0,0:0:0
256,192,141870,5,8,0:0:0
256,192,142004,5,0,0:0:0
256,192,142137,1,0,0:0:0
256,192,142204,1,0,0:0:0
256,192,142270,1,0,0:0:0
256,192,142404,1,0,0:0:0
256,192,142537,1,0,0:0:0
256,192,142670,5,8,0:0:0
256,192,142804,1,8,0:0:0
256,192,142870,1,8,0:0:0
256,192,142937,1,8,0:0:0
256,192,143070,1,8,0:0:0
256,192,143204,1,8,0:0:0
256,192,143337,5,4,0:0:0
256,192,143604,5,8,0:0:0
256,192,143737,5,0,0:0:0
256,192,144004,5,8,0:0:0
256,192,144137,1,8,0:0:0
256,192,144270,1,8,0:0:0
256,192,144404,5,0,0:0:0
256,192,144670,5,8,0:0:0
256,192,144804,5,0,0:0:0
256,192,144937,5,8,0:0:0
256,192,145070,1,8,0:0:0
256,192,145204,5,0,0:0:0
256,192,145337,5,8,0:0:0
256,192,145470,5,0,0:0:0
256,192,145737,5,8,0:0:0
256,192,145870,5,0,0:0:0
256,192,146137,5,8,0:0:0
256,192,146270,5,0,0:0:0
256,192,146404,1,0,0:0:0
256,192,146470,1,0,0:0:0
256,192,146537,5,8,0:0:0
256,192,146670,1,8,0:0:0
256,192,146937,1,8,0:0:0
256,192,147204,1,8,0:0:0
256,192,147337,1,8,0:0:0
256,192,147470,1,8,0:0:0
256,192,147604,5,4,0:0:0
256,192,147870,5,8,0:0:0
256,192,148004,5,0,0:0:0
256,192,148270,5,8,0:0:0
256,192,148404,1,8,0:0:0
256,192,148537,1,8,0:0:0
256,192,148670,5,0,0:0:0
256,192,148937,5,8,0:0:0
256,192,149070,5,0,0:0:0
256,192,149337,5,8,0:0:0
256,192,149470,5,0,0:0:0
256,192,149604,5,8,0:0:0
256,192,149737,5,0,0:0:0
256,192,150004,5,8,0:0:0
256,192,150137,5,0,0:0:0
256,192,150404,5,8,0:0:0
256,192,150537,5,0,0:0:0
256,192,150670,1,0,0:0:0
256,192,150804,5,8,0:0:0
256,192,151070,5,0,0:0:0
256,192,151204,5,8,0:0:0
256,192,151604,1,8,0:0:0
256,192,151737,1,8,0:0:0
256,192,151870,5,4,0:0:0
256,192,152137,5,8,0:0:0
256,192,152270,5,0,0:0:0
256,192,152537,5,8,0:0:0
256,192,152670,1,8,0:0:0
256,192,152804,1,8,0:0:0
256,192,152937,5,0,0:0:0
256,192,153204,5,8,0:0:0
256,192,153337,5,0,0:0:0
256,192,153604,5,8,0:0:0
256,192,153737,5,0,0:0:0
256,192,153870,5,8,0:0:0
256,192,154004,5,0,0:0:0
256,192,154270,5,8,0:0:0
256,192,154404,5,0,0:0:0
256,192,154670,5,8,0:0:0
256,192,154804,5,0,0:0:0
256,192,154937,1,0,0:0:0
256,192,155004,1,0,0:0:0
256,192,155070,1,0,0:0:0
256,192,155204,1,0,0:0:0
256,192,155337,1,0,0:0:0
256,192,155470,5,8,0:0:0
256,192,155604,1,8,0:0:0
256,192,155670,1,8,0:0:0
256,192,155737,1,8,0:0:0
256,192,155870,1,8,0:0:0
256,192,156004,1,8,0:0:0
256,192,156137,5,4,0:0:0
256,192,156404,5,8,0:0:0
256,192,156537,5,0,0:0:0
256,192,156804,5,8,0:0:0
256,192,156937,1,8,0:0:0
256,192,157070,1,8,0:0:0
256,192,157204,5,0,0:0:0
256,192,157470,5,8,0:0:0
256,192,157603,5,0,0:0:0
256,192,157870,5,8,0:0:0
256,192,158003,5,0,0:0:0
256,192,158137,5,8,0:0:0
256,192,158270,5,0,0:0:0
256,192,158537,5,8,0:0:0
256,192,158670,5,0,0:0:0
256,192,158937,5,8,0:0:0
256,192,159070,5,0,0:0:0
256,192,159203,1,0,0:0:0
256,192,159337,5,8,0:0:0
256,192,159603,5,0,0:0:0
256,192,159737,5,8,0:0:0
256,192,160003,1,8,0:0:0
256,192,160270,1,8,0:0:0
256,192,160403,5,4,0:0:0
256,192,160670,5,8,0:0:0
256,192,160803,5,0,0:0:0
256,192,161070,5,8,0:0:0
256,192,161203,1,8,0:0:0
256,192,161337,1,8,0:0:0
256,192,161470,5,0,0:0:0
256,192,161737,5,8,0:0:0
256,192,161870,5,0,0:0:0
256,192,162003,5,8,0:0:0
256,192,162137,1,8,0:0:0
256,192,162270,5,0,0:0:0
256,192,162403,5,8,0:0:0
256,192,162537,5,0,0:0:0
256,192,162803,5,8,0:0:0
256,192,162937,1,8,0:0:0
256,192,163337,1,8,0:0:0
256,192,163737,1,8,0:0:0
256,192,164003,1,8,0:0:0
256,192,164137,1,8,0:0:0
256,192,164403,1,8,0:0:0
256,192,164537,1,8,0:0:0
256,192,164670,1,8,0:0:0
256,192,164937,5,0,0:0:0
256,192,165203,5,8,0:0:0
256,192,165470,5,0,0:0:0
256,192,165737,5,8,0:0:0
256,192,165870,5,0,0:0:0
256,192,166137,5,8,0:0:0
256,192,166270,5,0,0:0:0
256,192,166537,1,0,0:0:0
256,192,166670,5,8,0:0:0
256,192,166803,5,0,0:0:0
256,192,167070,1,0,0:0:0
256,192,167337,1,0,0:0:0
256,192,167603,1,0,0:0:0
256,192,167870,5,8,0:0:0
256,192,168003,5,0,0:0:0
256,192,168270,5,8,0:0:0
256,192,168403,5,0,0:0:0
256,192,168670,1,0,0:0:0
256,192,168803,5,8,0:0:0
256,192,168937,5,0,0:0:0
256,192,169203,1,0,0:0:0
256,192,169470,1,0,0:0:0
256,192,169737,1,0,0:0:0
256,192,170003,5,8,0:0:0
256,192,170137,5,0,0:0:0
256,192,170403,5,8,0:0:0
256,192,170537,5,0,0:0:0
256,192,170803,1,0,0:0:0
256,192,170937,5,8,0:0:0
256,192,171070,5,0,0:0:0
256,192,171337,1,0,0:0:0
256,192,171603,1,0,0:0:0
256,192,171870,1,0,0:0:0
256,192,172137,5,8,0:0:0
256,192,172270,5,0,0:0:0
256,192,172537,5,8,0:0:0
256,192,172670,5,0,0:0:0
256,192,172937,1,0,0:0:0
256,192,173070,5,8,0:0:0
256,192,173203,5,0,0:0:0
256,192,173470,1,0,0:0:0
256,192,173737,1,0,0:0:0
256,192,174003,1,0,0:0:0
256,192,174270,5,8,0:0:0
256,192,174403,5,0,0:0:0
256,192,174670,5,8,0:0:0
256,192,174803,5,0,0:0:0
256,192,175070,1,0,0:0:0
256,192,175203,5,8,0:0:0
256,192,175337,5,0,0:0:0
256,192,175603,1,0,0:0:0
256,192,175870,1,0,0:0:0
256,192,176137,1,0,0:0:0
256,192,176403,5,8,0:0:0
256,192,176537,5,0,0:0:0
256,192,176803,5,8,0:0:0
256,192,176937,5,0,0:0:0
256,192,177203,1,0,0:0:0
256,192,177337,5,8,0:0:0
256,192,177470,5,0,0:0:0
256,192,177737,1,0,0:0:0
256,192,178003,1,0,0:0:0
256,192,178270,1,0,0:0:0
256,192,178537,5,8,0:0:0
256,192,178670,5,0,0:0:0
256,192,178937,5,8,0:0:0
256,192,179070,5,0,0:0:0
256,192,179337,1,0,0:0:0
256,192,179470,5,8,0:0:0
256,192,179603,5,0,0:0:0
256,192,179870,1,0,0:0:0
256,192,180137,1,0,0:0:0
256,192,180403,1,0,0:0:0
256,192,180670,12,0,181470,0:0:0
256,192,181737,5,0,0:0:0
256,192,182003,1,8,0:0:0
256,192,182137,5,0,0:0:0
256,192,182270,5,8,0:0:0
256,192,182337,1,8,0:0:0
256,192,182403,1,8,0:0:0
256,192,182537,5,0,0:0:0
256,192,182670,5,8,0:0:0
256,192,182803,5,0,0:0:0
256,192,183070,5,8,0:0:0
256,192,183203,5,0,0:0:0
256,192,183470,1,0,0:0:0
256,192,183603,1,0,0:0:0
256,192,183737,5,8,0:0:0
256,192,183870,5,0,0:0:0
256,192,184137,5,8,0:0:0
256,192,184270,5,0,0:0:0
256,192,184403,5,8,0:0:0
256,192,184470,1,8,0:0:0
256,192,184537,5,0,0:0:0
256,192,184670,1,0,0:0:0
256,192,184803,5,8,0:0:0
256,192,184937,5,0,0:0:0
256,192,185070,1,0,0:0:0
256,192,185203,5,8,0:0:0
256,192,185337,5,0,0:0:0
256,192,185603,1,0,0:0:0
256,192,185737,1,0,0:0:0
256,192,185870,5,8,0:0:0
256,192,186003,5,0,0:0:0
256,192,186270,5,8,0:0:0
256,192,186403,5,0,0:0:0
256,192,186537,5,8,0:0:0
256,192,186604,1,8,0:0:0
256,192,186670,1,8,0:0:0
256,192,186803,5,0,0:0:0
256,192,186937,5,8,0:0:0
256,192,187070,5,0,0:0:0
256,192,187337,1,0,0:0:0
256,192,187470,5,8,0:0:0
256,192,187603,5,0,0:0:0
256,192,187737,1,0,0:0:0
256,192,187870,1,0,0:0:0
256,192,188003,5,8,0:0:0
256,192,188137,5,0,0:0:0
256,192,188403,5,8,0:0:0
256,192,188537,5,0,0:0:0
256,192,188670,5,8,0:0:0
256,192,188737,1,8,0:0:0
256,192,188803,1,8,0:0:0
256,192,188937,5,0,0:0:0
256,192,189070,5,8,0:0:0
256,192,189203,5,0,0:0:0
256,192,189470,5,8,0:0:0
256,192,189603,5,0,0:0:0
256,192,189870,1,0,0:0:0
256,192,190003,5,8,0:0:0
256,192,190137,1,8,0:0:0
256,192,190270,5,0,0:0:0
256,192,190537,5,8,0:0:0
256,192,190670,5,0,0:0:0
256,192,190803,5,8,0:0:0
256,192,190870,1,8,0:0:0
256,192,190937,5,0,0:0:0
256,192,191070,1,0,0:0:0
256,192,191203,5,8,0:0:0
256,192,191337,5,0,0:0:0
256,192,191470,1,0,0:0:0
256,192,191603,5,8,0:0:0
256,192,191737,5,0,0:0:0
256,192,192003,1,0,0:0:0
256,192,192137,1,0,0:0:0
256,192,192270,5,8,0:0:0
256,192,192403,5,0,0:0:0
256,192,192670,5,8,0:0:0
256,192,192803,5,0,0:0:0
256,192,192937,5,8,0:0:0
256,192,193004,1,8,0:0:0
256,192,193070,1,8,0:0:0
256,192,193203,5,0,0:0:0
256,192,193337,5,8,0:0:0
256,192,193470,5,0,0:0:0
256,192,193737,1,0,0:0:0
256,192,193870,5,8,0:0:0
256,192,194003,5,0,0:0:0
256,192,194137,1,0,0:0:0
256,192,194270,1,0,0:0:0
256,192,194403,5,8,0:0:0
256,192,194537,5,0,0:0:0
256,192,194803,5,8,0:0:0
256,192,194937,5,0,0:0:0
256,192,195070,5,8,0:0:0
256,192,195137,1,8,0:0:0
256,192,195203,1,8,0:0:0
256,192,195337,5,0,0:0:0
256,192,195470,5,8,0:0:0
256,192,195603,5,0,0:0:0
256,192,195870,5,8,0:0:0
256,192,196003,5,0,0:0:0
256,192,196270,1,0,0:0:0
256,192,196403,1,0,0:0:0
256,192,196537,5,8,0:0:0
256,192,196670,5,0,0:0:0
256,192,196937,5,8,0:0:0
256,192,197070,5,0,0:0:0
256,192,197203,5,8,0:0:0
256,192,197270,1,8,0:0:0
256,192,197337,5,0,0:0:0
256,192,197470,1,0,0:0:0
256,192,197603,5,8,0:0:0
256,192,197737,5,0,0:0:0
256,192,197870,5,8,0:0:0
256,192,197937,1,8,0:0:0
256,192,198003,1,8,0:0:0
256,192,198137,1,8,0:0:0
256,192,198203,1,8,0:0:0
256,192,198270,1,8,0:0:0
256,192,198403,1,8,0:0:0
256,192,198470,1,8,0:0:0
256,192,198537,1,8,0:0:0
256,192,198670,1,8,0:0:0
256,192,198803,5,0,0:0:0
256,192,199070,5,8,0:0:0
256,192,199203,5,0,0:0:0
256,192,199337,5,8,0:0:0
256,192,199404,1,8,0:0:0
256,192,199470,1,8,0:0:0
256,192,199603,5,0,0:0:0
256,192,199737,5,8,0:0:0
256,192,199870,5,0,0:0:0
256,192,200137,5,8,0:0:0
256,192,200270,5,0,0:0:0
256,192,200537,1,0,0:0:0
256,192,200670,1,0,0:0:0
256,192,200803,5,8,0:0:0
256,192,200937,5,0,0:0:0
256,192,201203,5,8,0:0:0
256,192,201337,5,0,0:0:0
256,192,201470,5,8,0:0:0
256,192,201537,1,8,0:0:0
256,192,201603,5,0,0:0:0
256,192,201737,1,0,0:0:0
256,192,201870,5,8,0:0:0
256,192,202003,5,0,0:0:0
256,192,202137,1,0,0:0:0
256,192,202270,5,8,0:0:0
256,192,202403,5,0,0:0:0
256,192,202670,1,0,0:0:0
256,192,202803,1,0,0:0:0
256,192,202937,5,8,0:0:0
256,192,203070,5,0,0:0:0
256,192,203337,5,8,0:0:0
256,192,203470,5,0,0:0:0
256,192,203603,5,8,0:0:0
256,192,203670,1,8,0:0:0
256,192,203737,1,8,0:0:0
256,192,203870,5,0,0:0:0
256,192,204003,5,8,0:0:0
256,192,204137,5,0,0:0:0
256,192,204403,1,0,0:0:0
256,192,204537,5,8,0:0:0
256,192,204670,5,0,0:0:0
256,192,204803,1,0,0:0:0
256,192,204937,1,0,0:0:0
256,192,205070,5,8,0:0:0
256,192,205203,5,0,0:0:0
256,192,205470,1,8,0:0:0
256,192,205603,5,0,0:0:0
256,192,205737,5,8,0:0:0
256,192,205870,1,8,0:0:0
256,192,206003,5,0,0:0:0
256,192,206137,5,8,0:0:0
256,192,206270,5,0,0:0:0
256,192,206537,1,8,0:0:0
256,192,206670,5,0,0:0:0
256,192,206937,1,0,0:0:0
256,192,207070,5,8,0:0:0
256,192,207203,1,8,0:0:0
256,192,207337,5,0,0:0:0
256,192,207603,5,8,0:0:0
256,192,207737,5,0,0:0:0
256,192,207870,5,8,0:0:0
256,192,207937,1,8,0:0:0
256,192,208003,5,0,0:0:0
256,192,208137,1,0,0:0:0
256,192,208270,5,8,0:0:0
256,192,208403,1,8,0:0:0
256,192,208670,1,8,0:0:0
256,192,208937,1,8,0:0:0
256,192,209070,5,0,0:0:0
256,192,209203,5,8,0:0:0
256,192,209337,1,8,0:0:0
256,192,209470,5,0,0:0:0
256,192,209737,5,8,0:0:0
256,192,209870,5,0,0:0:0
256,192,210003,5,8,0:0:0
256,192,210070,1,8,0:0:0
256,192,210137,1,8,0:0:0
256,192,210270,5,0,0:0:0
256,192,210337,1,8,0:0:0
256,192,210403,5,8,0:0:0
256,192,210537,5,0,0:0:0
256,192,210803,1,0,0:0:0
256,192,210937,1,0,0:0:0
256,192,211070,5,8,0:0:0
256,192,211203,5,0,0:0:0
256,192,211337,1,0,0:0:0
256,192,211470,5,8,0:0:0
256,192,211537,1,8,0:0:0
256,192,211603,5,0,0:0:0
256,192,211737,1,0,0:0:0
256,192,211870,1,8,0:0:0
256,192,212003,5,0,0:0:0
256,192,212137,5,8,0:0:0
256,192,212270,1,8,0:0:0
256,192,212403,5,0,0:0:0
256,192,212470,1,8,0:0:0
256,192,212537,5,8,0:0:0
256,192,212670,1,0,0:0:0
256,192,212937,5,8,0:0:0
256,192,213070,5,0,0:0:0
256,192,213337,1,0,0:0:0
256,192,213470,1,0,0:0:0
256,192,213603,5,8,0:0:0
256,192,213737,5,0,0:0:0
256,192,214003,1,0,0:0:0
256,192,214137,5,8,0:0:0
256,192,214403,5,0,0:0:0
256,192,214537,5,8,0:0:0
256,192,214803,12,8,217070,0:0:0
