osu file format v10

[General]
AudioFilename: weyheyhey !! - Helical Scan -03 I'm Your Daddy.mp3
AudioLeadIn: 0
PreviewTime: 62004
Countdown: 0
SampleSet: Normal
StackLeniency: 0.7
Mode: 1
LetterboxInBreaks: 0

[Editor]
Bookmarks: 6799,6804,23870,40937,62270,79337,96404,113470,130537,147604,164670,181737,198804,214804
DistanceSpacing: 0.8
BeatDivisor: 4
GridSize: 32

[Metadata]
Title:I'm Your Daddy
TitleUnicode:I'm Your Daddy
Artist:weyheyhey !!
ArtistUnicode:weyheyhey !!
Creator:Loctav
Version:Muzukashii
Source:
Tags:Helical Scan Luanny PhNyx [Luanny PhNyx] breakcore jungle [Luanny]
BeatmapID:179235
BeatmapSetID:59859

[Difficulty]
HPDrainRate:4
CircleSize:4
OverallDifficulty:4
ApproachRate:0
SliderMultiplier:1.2
SliderTickRate:1

[Events]
//Background and Video events
0,0,"bg.jpg"
//Break Periods
//Storyboard Layer 0 (Background)
//Storyboard Layer 1 (Fail)
//Storyboard Layer 2 (Pass)
//Storyboard Layer 3 (Foreground)
Sprite,Foreground,Centre,"luanny.jpg",320,240 M,0,6804,,68,275 S,0,6804,,0.5967999 F,0,6804,6937,0,1 F,0,215870,216004,1,0
//Storyboard Sound Samples
//Background Colour Transformations
3,100,0,0,0

[TimingPoints]
6804,266.666666666667,4,1,0,100,1,0
58004,-100,4,1,0,70,0,0
62270,-100,4,1,0,100,0,1
96404,-100,4,1,0,100,0,0
164670,-100,4,1,0,70,0,0
181737,-100,4,1,0,100,0,1
197737,-100,4,1,0,100,0,0
198804,-100,4,1,0,100,0,1
214804,-100,4,1,0,70,0,0

[Colours]
Combo1 : 5,5,240
Combo2 : 255,0,0

[HitObjects]
256,192,6804,1,4,0:0:0
256,192,7204,1,0,0:0:0
256,192,7337,1,0,0:0:0
256,192,7604,1,8,0:0:0
256,192,7870,1,0,0:0:0
256,192,8137,1,0,0:0:0
256,192,8270,1,0,0:0:0
256,192,8404,1,8,0:0:0
256,192,8537,1,8,0:0:0
256,192,8670,1,0,0:0:0
256,192,8937,1,0,0:0:0
256,192,9204,1,8,0:0:0
256,192,9337,1,0,0:0:0
256,192,9470,1,0,0:0:0
256,192,9737,1,8,0:0:0
256,192,10004,1,0,0:0:0
256,192,10270,1,0,0:0:0
256,192,10404,1,0,0:0:0
256,192,10537,1,8,0:0:0
256,192,10670,1,8,0:0:0
256,192,10804,1,0,0:0:0
256,192,11070,1,0,0:0:0
256,192,11337,1,8,0:0:0
256,192,11470,1,0,0:0:0
256,192,11604,1,8,0:0:0
256,192,11870,1,8,0:0:0
256,192,12137,1,0,0:0:0
256,192,12404,1,0,0:0:0
256,192,12537,1,0,0:0:0
256,192,12670,1,8,0:0:0
256,192,12804,1,8,0:0:0
256,192,12937,1,0,0:0:0
256,192,13204,1,0,0:0:0
256,192,13470,1,8,0:0:0
256,192,13604,1,0,0:0:0
256,192,13737,1,8,0:0:0
256,192,14137,1,0,0:0:0
256,192,14270,1,0,0:0:0
256,192,14537,1,0,0:0:0
256,192,14670,1,0,0:0:0
256,192,14804,1,8,0:0:0
256,192,14937,1,0,0:0:0
256,192,15070,1,8,0:0:0
256,192,15337,1,0,0:0:0
256,192,15737,1,0,0:0:0
256,192,15870,1,0,0:0:0
256,192,16137,1,8,0:0:0
256,192,16404,1,0,0:0:0
256,192,16670,1,0,0:0:0
256,192,16804,1,0,0:0:0
256,192,16937,1,8,0:0:0
256,192,17204,1,8,0:0:0
256,192,17470,1,0,0:0:0
256,192,17604,1,8,0:0:0
256,192,17737,1,8,0:0:0
256,192,17870,1,0,0:0:0
256,192,18004,1,8,0:0:0
256,192,18270,1,8,0:0:0
256,192,18404,1,8,0:0:0
256,192,18537,1,0,0:0:0
256,192,18804,1,8,0:0:0
256,192,19070,1,0,0:0:0
256,192,19337,1,8,0:0:0
256,192,19604,1,0,0:0:0
256,192,19870,1,8,0:0:0
256,192,20004,1,0,0:0:0
256,192,20137,1,0,0:0:0
256,192,20404,1,0,0:0:0
256,192,20670,1,0,0:0:0
256,192,20804,1,0,0:0:0
256,192,20937,1,8,0:0:0
256,192,21204,1,8,0:0:0
256,192,21737,1,0,0:0:0
256,192,22004,1,8,0:0:0
256,192,22137,1,0,0:0:0
256,192,22270,1,8,0:0:0
256,192,22537,1,0,0:0:0
256,192,22804,1,0,0:0:0
256,192,23070,1,8,0:0:0
256,192,23204,1,8,0:0:0
256,192,23337,1,0,0:0:0
256,192,23604,1,8,0:0:0
256,192,23870,1,0,0:0:0
256,192,24004,1,0,0:0:0
256,192,24137,1,8,0:0:0
256,192,24270,1,0,0:0:0
256,192,24537,1,8,0:0:0
256,192,24670,1,0,0:0:0
256,192,24804,1,8,0:0:0
256,192,24937,1,0,0:0:0
256,192,25204,1,8,0:0:0
256,192,25337,1,0,0:0:0
256,192,25470,1,8,0:0:0
256,192,25604,1,0,0:0:0
256,192,25737,1,8,0:0:0
256,192,26004,1,0,0:0:0
256,192,26270,1,0,0:0:0
256,192,26404,1,0,0:0:0
256,192,26537,1,0,0:0:0
256,192,26670,1,8,0:0:0
256,192,26804,1,8,0:0:0
256,192,27070,1,0,0:0:0
256,192,27337,1,8,0:0:0
256,192,27470,1,0,0:0:0
256,192,27604,1,0,0:0:0
256,192,27737,1,8,0:0:0
256,192,27870,1,0,0:0:0
256,192,28137,1,0,0:0:0
256,192,28270,1,0,0:0:0
256,192,28404,1,8,0:0:0
256,192,28537,1,0,0:0:0
256,192,28804,1,0,0:0:0
256,192,28937,1,0,0:0:0
256,192,29204,1,0,0:0:0
256,192,29470,1,0,0:0:0
256,192,29604,1,0,0:0:0
256,192,29737,1,8,0:0:0
256,192,29870,1,0,0:0:0
256,192,30004,1,8,0:0:0
256,192,30270,1,0,0:0:0
256,192,30537,1,8,0:0:0
256,192,30670,1,0,0:0:0
256,192,30937,1,8,0:0:0
256,192,31070,1,8,0:0:0
256,192,31204,1,8,0:0:0
256,192,31337,1,0,0:0:0
256,192,31604,1,8,0:0:0
256,192,31737,1,0,0:0:0
256,192,32137,1,8,0:0:0
256,192,32270,1,8,0:0:0
256,192,32404,1,0,0:0:0
256,192,32670,1,8,0:0:0
256,192,32804,1,0,0:0:0
256,192,33070,1,8,0:0:0
256,192,33204,1,8,0:0:0
256,192,33337,1,8,0:0:0
256,192,33470,1,0,0:0:0
256,192,33737,1,8,0:0:0
256,192,33870,1,0,0:0:0
256,192,34004,1,0,0:0:0
256,192,34270,1,0,0:0:0
256,192,34537,1,0,0:0:0
256,192,34804,1,8,0:0:0
256,192,34937,1,0,0:0:0
256,192,35070,1,8,0:0:0
256,192,35204,1,8,0:0:0
256,192,35337,1,8,0:0:0
256,192,35604,1,0,0:0:0
256,192,35870,1,8,0:0:0
256,192,36004,1,0,0:0:0
256,192,36137,1,8,0:0:0
256,192,36270,1,8,0:0:0
256,192,36404,1,0,0:0:0
256,192,36670,1,0,0:0:0
256,192,36937,1,8,0:0:0
256,192,37204,1,0,0:0:0
256,192,37470,1,8,0:0:0
256,192,37604,1,8,0:0:0
256,192,37737,1,0,0:0:0
256,192,38004,1,0,0:0:0
256,192,38270,1,0,0:0:0
256,192,38404,1,0,0:0:0
256,192,38537,1,8,0:0:0
256,192,38804,1,0,0:0:0
256,192,39070,1,8,0:0:0
256,192,39204,1,8,0:0:0
256,192,39337,1,8,0:0:0
256,192,39604,1,8,0:0:0
256,192,39737,1,0,0:0:0
256,192,39870,1,0,0:0:0
256,192,40137,1,8,0:0:0
256,192,40270,1,8,0:0:0
256,192,40404,1,0,0:0:0
256,192,40537,1,0,0:0:0
256,192,40670,1,8,0:0:0
256,192,40937,1,4,0:0:0
256,192,41337,1,4,0:0:0
256,192,41604,1,8,0:0:0
256,192,41737,1,8,0:0:0
256,192,42004,1,4,0:0:0
256,192,42404,1,4,0:0:0
256,192,42804,1,8,0:0:0
256,192,43070,1,4,0:0:0
256,192,43470,1,4,0:0:0
256,192,43870,1,8,0:0:0
256,192,44137,1,4,0:0:0
256,192,44537,1,6,0:0:0
256,192,44937,1,8,0:0:0
256,192,45204,1,0,0:0:0
256,192,45604,1,0,0:0:0
256,192,46004,1,8,0:0:0
256,192,46270,1,0,0:0:0
256,192,46537,1,8,0:0:0
256,192,46670,1,0,0:0:0
256,192,46804,1,0,0:0:0
256,192,47070,1,8,0:0:0
256,192,47337,1,4,0:0:0
256,192,47737,1,4,0:0:0
256,192,48137,1,8,0:0:0
256,192,48404,1,4,0:0:0
256,192,48804,1,6,0:0:0
256,192,49204,1,6,0:0:0
256,192,49470,1,4,0:0:0
256,192,49870,1,0,0:0:0
256,192,50270,1,8,0:0:0
256,192,50404,1,0,0:0:0
256,192,50537,1,0,0:0:0
256,192,50804,1,0,0:0:0
256,192,50937,1,0,0:0:0
256,192,51204,1,8,0:0:0
256,192,51337,1,8,0:0:0
256,192,51470,1,8,0:0:0
256,192,51604,1,0,0:0:0
256,192,51870,1,8,0:0:0
256,192,52004,1,0,0:0:0
256,192,52270,1,8,0:0:0
256,192,52404,1,8,0:0:0
256,192,52537,1,0,0:0:0
256,192,52670,1,0,0:0:0
256,192,52937,1,8,0:0:0
256,192,53070,1,8,0:0:0
256,192,53337,1,0,0:0:0
256,192,53470,1,8,0:0:0
256,192,53604,1,8,0:0:0
256,192,53737,1,0,0:0:0
256,192,54004,1,0,0:0:0
256,192,54270,1,0,0:0:0
256,192,54537,1,8,0:0:0
256,192,54670,1,0,0:0:0
256,192,54804,1,0,0:0:0
256,192,55070,1,8,0:0:0
256,192,55204,1,0,0:0:0
256,192,55337,1,0,0:0:0
256,192,55604,1,8,0:0:0
256,192,55870,1,0,0:0:0
256,192,56137,1,8,0:0:0
256,192,56270,1,0,0:0:0
256,192,56537,1,8,0:0:0
256,192,56670,1,8,0:0:0
256,192,56804,1,0,0:0:0
256,192,56937,1,0,0:0:0
256,192,57204,1,0,0:0:0
256,192,57337,1,8,0:0:0
256,192,57604,1,0,0:0:0
256,192,57737,1,8,0:0:0
256,192,57870,1,8,0:0:0
256,192,58004,1,0,0:0:0
256,192,58537,1,8,0:0:0
256,192,59070,1,0,0:0:0
256,192,59337,1,0,0:0:0
256,192,59604,1,8,0:0:0
256,192,59870,1,0,0:0:0
256,192,60004,1,0,0:0:0
256,192,60137,1,8,0:0:0
256,192,60670,1,8,0:0:0
256,192,61204,1,0,0:0:0
256,192,61737,1,8,0:0:0
256,192,61870,1,8,0:0:0
256,192,62004,1,8,0:0:0
256,192,62137,1,8,0:0:0
256,192,62270,1,4,0:0:0
256,192,62537,1,8,0:0:0
256,192,62670,1,0,0:0:0
256,192,62937,1,8,0:0:0
256,192,63070,1,8,0:0:0
256,192,63204,1,8,0:0:0
256,192,63337,1,0,0:0:0
256,192,63470,1,0,0:0:0
256,192,63604,1,8,0:0:0
256,192,63737,1,0,0:0:0
256,192,64004,1,0,0:0:0
256,192,64137,1,8,0:0:0
256,192,64270,1,8,0:0:0
256,192,64404,1,0,0:0:0
256,192,64670,1,8,0:0:0
256,192,64804,1,0,0:0:0
256,192,65070,1,0,0:0:0
256,192,65204,1,0,0:0:0
256,192,65337,1,8,0:0:0
256,192,65470,1,0,0:0:0
256,192,65737,1,0,0:0:0
256,192,65870,1,8,0:0:0
256,192,66137,1,0,0:0:0
256,192,66270,1,8,0:0:0
256,192,66404,1,0,0:0:0
256,192,66537,1,0,0:0:0
256,192,66804,1,8,0:0:0
256,192,66937,1,0,0:0:0
256,192,67204,1,8,0:0:0
256,192,67337,1,0,0:0:0
256,192,67604,1,4,0:0:0
256,192,67870,1,8,0:0:0
256,192,68004,1,0,0:0:0
256,192,68137,1,0,0:0:0
256,192,68404,1,8,0:0:0
256,192,68537,1,8,0:0:0
256,192,68670,1,0,0:0:0
256,192,68937,1,8,0:0:0
256,192,69070,1,0,0:0:0
256,192,69204,1,0,0:0:0
256,192,69337,1,0,0:0:0
256,192,69470,1,8,0:0:0
256,192,69737,1,0,0:0:0
256,192,69870,1,8,0:0:0
256,192,70004,1,8,0:0:0
256,192,70137,1,0,0:0:0
256,192,70270,1,0,0:0:0
256,192,70470,1,0,0:0:0
256,192,70670,1,8,0:0:0
256,192,70804,1,4,0:0:0
256,192,71071,1,8,0:0:0
256,192,71204,1,0,0:0:0
256,192,71471,1,8,0:0:0
256,192,71604,1,8,0:0:0
256,192,71738,1,8,0:0:0
256,192,71871,1,0,0:0:0
256,192,72004,1,0,0:0:0
256,192,72138,1,8,0:0:0
256,192,72271,1,0,0:0:0
256,192,72538,1,0,0:0:0
256,192,72671,1,8,0:0:0
256,192,72804,1,8,0:0:0
256,192,72938,1,0,0:0:0
256,192,73204,1,8,0:0:0
256,192,73338,1,0,0:0:0
256,192,73604,1,0,0:0:0
256,192,73738,1,0,0:0:0
256,192,73871,1,8,0:0:0
256,192,74004,1,0,0:0:0
256,192,74137,1,8,0:0:0
256,192,74271,1,0,0:0:0
256,192,74404,1,8,0:0:0
256,192,74671,1,0,0:0:0
256,192,74804,1,8,0:0:0
256,192,74938,1,0,0:0:0
256,192,75071,1,0,0:0:0
256,192,75338,1,8,0:0:0
256,192,75471,1,0,0:0:0
256,192,75738,1,8,0:0:0
256,192,75871,1,0,0:0:0
256,192,76004,1,8,0:0:0
256,192,76138,1,4,0:0:0
256,192,76404,1,8,0:0:0
256,192,76538,1,0,0:0:0
256,192,76671,1,0,0:0:0
256,192,76804,1,0,0:0:0
256,192,76938,1,8,0:0:0
256,192,77071,1,8,0:0:0
256,192,77204,1,0,0:0:0
256,192,77471,1,8,0:0:0
256,192,77604,1,0,0:0:0
256,192,77871,1,0,0:0:0
256,192,78004,1,8,0:0:0
256,192,78137,1,8,0:0:0
256,192,78270,1,0,0:0:0
256,192,78404,1,8,0:0:0
256,192,78538,1,8,0:0:0
256,192,78671,1,0,0:0:0
256,192,78804,1,0,0:0:0
256,192,79070,1,8,0:0:0
256,192,79204,1,8,0:0:0
256,192,79337,1,0,0:0:0
256,192,79604,1,0,0:0:0
256,192,79870,1,0,0:0:0
256,192,80137,1,0,0:0:0
256,192,80270,1,8,0:0:0
256,192,80404,1,8,0:0:0
256,192,80670,1,0,0:0:0
256,192,80937,1,8,0:0:0
256,192,81070,1,8,0:0:0
256,192,81204,1,8,0:0:0
256,192,81337,1,8,0:0:0
256,192,81470,1,0,0:0:0
256,192,81737,1,0,0:0:0
256,192,82004,1,0,0:0:0
256,192,82270,1,8,0:0:0
256,192,82537,1,8,0:0:0
256,192,82670,1,8,0:0:0
256,192,82804,1,0,0:0:0
256,192,83070,1,8,0:0:0
256,192,83337,1,8,0:0:0
256,192,83470,1,8,0:0:0
256,192,83604,1,0,0:0:0
256,192,83870,1,0,0:0:0
256,192,84137,1,0,0:0:0
256,192,84404,1,0,0:0:0
256,192,84537,1,0,0:0:0
256,192,84670,1,8,0:0:0
256,192,84937,1,0,0:0:0
256,192,85070,1,0,0:0:0
256,192,85204,1,8,0:0:0
256,192,85337,1,8,0:0:0
256,192,85470,1,0,0:0:0
256,192,85737,1,0,0:0:0
256,192,86004,1,0,0:0:0
256,192,86270,1,0,0:0:0
256,192,86537,1,8,0:0:0
256,192,86804,1,0,0:0:0
256,192,86937,1,8,0:0:0
256,192,87070,1,8,0:0:0
256,192,87204,1,8,0:0:0
256,192,87337,1,0,0:0:0
256,192,87604,1,8,0:0:0
256,192,87870,1,0,0:0:0
256,192,88137,1,0,0:0:0
256,192,88404,1,0,0:0:0
256,192,88670,1,8,0:0:0
256,192,88804,1,8,0:0:0
256,192,88937,1,8,0:0:0
256,192,89204,1,0,0:0:0
256,192,89470,1,8,0:0:0
256,192,89604,1,8,0:0:0
256,192,89737,1,0,0:0:0
256,192,89870,1,0,0:0:0
256,192,90004,1,0,0:0:0
256,192,90270,1,0,0:0:0
256,192,90537,1,0,0:0:0
256,192,90804,1,8,0:0:0
256,192,90937,1,8,0:0:0
256,192,91070,1,8,0:0:0
256,192,91204,1,8,0:0:0
256,192,91337,1,0,0:0:0
256,192,91604,1,8,0:0:0
256,192,91870,1,0,0:0:0
256,192,92137,1,0,0:0:0
256,192,92404,1,0,0:0:0
256,192,92537,1,0,0:0:0
256,192,92670,1,0,0:0:0
256,192,92937,1,8,0:0:0
256,192,93204,1,0,0:0:0
256,192,93337,1,0,0:0:0
256,192,93470,1,0,0:0:0
256,192,93737,1,8,0:0:0
256,192,94004,1,8,0:0:0
256,192,94270,1,0,0:0:0
256,192,94404,1,0,0:0:0
256,192,94537,1,0,0:0:0
256,192,94670,1,0,0:0:0
256,192,94804,1,8,0:0:0
256,192,95070,1,8,0:0:0
256,192,95204,1,0,0:0:0
256,192,95337,1,0,0:0:0
256,192,95604,12,0,96270,0:0:0
256,192,96404,5,0,0:0:0
256,192,96670,1,8,0:0:0
256,192,96937,1,0,0:0:0
256,192,97204,1,8,0:0:0
256,192,97337,1,8,0:0:0
256,192,97470,1,0,0:0:0
256,192,97737,1,8,0:0:0
256,192,98004,1,0,0:0:0
256,192,98270,1,0,0:0:0
256,192,98537,1,0,0:0:0
256,192,98804,1,8,0:0:0
256,192,99070,1,0,0:0:0
256,192,99204,1,8,0:0:0
256,192,99337,1,0,0:0:0
256,192,99604,1,8,0:0:0
256,192,99870,1,0,0:0:0
256,192,100004,1,8,0:0:0
256,192,100270,1,0,0:0:0
256,192,100404,1,8,0:0:0
256,192,100670,1,0,0:0:0
256,192,100937,1,8,0:0:0
256,192,101204,1,0,0:0:0
256,192,101470,1,8,0:0:0
256,192,101604,1,8,0:0:0
256,192,101737,1,0,0:0:0
256,192,102004,1,8,0:0:0
256,192,102137,1,0,0:0:0
256,192,102404,1,8,0:0:0
256,192,102537,1,0,0:0:0
256,192,102804,1,0,0:0:0
256,192,103070,1,8,0:0:0
256,192,103204,1,0,0:0:0
256,192,103470,1,8,0:0:0
256,192,103604,1,0,0:0:0
256,192,103870,1,8,0:0:0
256,192,104137,1,0,0:0:0
256,192,104270,1,8,0:0:0
256,192,104537,1,0,0:0:0
256,192,104670,1,8,0:0:0
256,192,104937,1,0,0:0:0
256,192,105204,1,8,0:0:0
256,192,105471,1,0,0:0:0
256,192,105737,1,8,0:0:0
256,192,105870,1,8,0:0:0
256,192,106004,1,0,0:0:0
256,192,106271,1,8,0:0:0
256,192,106538,1,0,0:0:0
256,192,106804,1,0,0:0:0
256,192,107071,1,0,0:0:0
256,192,107338,1,8,0:0:0
256,192,107604,1,0,0:0:0
256,192,107871,1,0,0:0:0
256,192,108138,1,8,0:0:0
256,192,108271,1,0,0:0:0
256,192,108538,1,8,0:0:0
256,192,108671,1,0,0:0:0
256,192,108938,1,8,0:0:0
256,192,109204,1,0,0:0:0
256,192,109471,1,8,0:0:0
256,192,109738,1,0,0:0:0
256,192,110004,1,8,0:0:0
256,192,110271,1,0,0:0:0
256,192,110538,1,8,0:0:0
256,192,110671,1,0,0:0:0
256,192,110938,1,8,0:0:0
256,192,111071,1,0,0:0:0
256,192,111338,1,0,0:0:0
256,192,111604,1,8,0:0:0
256,192,111738,1,0,0:0:0
256,192,112004,1,8,0:0:0
256,192,112138,1,0,0:0:0
256,192,112271,1,0,0:0:0
256,192,112404,12,0,113337,0:0:0
256,192,113470,5,0,0:0:0
256,192,113737,1,8,0:0:0
256,192,113870,1,0,0:0:0
256,192,114004,1,0,0:0:0
256,192,114270,1,8,0:0:0
256,192,114404,1,8,0:0:0
256,192,114537,1,0,0:0:0
256,192,114804,1,8,0:0:0
256,192,114937,1,0,0:0:0
256,192,115204,1,8,0:0:0
256,192,115337,1,0,0:0:0
256,192,115604,1,0,0:0:0
256,192,115870,1,8,0:0:0
256,192,116004,1,0,0:0:0
256,192,116270,1,8,0:0:0
256,192,116404,1,0,0:0:0
256,192,116670,1,8,0:0:0
256,192,116804,1,0,0:0:0
256,192,117070,1,8,0:0:0
256,192,117204,1,0,0:0:0
256,192,117470,1,8,0:0:0
256,192,117604,1,8,0:0:0
256,192,117737,1,0,0:0:0
256,192,118004,1,8,0:0:0
256,192,118137,1,0,0:0:0
256,192,118270,1,0,0:0:0
256,192,118537,1,0,0:0:0
256,192,118804,1,0,0:0:0
256,192,119070,1,8,0:0:0
256,192,119204,1,0,0:0:0
256,192,119470,1,8,0:0:0
256,192,119604,1,0,0:0:0
256,192,119737,1,8,0:0:0
256,192,119870,1,0,0:0:0
256,192,120137,1,8,0:0:0
256,192,120270,1,0,0:0:0
256,192,120537,1,8,0:0:0
256,192,120670,1,0,0:0:0
256,192,120937,1,8,0:0:0
256,192,121204,1,0,0:0:0
256,192,121337,1,8,0:0:0
256,192,121470,1,0,0:0:0
256,192,121737,1,8,0:0:0
256,192,121870,1,8,0:0:0
256,192,122004,1,0,0:0:0
256,192,122271,1,8,0:0:0
256,192,122538,1,0,0:0:0
256,192,122804,1,8,0:0:0
256,192,123071,1,0,0:0:0
256,192,123338,1,8,0:0:0
256,192,123471,1,0,0:0:0
256,192,123604,1,0,0:0:0
256,192,123871,1,0,0:0:0
256,192,124138,1,0,0:0:0
256,192,124404,1,8,0:0:0
256,192,124538,1,0,0:0:0
256,192,124804,1,8,0:0:0
256,192,124938,1,0,0:0:0
256,192,125204,1,8,0:0:0
256,192,125338,1,0,0:0:0
256,192,125604,1,8,0:0:0
256,192,125738,1,0,0:0:0
256,192,126004,1,8,0:0:0
256,192,126138,1,8,0:0:0
256,192,126271,1,0,0:0:0
256,192,126538,1,8,0:0:0
256,192,126671,1,0,0:0:0
256,192,126804,1,0,0:0:0
256,192,127071,1,0,0:0:0
256,192,127338,1,0,0:0:0
256,192,127604,1,8,0:0:0
256,192,127738,1,0,0:0:0
256,192,128004,1,8,0:0:0
256,192,128138,1,0,0:0:0
256,192,128404,1,0,0:0:0
256,192,128671,1,8,0:0:0
256,192,128804,1,0,0:0:0
256,192,129071,1,8,0:0:0
256,192,129204,1,0,0:0:0
256,192,129338,1,0,0:0:0
256,192,129471,1,8,0:0:0
256,192,130270,1,8,0:0:0
256,192,130404,1,8,0:0:0
256,192,130537,1,0,0:0:0
256,192,130804,1,8,0:0:0
256,192,130937,1,0,0:0:0
256,192,131204,1,8,0:0:0
256,192,131337,1,0,0:0:0
256,192,131470,1,0,0:0:0
256,192,131604,1,0,0:0:0
256,192,131870,1,8,0:0:0
256,192,132004,1,0,0:0:0
256,192,132270,1,8,0:0:0
256,192,132404,1,0,0:0:0
256,192,132670,1,0,0:0:0
256,192,132937,1,8,0:0:0
256,192,133070,1,0,0:0:0
256,192,133337,1,8,0:0:0
256,192,133470,1,0,0:0:0
256,192,133604,1,0,0:0:0
256,192,133737,1,0,0:0:0
256,192,134004,1,8,0:0:0
256,192,134270,1,0,0:0:0
256,192,134537,1,8,0:0:0
256,192,134804,1,0,0:0:0
256,192,135071,1,8,0:0:0
256,192,135204,1,0,0:0:0
256,192,135471,1,8,0:0:0
256,192,135604,1,0,0:0:0
256,192,135737,1,0,0:0:0
256,192,135871,1,0,0:0:0
256,192,136137,1,8,0:0:0
256,192,136271,1,0,0:0:0
256,192,136537,1,8,0:0:0
256,192,136671,1,0,0:0:0
256,192,136937,1,0,0:0:0
256,192,137204,1,8,0:0:0
256,192,137337,1,0,0:0:0
256,192,137604,1,8,0:0:0
256,192,137737,1,0,0:0:0
256,192,137871,1,0,0:0:0
256,192,138004,1,0,0:0:0
256,192,138271,1,8,0:0:0
256,192,138404,1,0,0:0:0
256,192,138537,1,8,0:0:0
256,192,138804,1,0,0:0:0
256,192,139070,1,0,0:0:0
256,192,139337,1,8,0:0:0
256,192,139470,1,0,0:0:0
256,192,139737,1,8,0:0:0
256,192,139870,1,0,0:0:0
256,192,140003,1,0,0:0:0
256,192,140137,1,0,0:0:0
256,192,140403,1,8,0:0:0
256,192,140537,1,0,0:0:0
256,192,140803,1,8,0:0:0
256,192,140937,1,0,0:0:0
256,192,141203,1,0,0:0:0
256,192,141470,1,8,0:0:0
256,192,141603,1,0,0:0:0
256,192,141870,1,8,0:0:0
256,192,142003,1,0,0:0:0
256,192,142137,1,0,0:0:0
256,192,142270,1,0,0:0:0
256,192,142537,1,8,0:0:0
256,192,142670,1,8,0:0:0
256,192,142803,1,0,0:0:0
256,192,143070,1,8,0:0:0
256,192,143337,1,0,0:0:0
256,192,143604,1,8,0:0:0
256,192,143737,1,0,0:0:0
256,192,144004,1,8,0:0:0
256,192,144137,1,0,0:0:0
256,192,144270,1,0,0:0:0
256,192,144404,1,0,0:0:0
256,192,144670,1,8,0:0:0
256,192,144804,1,0,0:0:0
256,192,144937,1,8,0:0:0
256,192,145070,1,8,0:0:0
256,192,145204,1,0,0:0:0
256,192,145337,1,8,0:0:0
256,192,145470,1,0,0:0:0
256,192,145737,1,8,0:0:0
256,192,145870,1,0,0:0:0
256,192,146137,1,8,0:0:0
256,192,146270,1,0,0:0:0
256,192,146404,1,0,0:0:0
256,192,146537,1,0,0:0:0
256,192,146804,1,8,0:0:0
256,192,146937,1,8,0:0:0
256,192,147070,1,0,0:0:0
256,192,147337,1,8,0:0:0
256,192,147604,1,0,0:0:0
256,192,147870,1,8,0:0:0
256,192,148004,1,0,0:0:0
256,192,148270,1,8,0:0:0
256,192,148404,1,0,0:0:0
256,192,148537,1,0,0:0:0
256,192,148670,1,0,0:0:0
256,192,148937,1,8,0:0:0
256,192,149070,1,0,0:0:0
256,192,149337,1,8,0:0:0
256,192,149470,1,0,0:0:0
256,192,149604,1,8,0:0:0
256,192,149737,1,0,0:0:0
256,192,150004,1,8,0:0:0
256,192,150137,1,0,0:0:0
256,192,150270,1,0,0:0:0
256,192,150404,1,8,0:0:0
256,192,150537,1,0,0:0:0
256,192,150804,1,8,0:0:0
256,192,151070,1,8,0:0:0
256,192,151204,1,0,0:0:0
256,192,151337,1,8,0:0:0
256,192,151470,1,8,0:0:0
256,192,151604,1,0,0:0:0
256,192,151870,1,0,0:0:0
256,192,152137,1,8,0:0:0
256,192,152270,1,0,0:0:0
256,192,152537,1,8,0:0:0
256,192,152670,1,0,0:0:0
256,192,152804,1,0,0:0:0
256,192,152937,1,0,0:0:0
256,192,153204,1,8,0:0:0
256,192,153337,1,0,0:0:0
256,192,153470,1,8,0:0:0
256,192,153604,1,8,0:0:0
256,192,153737,1,0,0:0:0
256,192,154004,1,0,0:0:0
256,192,154270,1,8,0:0:0
256,192,154404,1,0,0:0:0
256,192,154670,1,8,0:0:0
256,192,154804,1,0,0:0:0
256,192,154937,1,8,0:0:0
256,192,155070,1,0,0:0:0
256,192,155337,1,8,0:0:0
256,192,155470,1,8,0:0:0
256,192,155604,1,0,0:0:0
256,192,155737,1,0,0:0:0
256,192,155870,1,8,0:0:0
256,192,156137,1,0,0:0:0
256,192,156404,1,8,0:0:0
256,192,156537,1,0,0:0:0
256,192,156804,1,8,0:0:0
256,192,156937,1,0,0:0:0
256,192,157070,1,0,0:0:0
256,192,157204,1,0,0:0:0
256,192,157470,1,8,0:0:0
256,192,157604,1,0,0:0:0
256,192,157870,1,8,0:0:0
256,192,158004,1,0,0:0:0
256,192,158137,1,8,0:0:0
256,192,158270,1,0,0:0:0
256,192,158537,1,8,0:0:0
256,192,158670,1,0,0:0:0
256,192,158937,1,8,0:0:0
256,192,159070,1,0,0:0:0
256,192,159204,1,0,0:0:0
256,192,159337,1,8,0:0:0
256,192,159604,1,8,0:0:0
256,192,159737,1,8,0:0:0
256,192,159870,1,0,0:0:0
256,192,160004,1,8,0:0:0
256,192,160137,1,0,0:0:0
256,192,160270,1,8,0:0:0
256,192,160404,1,0,0:0:0
256,192,160670,1,8,0:0:0
256,192,160804,1,0,0:0:0
256,192,161070,1,8,0:0:0
256,192,161204,1,0,0:0:0
256,192,161337,1,0,0:0:0
256,192,161470,1,0,0:0:0
256,192,161737,1,8,0:0:0
256,192,161870,1,0,0:0:0
256,192,162004,1,8,0:0:0
256,192,162137,1,8,0:0:0
256,192,162270,1,0,0:0:0
256,192,162537,1,0,0:0:0
256,192,162804,1,8,0:0:0
256,192,162937,1,0,0:0:0
256,192,163070,1,0,0:0:0
256,192,163204,1,8,0:0:0
256,192,163337,1,0,0:0:0
256,192,163604,1,8,0:0:0
256,192,163737,1,0,0:0:0
256,192,163870,1,0,0:0:0
256,192,164004,1,8,0:0:0
256,192,164137,1,0,0:0:0
256,192,164270,1,0,0:0:0
256,192,164404,1,8,0:0:0
256,192,164670,1,8,0:0:0
256,192,165204,1,0,0:0:0
256,192,165737,1,8,0:0:0
256,192,166004,1,8,0:0:0
256,192,166270,1,0,0:0:0
256,192,166537,1,8,0:0:0
256,192,166670,1,8,0:0:0
256,192,166804,1,0,0:0:0
256,192,167337,1,8,0:0:0
256,192,167604,1,0,0:0:0
256,192,167870,1,8,0:0:0
256,192,168137,1,8,0:0:0
256,192,168403,1,0,0:0:0
256,192,168670,1,8,0:0:0
256,192,168803,1,8,0:0:0
256,192,168937,1,0,0:0:0
256,192,169470,1,0,0:0:0
256,192,169737,1,0,0:0:0
256,192,170004,1,8,0:0:0
256,192,170271,1,8,0:0:0
256,192,170537,1,0,0:0:0
256,192,170804,1,0,0:0:0
256,192,170937,1,8,0:0:0
256,192,171071,1,0,0:0:0
256,192,171604,1,8,0:0:0
256,192,171871,1,0,0:0:0
256,192,172137,1,8,0:0:0
256,192,172404,1,8,0:0:0
256,192,172670,1,0,0:0:0
256,192,172937,1,8,0:0:0
256,192,173070,1,8,0:0:0
256,192,173204,1,0,0:0:0
256,192,173737,1,8,0:0:0
256,192,174004,1,0,0:0:0
256,192,174270,1,8,0:0:0
256,192,174537,1,8,0:0:0
256,192,174803,1,0,0:0:0
256,192,175070,1,8,0:0:0
256,192,175203,1,8,0:0:0
256,192,175337,1,0,0:0:0
256,192,175870,1,0,0:0:0
256,192,176137,1,0,0:0:0
256,192,176404,1,8,0:0:0
256,192,176671,1,8,0:0:0
256,192,176937,1,0,0:0:0
256,192,177204,1,8,0:0:0
256,192,177337,1,0,0:0:0
256,192,177471,1,0,0:0:0
256,192,178004,1,8,0:0:0
256,192,178271,1,0,0:0:0
256,192,178537,1,8,0:0:0
256,192,178804,1,8,0:0:0
256,192,179070,1,0,0:0:0
256,192,179337,1,8,0:0:0
256,192,179470,1,8,0:0:0
256,192,179604,1,0,0:0:0
256,192,180137,1,8,0:0:0
256,192,180404,1,0,0:0:0
256,192,180670,12,0,181470,0:0:0
256,192,181737,5,0,0:0:0
256,192,182004,5,8,0:0:0
256,192,182137,1,0,0:0:0
256,192,182270,1,8,0:0:0
256,192,182404,1,0,0:0:0
256,192,182537,1,0,0:0:0
256,192,182670,1,8,0:0:0
256,192,182937,1,0,0:0:0
256,192,183070,1,8,0:0:0
256,192,183204,1,0,0:0:0
256,192,183470,1,0,0:0:0
256,192,183604,1,0,0:0:0
256,192,183737,1,8,0:0:0
256,192,183870,1,0,0:0:0
256,192,184137,1,8,0:0:0
256,192,184270,1,0,0:0:0
256,192,184404,1,8,0:0:0
256,192,184537,1,0,0:0:0
256,192,184670,1,0,0:0:0
256,192,184804,1,8,0:0:0
256,192,185070,1,0,0:0:0
256,192,185204,1,8,0:0:0
256,192,185337,1,0,0:0:0
256,192,185604,1,0,0:0:0
256,192,185737,1,0,0:0:0
256,192,185870,1,8,0:0:0
256,192,186004,1,0,0:0:0
256,192,186270,1,8,0:0:0
256,192,186404,1,0,0:0:0
256,192,186537,1,8,0:0:0
256,192,186804,1,0,0:0:0
256,192,186937,1,8,0:0:0
256,192,187204,1,0,0:0:0
256,192,187337,1,8,0:0:0
256,192,187470,1,0,0:0:0
256,192,187737,1,0,0:0:0
256,192,187870,1,0,0:0:0
256,192,188004,1,8,0:0:0
256,192,188137,1,0,0:0:0
256,192,188404,1,8,0:0:0
256,192,188537,1,0,0:0:0
256,192,188670,1,8,0:0:0
256,192,188804,1,0,0:0:0
256,192,188937,1,0,0:0:0
256,192,189204,1,8,0:0:0
256,192,189337,1,0,0:0:0
256,192,189470,1,8,0:0:0
256,192,189604,1,0,0:0:0
256,192,189870,1,0,0:0:0
256,192,190004,1,8,0:0:0
256,192,190137,1,8,0:0:0
256,192,190270,1,8,0:0:0
256,192,190537,1,8,0:0:0
256,192,190670,1,0,0:0:0
256,192,190803,1,8,0:0:0
256,192,190937,1,0,0:0:0
256,192,191070,1,0,0:0:0
256,192,191203,1,8,0:0:0
256,192,191470,1,0,0:0:0
256,192,191603,1,8,0:0:0
256,192,191737,1,0,0:0:0
256,192,192003,1,0,0:0:0
256,192,192137,1,0,0:0:0
256,192,192270,1,8,0:0:0
256,192,192403,1,0,0:0:0
256,192,192670,1,8,0:0:0
256,192,192803,1,0,0:0:0
256,192,192937,1,8,0:0:0
256,192,193070,1,0,0:0:0
256,192,193203,1,0,0:0:0
256,192,193337,1,8,0:0:0
256,192,193603,1,0,0:0:0
256,192,193737,1,8,0:0:0
256,192,193870,1,0,0:0:0
256,192,194137,1,0,0:0:0
256,192,194403,1,8,0:0:0
256,192,194537,1,0,0:0:0
256,192,194803,1,8,0:0:0
256,192,194937,1,0,0:0:0
256,192,195070,1,8,0:0:0
256,192,195203,1,0,0:0:0
256,192,195337,1,0,0:0:0
256,192,195470,1,8,0:0:0
256,192,195737,1,0,0:0:0
256,192,195870,1,8,0:0:0
256,192,196003,1,0,0:0:0
256,192,196137,1,0,0:0:0
256,192,196403,1,0,0:0:0
256,192,196537,1,8,0:0:0
256,192,196670,1,0,0:0:0
256,192,196937,1,8,0:0:0
256,192,197070,1,0,0:0:0
256,192,197203,1,8,0:0:0
256,192,197337,1,0,0:0:0
256,192,197604,1,8,0:0:0
256,192,197737,1,0,0:0:0
256,192,197870,1,8,0:0:0
256,192,198004,1,8,0:0:0
256,192,198137,1,8,0:0:0
256,192,198270,1,0,0:0:0
256,192,198404,1,8,0:0:0
256,192,198537,1,8,0:0:0
256,192,198670,1,8,0:0:0
256,192,198804,1,0,0:0:0
256,192,199070,1,8,0:0:0
256,192,199204,1,0,0:0:0
256,192,199337,1,8,0:0:0
256,192,199470,1,0,0:0:0
256,192,199604,1,0,0:0:0
256,192,199737,1,8,0:0:0
256,192,200004,1,0,0:0:0
256,192,200137,1,0,0:0:0
256,192,200270,1,0,0:0:0
256,192,200537,1,0,0:0:0
256,192,200670,1,0,0:0:0
256,192,200804,1,8,0:0:0
256,192,200937,1,0,0:0:0
256,192,201204,1,8,0:0:0
256,192,201337,1,0,0:0:0
256,192,201470,1,8,0:0:0
256,192,201604,1,0,0:0:0
256,192,201737,1,0,0:0:0
256,192,201870,1,8,0:0:0
256,192,202137,1,0,0:0:0
256,192,202270,1,0,0:0:0
256,192,202404,1,0,0:0:0
256,192,202670,1,0,0:0:0
256,192,202804,1,0,0:0:0
256,192,202937,1,8,0:0:0
256,192,203070,1,0,0:0:0
256,192,203337,1,8,0:0:0
256,192,203470,1,0,0:0:0
256,192,203604,1,8,0:0:0
256,192,203737,1,0,0:0:0
256,192,203870,1,0,0:0:0
256,192,204004,1,8,0:0:0
256,192,204270,1,0,0:0:0
256,192,204404,1,0,0:0:0
256,192,204537,1,0,0:0:0
256,192,204804,1,0,0:0:0
256,192,204937,1,0,0:0:0
256,192,205070,1,8,0:0:0
256,192,205204,1,0,0:0:0
256,192,205470,1,8,0:0:0
256,192,205604,1,0,0:0:0
256,192,205737,1,8,0:0:0
256,192,205870,1,0,0:0:0
256,192,206004,1,0,0:0:0
256,192,206137,1,0,0:0:0
256,192,206270,1,8,0:0:0
256,192,206537,1,0,0:0:0
256,192,206670,1,0,0:0:0
256,192,206804,1,8,0:0:0
256,192,206937,1,0,0:0:0
256,192,207070,1,0,0:0:0
256,192,207204,1,8,0:0:0
256,192,207337,1,0,0:0:0
256,192,207604,1,8,0:0:0
256,192,207738,1,0,0:0:0
256,192,207871,1,8,0:0:0
256,192,208004,1,0,0:0:0
256,192,208138,1,0,0:0:0
256,192,208271,1,8,0:0:0
256,192,208404,1,8,0:0:0
256,192,208670,1,8,0:0:0
256,192,208937,1,8,0:0:0
256,192,209071,1,0,0:0:0
256,192,209204,1,8,0:0:0
256,192,209338,1,8,0:0:0
256,192,209471,1,0,0:0:0
256,192,209738,1,8,0:0:0
256,192,209871,1,0,0:0:0
256,192,210004,1,8,0:0:0
256,192,210138,1,0,0:0:0
256,192,210271,1,0,0:0:0
256,192,210404,1,0,0:0:0
256,192,210671,1,0,0:0:0
256,192,210804,1,0,0:0:0
256,192,210938,1,0,0:0:0
256,192,211204,1,0,0:0:0
256,192,211338,1,0,0:0:0
256,192,211471,1,8,0:0:0
256,192,211604,1,0,0:0:0
256,192,211737,1,0,0:0:0
256,192,211871,1,8,0:0:0
256,192,212138,1,8,0:0:0
256,192,212271,1,0,0:0:0
256,192,212404,1,0,0:0:0
256,192,212538,1,8,0:0:0
256,192,212804,1,0,0:0:0
256,192,212938,1,0,0:0:0
256,192,213071,1,0,0:0:0
256,192,213338,1,0,0:0:0
256,192,213471,1,0,0:0:0
256,192,213604,1,8,0:0:0
256,192,213738,1,0,0:0:0
256,192,214004,1,8,0:0:0
256,192,214137,1,0,0:0:0
256,192,214404,1,8,0:0:0
256,192,214537,1,0,0:0:0
256,192,214804,1,0,0:0:0
256,192,214938,1,0,0:0:0
256,192,215071,1,8,0:0:0
256,192,215204,1,0,0:0:0
256,192,215338,1,0,0:0:0
256,192,215471,1,8,0:0:0
256,192,215604,1,0,0:0:0
256,192,215738,1,8,0:0:0
256,192,215870,1,0,0:0:0
256,192,216004,1,0,0:0:0
256,192,216137,1,8,0:0:0
256,192,216270,1,8,0:0:0
256,192,216537,1,0,0:0:0
256,192,216670,1,8,0:0:0
256,192,216804,1,8,0:0:0
256,192,216937,1,8,0:0:0
256,192,217070,1,0,0:0:0
