osu file format v11

[General]
AudioFilename: weyheyhey !! - Helical Scan -03 I'm Your Daddy.mp3
AudioLeadIn: 0
PreviewTime: 62004
Countdown: 0
SampleSet: Normal
StackLeniency: 0.7
Mode: 1
LetterboxInBreaks: 0

[Editor]
Bookmarks: 6799,181737
DistanceSpacing: 0.8
BeatDivisor: 4
GridSize: 8

[Metadata]
Title:I'm Your Daddy
TitleUnicode:I'm Your Daddy
Artist:weyheyhey !!
ArtistUnicode:weyheyhey !!
Creator:Loctav
Version:Kantan
Source:
Tags:Helical Scan Luanny PhNyx [Luanny PhNyx] breakcore jungle [Luanny]
BeatmapID:179234
BeatmapSetID:59859

[Difficulty]
HPDrainRate:2
CircleSize:3
OverallDifficulty:2
ApproachRate:1
SliderMultiplier:1
SliderTickRate:1

[Events]
//Background and Video events
0,0,"bg.jpg"
//Break Periods
//Storyboard Layer 0 (Background)
//Storyboard Layer 1 (Fail)
//Storyboard Layer 2 (Pass)
//Storyboard Layer 3 (Foreground)
Sprite,Foreground,Centre,"loctav.jpg",320,240 M,0,6804,,68,275 S,0,6804,,0.5967999 F,0,6804,6937,0,1 F,0,215870,216004,1,0
//Storyboard Sound Samples
//Background Colour Transformations
3,100,0,0,0

[TimingPoints]
6804,266.666666666667,4,1,0,100,1,0
58004,-100,4,1,0,70,0,0
62270,-100,4,1,0,100,0,1
96404,-100,4,1,0,100,0,0
164670,-100,4,1,0,70,0,0
181737,-100,4,1,0,100,0,1
197737,-100,4,1,0,100,0,0
198804,-100,4,1,0,100,0,1
214804,-100,4,1,0,70,0,0

[Colours]
Combo1 : 5,5,240
Combo2 : 255,0,0

[HitObjects]
256,192,6804,1,0,0:0:0
256,192,7604,5,8,0:0:0
256,192,7870,5,0,0:0:0
256,192,8404,5,8,0:0:0
256,192,8937,5,0,0:0:0
256,192,9737,5,8,0:0:0
256,192,10004,5,0,0:0:0
256,192,10537,5,8,0:0:0
256,192,11070,5,0,0:0:0
256,192,11870,5,8,0:0:0
256,192,12136,5,0,0:0:0
256,192,13204,1,0,0:0:0
256,192,14004,5,8,0:0:0
256,192,14270,5,0,0:0:0
256,192,15337,1,0,0:0:0
256,192,15737,1,0,0:0:0
256,192,16403,1,0,0:0:0
256,192,16803,1,0,0:0:0
256,192,17470,1,0,0:0:0
256,192,17870,1,0,0:0:0
256,192,18537,5,8,0:0:0
256,192,19070,1,8,0:0:0
256,192,19604,5,0,0:0:0
256,192,20004,1,0,0:0:0
256,192,20670,5,8,0:0:0
256,192,21470,1,8,0:0:0
256,192,21737,5,0,0:0:0
256,192,22804,1,0,0:0:0
256,192,23337,1,0,0:0:0
256,192,23870,1,0,0:0:0
256,192,24270,1,0,0:0:0
256,192,24937,1,0,0:0:0
256,192,25470,2,0,B|472:192,1,200
256,192,26404,1,0,0:0:0
256,192,27070,1,0,0:0:0
256,192,27470,5,8,0:0:0
256,192,27870,1,8,0:0:0
256,192,28137,6,0,B|464:192,2,200
256,192,29737,5,8,0:0:0
256,192,30270,5,0,0:0:0
256,192,30670,1,0,0:0:0
256,192,31337,5,8,0:0:0
256,192,31737,1,8,0:0:0
256,192,32404,5,0,0:0:0
256,192,32804,1,0,0:0:0
256,192,33471,1,0,0:0:0
256,192,33871,1,0,0:0:0
256,192,34537,1,0,0:0:0
256,192,34937,1,0,0:0:0
256,192,35604,5,8,0:0:0
256,192,36004,1,8,0:0:0
256,192,36670,5,0,0:0:0
256,192,37070,1,0,0:0:0
256,192,37737,5,8,0:0:0
256,192,38004,1,8,0:0:0
256,192,38270,6,0,B|464:192,1,200
256,192,39204,1,0,0:0:0
256,192,39870,1,0,0:0:0
256,192,40270,5,8,0:0:0
256,192,40937,5,0,0:0:0
256,192,41337,1,0,0:0:0
256,192,42004,1,0,0:0:0
256,192,42404,5,8,0:0:0
256,192,43071,5,0,0:0:0
256,192,43471,1,0,0:0:0
256,192,44137,1,0,0:0:0
256,192,44537,5,8,0:0:0
256,192,45204,5,0,0:0:0
256,192,45604,1,0,0:0:0
256,192,46270,1,0,0:0:0
256,192,46670,5,8,0:0:0
256,192,47337,5,0,0:0:0
256,192,47737,1,0,0:0:0
256,192,48404,1,0,0:0:0
256,192,48804,5,8,0:0:0
256,192,49471,5,0,0:0:0
256,192,49871,1,0,0:0:0
256,192,50537,1,0,0:0:0
256,192,51070,5,8,0:0:0
256,192,51604,5,0,0:0:0
256,192,52004,1,0,0:0:0
256,192,52670,1,0,0:0:0
256,192,53070,5,8,0:0:0
256,192,53737,5,0,0:0:0
256,192,54270,1,0,0:0:0
256,192,54804,1,0,0:0:0
256,192,55204,5,8,0:0:0
256,192,55870,5,0,0:0:0
256,192,56270,1,0,0:0:0
256,192,56937,1,0,0:0:0
256,192,57337,5,8,0:0:0
256,192,58004,5,0,0:0:0
256,192,60137,1,0,0:0:0
256,192,62270,1,0,0:0:0
256,192,62670,1,0,0:0:0
256,192,63070,5,8,0:0:0
256,192,63337,5,0,0:0:0
256,192,63737,1,0,0:0:0
256,192,64137,5,8,0:0:0
256,192,64404,5,0,0:0:0
256,192,64804,1,0,0:0:0
256,192,65204,5,8,0:0:0
256,192,65470,5,0,0:0:0
256,192,66537,1,0,0:0:0
256,192,66937,1,0,0:0:0
256,192,67337,5,8,0:0:0
256,192,67604,5,0,0:0:0
256,192,68004,1,0,0:0:0
256,192,68404,5,8,0:0:0
256,192,68670,5,0,0:0:0
256,192,69070,1,0,0:0:0
256,192,69470,5,8,0:0:0
256,192,69737,5,0,0:0:0
256,192,70137,5,8,0:0:0
256,192,70804,5,0,0:0:0
256,192,71204,1,0,0:0:0
256,192,71870,1,0,0:0:0
256,192,72270,1,0,0:0:0
256,192,72670,5,8,0:0:0
256,192,72937,5,0,0:0:0
256,192,73337,1,0,0:0:0
256,192,73737,5,8,0:0:0
256,192,74004,5,0,0:0:0
256,192,75070,1,0,0:0:0
256,192,75470,1,0,0:0:0
256,192,75870,5,8,0:0:0
256,192,76137,5,0,0:0:0
256,192,76537,1,0,0:0:0
256,192,76937,5,8,0:0:0
256,192,77204,5,0,0:0:0
256,192,77604,1,0,0:0:0
256,192,78004,5,8,0:0:0
256,192,78270,5,0,0:0:0
256,192,78670,1,0,0:0:0
256,192,79070,5,8,0:0:0
256,192,79337,5,4,0:0:0
256,192,79870,1,4,0:0:0
256,192,80137,5,8,0:0:0
256,192,80404,2,0,B|320:192,8,50
256,200,82004,5,4,0:0:0
256,192,82537,2,0,B|320:192,8,50
256,200,84137,1,4,0:0:0
256,192,84670,12,0,85737,0:0:0
256,192,86270,5,0,0:0:0
256,192,86804,5,0,0:0:0
256,192,87337,1,0,0:0:0
256,192,87870,1,4,0:0:0
256,192,88404,1,4,0:0:0
256,192,88937,12,0,90004,0:0:0
256,192,90537,5,0,0:0:0
256,192,91070,5,0,0:0:0
256,192,91604,1,0,0:0:0
256,192,92137,1,4,0:0:0
256,192,92670,1,0,0:0:0
256,192,93204,2,0,B|320:192,6,50
256,192,94270,12,0,95604,0:0:0
256,192,96404,5,0,0:0:0
256,192,96937,5,0,0:0:0
256,192,97470,1,0,0:0:0
256,192,98004,1,0,0:0:0
256,192,98537,1,0,0:0:0
256,192,99070,1,0,0:0:0
256,192,99604,5,8,0:0:0
256,192,100137,1,8,0:0:0
256,192,100670,5,0,0:0:0
256,192,101204,1,0,0:0:0
256,192,101737,1,0,0:0:0
256,192,102270,1,0,0:0:0
256,192,102804,1,0,0:0:0
256,192,103337,1,0,0:0:0
256,192,103870,5,8,0:0:0
256,192,104404,1,8,0:0:0
256,192,104937,5,0,0:0:0
256,192,105470,1,0,0:0:0
256,192,106004,1,0,0:0:0
256,192,106537,1,0,0:0:0
256,192,107070,1,0,0:0:0
256,192,107604,1,0,0:0:0
256,192,108137,5,8,0:0:0
256,192,108670,1,8,0:0:0
256,192,109204,5,0,0:0:0
256,192,109737,1,0,0:0:0
256,192,110270,1,0,0:0:0
256,192,110804,1,0,0:0:0
256,192,111337,1,0,0:0:0
256,192,111870,1,0,0:0:0
256,192,112404,2,0,B|464:192,2,200
256,192,114004,1,0,0:0:0
256,192,114537,1,0,0:0:0
256,192,115070,1,0,0:0:0
256,192,115604,1,0,0:0:0
256,192,116137,1,0,0:0:0
256,192,116670,5,8,0:0:0
256,192,117204,1,8,0:0:0
256,192,117737,5,0,0:0:0
256,192,118270,1,0,0:0:0
256,192,118804,1,0,0:0:0
256,192,119337,1,0,0:0:0
256,192,119870,1,0,0:0:0
256,192,120404,1,0,0:0:0
256,192,120937,5,8,0:0:0
256,192,121470,1,8,0:0:0
256,192,122004,5,0,0:0:0
256,192,122537,5,8,0:0:0
256,192,123070,5,0,0:0:0
256,192,123604,5,8,0:0:0
256,192,124137,5,0,0:0:0
256,192,124670,5,8,0:0:0
256,192,125204,1,8,0:0:0
256,192,125737,1,8,0:0:0
256,192,126270,5,0,0:0:0
256,192,126804,1,0,0:0:0
256,192,127336,1,0,0:0:0
256,192,127870,1,0,0:0:0
256,192,128404,1,0,0:0:0
256,192,128937,1,0,0:0:0
256,192,129470,5,8,0:0:0
256,192,130537,5,0,0:0:0
256,192,130937,1,0,0:0:0
256,192,131604,1,0,0:0:0
256,192,132004,1,0,0:0:0
256,192,132670,1,0,0:0:0
256,192,133070,1,0,0:0:0
256,192,133737,5,8,0:0:0
256,192,134270,1,8,0:0:0
256,192,134804,5,0,0:0:0
256,192,135204,1,0,0:0:0
256,192,135870,1,0,0:0:0
256,192,136270,1,0,0:0:0
256,192,136937,1,0,0:0:0
256,192,137337,1,0,0:0:0
256,192,138004,5,8,0:0:0
256,192,138537,1,8,0:0:0
256,192,139070,5,0,0:0:0
256,192,139470,1,0,0:0:0
256,192,140137,1,0,0:0:0
256,192,140537,1,0,0:0:0
256,192,141204,1,0,0:0:0
256,192,141604,1,0,0:0:0
256,192,142004,1,0,0:0:0
256,192,142270,12,0,142937,0:0:0
256,192,143337,5,0,0:0:0
256,192,143737,5,0,0:0:0
256,192,144404,1,0,0:0:0
256,192,144804,1,0,0:0:0
256,192,145470,1,0,0:0:0
256,192,145870,1,0,0:0:0
256,192,146537,12,0,147204,0:0:0
256,192,147604,1,0,0:0:0
256,192,148004,5,0,0:0:0
256,192,148670,1,0,0:0:0
256,192,149070,1,0,0:0:0
256,192,149737,1,0,0:0:0
256,192,150137,1,0,0:0:0
256,192,150804,5,8,0:0:0
256,192,151204,1,8,0:0:0
256,192,151604,1,8,0:0:0
256,192,151870,5,0,0:0:0
256,192,152270,1,0,0:0:0
256,192,152937,1,0,0:0:0
256,192,153337,1,0,0:0:0
256,192,154004,1,0,0:0:0
256,192,154404,1,0,0:0:0
256,192,154804,1,0,0:0:0
256,192,155070,12,0,155737,0:0:0
256,192,156137,5,0,0:0:0
256,192,156537,5,0,0:0:0
256,192,157204,1,0,0:0:0
256,192,157604,1,0,0:0:0
256,192,158270,1,0,0:0:0
256,192,158670,1,0,0:0:0
256,192,159337,5,8,0:0:0
256,192,159737,1,8,0:0:0
256,192,160004,1,8,0:0:0
256,192,160404,5,0,0:0:0
256,192,161204,1,0,0:0:0
256,192,161470,1,0,0:0:0
256,192,162270,1,0,0:0:0
208,256,162537,1,0,0:0:0
312,320,162937,5,8,0:0:0
208,256,163337,1,8,0:0:0
208,256,163737,1,8,0:0:0
208,256,164404,1,8,0:0:0
208,256,164670,5,0,0:0:0
256,192,165737,5,8,0:0:0
256,192,166804,5,0,0:0:0
256,192,167871,5,8,0:0:0
256,192,168937,5,0,0:0:0
256,192,170004,5,8,0:0:0
256,192,171070,5,0,0:0:0
256,192,172137,5,8,0:0:0
256,192,173204,5,0,0:0:0
256,192,174271,5,8,0:0:0
256,192,175337,5,0,0:0:0
256,192,176404,5,8,0:0:0
256,192,177470,5,0,0:0:0
256,192,178537,5,8,0:0:0
256,192,179604,5,0,0:0:0
256,192,180671,5,8,0:0:0
256,192,181737,5,4,0:0:0
256,192,182270,5,8,0:0:0
256,192,182804,5,0,0:0:0
256,192,183337,5,8,0:0:0
256,192,183871,5,0,0:0:0
256,192,184404,5,8,0:0:0
256,192,184937,5,0,0:0:0
256,192,185470,1,0,0:0:0
256,192,186004,1,4,0:0:0
256,192,186537,5,8,0:0:0
256,192,187071,5,0,0:0:0
256,192,187604,5,8,0:0:0
256,192,188138,5,0,0:0:0
256,192,188671,5,8,0:0:0
256,192,189204,5,0,0:0:0
256,192,189737,1,0,0:0:0
256,192,190270,1,4,0:0:0
256,192,190803,5,8,0:0:0
256,192,191337,5,0,0:0:0
256,192,191870,5,8,0:0:0
256,192,192404,5,0,0:0:0
256,192,192937,5,8,0:0:0
256,192,193470,5,0,0:0:0
256,192,194003,1,0,0:0:0
256,192,194537,1,4,0:0:0
256,192,195070,5,8,0:0:0
256,192,195604,5,0,0:0:0
256,192,196137,5,8,0:0:0
256,192,196671,5,0,0:0:0
256,192,197204,5,8,0:0:0
256,192,197737,5,0,0:0:0
256,192,198804,1,4,0:0:0
256,192,199337,5,8,0:0:0
256,192,199871,5,0,0:0:0
256,192,200404,5,8,0:0:0
256,192,200938,5,0,0:0:0
256,192,201471,5,8,0:0:0
256,192,202004,5,0,0:0:0
256,192,202537,1,0,0:0:0
256,192,203070,1,4,0:0:0
256,192,203603,5,8,0:0:0
256,192,204137,5,0,0:0:0
256,192,204670,5,8,0:0:0
256,192,205204,5,0,0:0:0
256,192,205737,5,8,0:0:0
256,192,206270,5,0,0:0:0
256,192,206803,1,0,0:0:0
256,192,207337,1,4,0:0:0
256,192,207870,5,8,0:0:0
256,192,208404,5,0,0:0:0
256,192,208937,5,8,0:0:0
256,192,209471,5,0,0:0:0
256,192,210004,5,8,0:0:0
256,192,210537,5,0,0:0:0
256,192,211070,1,0,0:0:0
256,192,211604,1,4,0:0:0
256,192,212137,5,8,0:0:0
256,192,212671,5,0,0:0:0
256,192,213204,5,8,0:0:0
256,192,213738,5,0,0:0:0
256,192,214137,5,8,0:0:0
256,192,214537,1,8,0:0:0
256,192,214804,12,0,217070,0:0:0
