osu file format v11

[General]
AudioFilename: weyheyhey !! - Helical Scan -03 I'm Your Daddy.mp3
AudioLeadIn: 0
PreviewTime: 62004
Countdown: 0
SampleSet: Normal
StackLeniency: 0.7
Mode: 1
LetterboxInBreaks: 0

[Editor]
Bookmarks: 6799,62270,130537,162537,181737
DistanceSpacing: 0
BeatDivisor: 4
GridSize: 8

[Metadata]
Title:I'm Your Daddy
TitleUnicode:I'm Your Daddy
Artist:weyheyhey !!
ArtistUnicode:weyheyhey !!
Creator:Loctav
Version:Futsuu
Source:
Tags:Helical Scan Luanny PhNyx [Luanny PhNyx] breakcore jungle [Luanny]
BeatmapID:179232
BeatmapSetID:59859

[Difficulty]
HPDrainRate:3
CircleSize:4
OverallDifficulty:3
ApproachRate:3
SliderMultiplier:1
SliderTickRate:1

[Events]
//Background and Video events
0,0,"bg.jpg"
//Break Periods
//Storyboard Layer 0 (Background)
//Storyboard Layer 1 (Fail)
//Storyboard Layer 2 (Pass)
//Storyboard Layer 3 (Foreground)
Sprite,Foreground,Centre,"loctav.jpg",320,240 M,0,6804,,68,275 S,0,6804,,0.5967999 F,0,6804,6937,0,1 F,0,215870,216004,1,0
//Storyboard Sound Samples
//Background Colour Transformations
3,100,0,0,0

[TimingPoints]
6804,266.666666666667,4,1,0,100,1,0
58004,-100,4,1,0,70,0,0
62270,-100,4,1,0,100,0,1
96404,-100,4,1,0,100,0,0
164670,-100,4,1,0,70,0,0
181737,-100,4,1,0,100,0,1
197737,-100,4,1,0,100,0,0
198804,-100,4,1,0,100,0,1
214804,-100,4,1,0,70,0,0

[Colours]
Combo1 : 5,5,240
Combo2 : 255,0,0

[HitObjects]
256,192,6804,5,0,0:0:0
256,192,7204,1,0,0:0:0
256,192,7604,1,0,0:0:0
256,192,7870,1,0,0:0:0
256,192,8137,1,0,0:0:0
256,192,8404,5,8,0:0:0
256,192,8670,1,8,0:0:0
256,192,8937,5,0,0:0:0
256,192,9337,1,0,0:0:0
256,192,9737,5,8,0:0:0
256,192,10003,5,0,0:0:0
256,192,10270,1,0,0:0:0
256,192,10537,5,8,0:0:0
256,192,10804,1,8,0:0:0
256,192,11070,5,0,0:0:0
256,192,11470,1,0,0:0:0
256,192,11870,5,8,0:0:0
256,192,12136,5,0,0:0:0
256,192,12404,5,8,0:0:0
256,192,12537,1,8,0:0:0
256,192,12804,1,8,0:0:0
256,192,12937,1,8,0:0:0
256,192,13204,5,0,0:0:0
256,192,13604,1,0,0:0:0
256,192,14004,5,8,0:0:0
256,192,14270,5,0,0:0:0
256,192,14537,1,0,0:0:0
256,192,14804,5,8,0:0:0
256,192,15070,1,8,0:0:0
256,192,15337,5,0,0:0:0
256,192,15737,1,0,0:0:0
256,192,16137,5,8,0:0:0
256,192,16403,5,0,0:0:0
256,192,16670,1,0,0:0:0
256,192,16937,5,8,0:0:0
256,192,17204,1,8,0:0:0
256,192,17470,5,0,0:0:0
256,192,17870,1,0,0:0:0
256,192,18270,5,8,0:0:0
256,192,18536,5,4,0:0:0
256,192,18804,1,0,0:0:0
256,192,19070,5,8,0:0:0
256,192,19204,1,8,0:0:0
256,192,19337,1,8,0:0:0
256,192,19604,5,0,0:0:0
256,192,20004,1,0,0:0:0
256,192,20670,1,0,0:0:0
256,192,20937,5,8,0:0:0
256,192,21070,1,8,0:0:0
256,192,21337,5,0,0:0:0
256,192,21470,5,8,0:0:0
256,192,21737,5,0,0:0:0
256,192,22137,1,0,0:0:0
256,192,22537,5,8,0:0:0
256,192,22803,5,0,0:0:0
256,192,23337,5,8,0:0:0
256,192,23870,5,0,0:0:0
256,192,24270,1,0,0:0:0
256,192,24670,1,0,0:0:0
256,192,24937,5,8,0:0:0
256,192,25204,1,8,0:0:0
256,192,25470,2,0,B|464:192,1,200
256,192,26404,5,0,0:0:0
256,192,26804,5,8,0:0:0
256,192,27070,1,8,0:0:0
256,192,27470,1,8,0:0:0
256,192,27870,1,8,0:0:0
256,192,28137,5,0,0:0:0
256,192,28537,1,0,0:0:0
256,192,28937,5,8,0:0:0
256,192,29204,5,0,0:0:0
256,192,29470,1,0,0:0:0
256,192,29737,5,8,0:0:0
256,192,29870,5,0,0:0:0
256,192,30004,5,8,0:0:0
256,192,30270,5,0,0:0:0
256,192,30670,1,0,0:0:0
256,192,31070,5,8,0:0:0
256,192,31337,5,0,0:0:0
256,192,31737,1,0,0:0:0
256,192,32137,5,8,0:0:0
256,192,32404,5,0,0:0:0
256,192,32804,1,0,0:0:0
256,192,33204,5,8,0:0:0
256,192,33471,5,0,0:0:0
256,192,33737,1,0,0:0:0
256,192,34004,5,8,0:0:0
256,192,34270,1,8,0:0:0
256,192,34537,5,0,0:0:0
256,192,34937,1,0,0:0:0
256,192,35337,5,8,0:0:0
256,192,35604,1,8,0:0:0
256,192,36004,1,8,0:0:0
256,192,36404,1,8,0:0:0
256,192,36670,5,0,0:0:0
256,192,37070,1,0,0:0:0
256,192,37337,1,0,0:0:0
256,192,37470,1,0,0:0:0
256,192,37737,5,8,0:0:0
256,192,38004,1,8,0:0:0
256,192,38270,5,0,0:0:0
256,192,38804,1,0,0:0:0
256,192,39204,1,0,0:0:0
256,192,39604,5,8,0:0:0
256,192,39870,5,0,0:0:0
256,192,40270,1,0,0:0:0
256,192,40670,1,0,0:0:0
256,192,40937,1,0,0:0:0
256,192,41337,1,0,0:0:0
256,192,41737,5,8,0:0:0
256,192,42004,5,0,0:0:0
256,192,42404,5,8,0:0:0
256,192,42537,1,8,0:0:0
256,192,43070,5,0,0:0:0
256,192,43470,1,0,0:0:0
256,192,44137,5,8,0:0:0
256,192,44537,1,8,0:0:0
256,192,44804,1,8,0:0:0
256,192,45204,5,0,0:0:0
256,192,45604,1,0,0:0:0
256,192,46271,5,8,0:0:0
256,192,46670,5,0,0:0:0
256,192,46804,1,0,0:0:0
256,192,47337,1,0,0:0:0
256,192,47737,1,0,0:0:0
256,192,48404,5,8,0:0:0
256,192,48804,1,8,0:0:0
256,192,49071,1,8,0:0:0
256,192,49471,5,0,0:0:0
256,192,49871,1,0,0:0:0
256,192,50538,5,8,0:0:0
256,192,50804,5,0,0:0:0
256,192,51070,1,0,0:0:0
256,192,51337,5,8,0:0:0
256,192,51604,5,0,0:0:0
256,192,52004,1,0,0:0:0
256,192,52537,1,0,0:0:0
256,192,52671,5,8,0:0:0
256,192,53071,1,8,0:0:0
256,192,53338,1,8,0:0:0
256,192,53737,5,0,0:0:0
256,192,54004,1,0,0:0:0
256,192,54270,1,0,0:0:0
256,192,54537,5,8,0:0:0
256,192,54804,5,0,0:0:0
256,192,55203,1,0,0:0:0
256,192,55870,5,8,0:0:0
256,192,56270,5,0,0:0:0
256,192,56937,1,0,0:0:0
256,192,57337,5,8,0:0:0
256,192,57604,1,8,0:0:0
256,192,58004,5,0,0:0:0
256,192,59070,1,0,0:0:0
256,192,60137,1,0,0:0:0
256,192,61204,1,0,0:0:0
256,192,62270,1,0,0:0:0
256,192,62537,5,8,0:0:0
256,192,62670,5,0,0:0:0
256,192,62937,5,8,0:0:0
256,192,63070,1,8,0:0:0
256,192,63336,5,0,0:0:0
256,192,63604,1,0,0:0:0
256,192,63870,5,8,0:0:0
256,192,64137,1,8,0:0:0
256,192,64403,5,0,0:0:0
256,192,64670,5,8,0:0:0
256,192,64803,5,0,0:0:0
256,192,65071,5,8,0:0:0
256,192,65204,5,0,0:0:0
256,192,65470,1,0,0:0:0
256,192,65737,1,0,0:0:0
256,192,66003,5,8,0:0:0
256,192,66270,1,8,0:0:0
256,192,66537,5,0,0:0:0
256,192,66804,5,8,0:0:0
256,192,66937,5,0,0:0:0
256,192,67204,5,8,0:0:0
256,192,67337,1,8,0:0:0
256,192,67603,5,0,0:0:0
256,192,67871,1,0,0:0:0
256,192,68137,5,8,0:0:0
256,192,68404,1,8,0:0:0
256,192,68670,5,0,0:0:0
256,192,68937,5,8,0:0:0
256,192,69070,5,0,0:0:0
256,192,69337,5,8,0:0:0
256,192,69470,5,0,0:0:0
256,192,69737,1,0,0:0:0
256,192,70004,12,0,70537,0:0:0
256,192,70804,5,0,0:0:0
256,192,71070,1,8,0:0:0
256,192,71204,5,0,0:0:0
256,192,71470,5,8,0:0:0
256,192,71604,1,8,0:0:0
256,192,71870,5,0,0:0:0
256,192,72138,1,0,0:0:0
256,192,72404,5,8,0:0:0
256,192,72670,1,8,0:0:0
256,192,72937,5,0,0:0:0
256,192,73204,5,8,0:0:0
256,192,73337,5,0,0:0:0
256,192,73604,5,8,0:0:0
256,192,73737,5,0,0:0:0
256,192,74003,1,0,0:0:0
256,192,74271,1,0,0:0:0
256,192,74537,5,8,0:0:0
256,192,74804,1,8,0:0:0
256,192,75070,5,0,0:0:0
256,192,75337,5,8,0:0:0
256,192,75470,5,0,0:0:0
256,192,75737,5,8,0:0:0
256,192,75870,1,8,0:0:0
256,192,76136,5,0,0:0:0
256,192,76404,1,0,0:0:0
256,192,76670,5,8,0:0:0
256,192,76937,1,8,0:0:0
256,192,77203,5,0,0:0:0
256,192,77470,5,8,0:0:0
256,192,77603,5,0,0:0:0
256,192,77870,5,8,0:0:0
256,192,78003,5,0,0:0:0
256,192,78269,1,0,0:0:0
256,192,78537,1,0,0:0:0
256,192,78803,5,8,0:0:0
256,192,79070,1,8,0:0:0
256,192,79337,5,0,0:0:0
256,192,79604,1,0,0:0:0
256,192,79870,1,0,0:0:0
256,192,80137,2,0,B|320:192,8,50
256,192,81470,1,0,0:0:0
256,192,81737,1,0,0:0:0
256,192,82004,1,0,0:0:0
256,192,82270,12,0,83337,0:0:0
256,192,83604,5,4,0:0:0
256,192,83870,5,0,0:0:0
256,192,84137,1,0,0:0:0
256,192,84404,2,0,B|320:192,8,50
256,192,85737,1,4,0:0:0
256,192,86004,1,0,0:0:0
256,192,86270,1,0,0:0:0
256,192,86537,12,0,87604,0:0:0
256,192,87870,5,4,0:0:0
256,192,88137,5,0,0:0:0
256,192,88404,1,0,0:0:0
256,192,88937,5,8,0:0:0
256,192,89070,5,0,0:0:0
256,192,89204,5,8,0:0:0
256,192,89470,1,8,0:0:0
256,192,89604,5,0,0:0:0
256,192,89737,5,8,0:0:0
256,192,90004,5,4,0:0:0
256,192,90270,1,0,0:0:0
256,192,90537,1,0,0:0:0
256,192,91070,5,8,0:0:0
256,192,91204,1,8,0:0:0
256,192,91337,1,8,0:0:0
256,192,91604,1,8,0:0:0
256,192,91737,1,8,0:0:0
256,192,91870,1,8,0:0:0
256,192,92137,5,0,0:0:0
256,192,92404,1,0,0:0:0
256,192,92670,5,8,0:0:0
256,192,92804,5,0,0:0:0
256,192,92937,5,8,0:0:0
256,192,93204,1,8,0:0:0
256,192,93337,1,8,0:0:0
256,192,93470,1,8,0:0:0
256,192,93737,5,0,0:0:0
256,192,94004,5,8,0:0:0
256,192,94270,5,0,0:0:0
256,192,94537,5,8,0:0:0
256,192,94670,1,8,0:0:0
256,192,94804,1,8,0:0:0
256,192,95204,5,0,0:0:0
256,192,95604,1,0,0:0:0
256,192,96404,1,0,0:0:0
256,192,96670,5,8,0:0:0
256,192,96937,5,0,0:0:0
256,192,97204,5,8,0:0:0
256,192,97470,5,0,0:0:0
256,192,97737,5,8,0:0:0
256,192,98004,5,0,0:0:0
256,192,98270,5,8,0:0:0
256,192,98537,5,0,0:0:0
256,192,98804,1,0,0:0:0
256,192,99070,5,8,0:0:0
256,192,99337,1,8,0:0:0
256,192,99604,1,8,0:0:0
256,192,99737,5,0,0:0:0
256,192,99870,5,8,0:0:0
256,192,100137,1,8,0:0:0
256,192,100670,5,0,0:0:0
256,192,100936,5,8,0:0:0
256,192,101203,5,0,0:0:0
256,192,101470,5,8,0:0:0
256,192,101736,5,0,0:0:0
256,192,102003,5,8,0:0:0
256,192,102270,5,0,0:0:0
256,192,102536,5,8,0:0:0
256,192,102803,5,0,0:0:0
256,192,103070,5,8,0:0:0
256,192,103336,5,0,0:0:0
256,192,103603,5,8,0:0:0
256,192,103870,1,8,0:0:0
256,192,104003,5,0,0:0:0
256,192,104136,5,8,0:0:0
256,192,104403,1,8,0:0:0
256,192,104937,1,8,0:0:0
256,192,105203,5,0,0:0:0
256,192,105470,5,8,0:0:0
256,192,105737,1,8,0:0:0
256,192,106003,1,8,0:0:0
256,192,106270,5,0,0:0:0
256,192,106537,5,8,0:0:0
256,192,106803,1,8,0:0:0
256,192,107070,1,8,0:0:0
256,192,107337,5,0,0:0:0
256,192,107604,5,8,0:0:0
256,192,107870,1,8,0:0:0
256,192,108137,1,8,0:0:0
256,192,108270,5,0,0:0:0
256,192,108403,5,8,0:0:0
256,192,108670,1,8,0:0:0
256,192,109204,5,0,0:0:0
256,192,109470,5,8,0:0:0
256,192,109737,5,0,0:0:0
256,192,110004,1,0,0:0:0
256,192,110270,1,0,0:0:0
256,192,110537,5,8,0:0:0
256,192,110804,5,0,0:0:0
256,192,111070,1,0,0:0:0
256,192,111337,1,0,0:0:0
256,192,111604,5,8,0:0:0
256,192,111870,5,0,0:0:0
256,192,112137,1,0,0:0:0
256,192,112404,5,8,0:0:0
256,192,112537,5,0,0:0:0
256,192,112670,5,8,0:0:0
256,192,112937,1,8,0:0:0
256,192,113470,5,0,0:0:0
256,192,113736,5,8,0:0:0
256,192,114003,5,0,0:0:0
256,192,114270,5,8,0:0:0
256,192,114536,5,0,0:0:0
256,192,114803,1,0,0:0:0
256,192,115070,5,8,0:0:0
256,192,115337,1,8,0:0:0
256,192,115604,5,0,0:0:0
256,192,115870,5,8,0:0:0
256,192,116136,5,0,0:0:0
256,192,116403,5,8,0:0:0
256,192,116670,1,8,0:0:0
256,192,116803,5,0,0:0:0
256,192,116936,5,8,0:0:0
256,192,117203,1,8,0:0:0
256,192,117737,1,8,0:0:0
256,192,118003,5,0,0:0:0
256,192,118270,5,8,0:0:0
256,192,118537,5,0,0:0:0
256,192,118803,5,8,0:0:0
256,192,119070,1,8,0:0:0
256,192,119337,5,0,0:0:0
256,192,119603,5,8,0:0:0
256,192,119870,1,8,0:0:0
256,192,120137,5,0,0:0:0
256,192,120403,5,8,0:0:0
256,192,120670,5,0,0:0:0
256,192,120937,5,8,0:0:0
256,192,121070,5,0,0:0:0
256,192,121203,5,8,0:0:0
256,192,121470,1,8,0:0:0
256,192,122004,5,0,0:0:0
256,192,122270,5,8,0:0:0
256,192,122537,5,0,0:0:0
256,192,122804,5,8,0:0:0
256,192,123070,5,0,0:0:0
256,192,123337,5,8,0:0:0
256,192,123604,5,0,0:0:0
256,192,123870,5,8,0:0:0
256,192,124137,5,0,0:0:0
256,192,124404,5,8,0:0:0
256,192,124670,5,0,0:0:0
256,192,124937,5,8,0:0:0
256,192,125204,1,8,0:0:0
256,192,125337,5,0,0:0:0
256,192,125470,5,8,0:0:0
256,192,125737,1,8,0:0:0
256,192,126270,1,8,0:0:0
256,192,126536,5,0,0:0:0
256,192,126803,5,8,0:0:0
256,192,127070,5,0,0:0:0
256,192,127336,5,8,0:0:0
256,192,127603,5,0,0:0:0
256,192,127870,5,8,0:0:0
256,192,128137,1,8,0:0:0
256,192,128403,1,8,0:0:0
256,192,128670,5,0,0:0:0
256,192,128936,5,8,0:0:0
256,192,129203,5,0,0:0:0
256,192,129470,5,8,0:0:0
256,192,130537,5,0,0:0:0
256,192,130804,5,8,0:0:0
256,192,130937,5,0,0:0:0
256,192,131204,5,8,0:0:0
256,192,131337,1,8,0:0:0
256,192,131604,5,0,0:0:0
256,192,131870,5,8,0:0:0
256,192,132004,5,0,0:0:0
256,192,132270,5,8,0:0:0
256,192,132404,1,8,0:0:0
256,192,132670,5,0,0:0:0
256,192,132937,5,8,0:0:0
256,192,133070,5,0,0:0:0
256,192,133337,5,8,0:0:0
256,192,133470,1,8,0:0:0
256,192,133737,5,0,0:0:0
256,192,134004,5,8,0:0:0
256,192,134270,1,8,0:0:0
256,192,134404,5,0,0:0:0
256,192,134537,5,8,0:0:0
256,192,134804,5,0,0:0:0
256,192,135070,5,8,0:0:0
256,192,135204,5,0,0:0:0
256,192,135470,5,8,0:0:0
256,192,135604,1,8,0:0:0
256,192,135870,5,0,0:0:0
256,192,136137,5,8,0:0:0
256,192,136270,5,0,0:0:0
256,192,136537,5,8,0:0:0
256,192,136670,1,8,0:0:0
256,192,136937,5,0,0:0:0
256,192,137204,5,8,0:0:0
256,192,137337,5,0,0:0:0
256,192,137604,5,8,0:0:0
256,192,137737,1,8,0:0:0
256,192,138004,1,8,0:0:0
256,192,138804,1,8,0:0:0
256,192,139070,5,0,0:0:0
256,192,139337,5,8,0:0:0
256,192,139470,5,0,0:0:0
256,192,139737,5,8,0:0:0
256,192,139870,1,8,0:0:0
256,192,140137,5,0,0:0:0
256,192,140404,5,8,0:0:0
256,192,140537,5,0,0:0:0
256,192,140804,5,8,0:0:0
256,192,140937,1,8,0:0:0
256,192,141204,5,0,0:0:0
256,192,141470,5,8,0:0:0
256,192,141604,5,0,0:0:0
256,192,141870,5,8,0:0:0
256,192,142004,1,8,0:0:0
256,192,142270,5,0,0:0:0
256,192,143070,1,0,0:0:0
256,192,143337,1,0,0:0:0
256,192,143604,5,8,0:0:0
256,192,143737,5,0,0:0:0
256,192,144004,5,8,0:0:0
256,192,144137,1,8,0:0:0
256,192,144404,5,0,0:0:0
256,192,144670,5,8,0:0:0
256,192,144804,5,0,0:0:0
256,192,144937,5,8,0:0:0
256,192,145204,1,8,0:0:0
256,192,145470,5,0,0:0:0
256,192,145737,5,8,0:0:0
256,192,145870,5,0,0:0:0
256,192,146137,5,8,0:0:0
256,192,146270,1,8,0:0:0
256,192,146537,5,0,0:0:0
256,192,146670,5,8,0:0:0
256,192,146937,1,8,0:0:0
256,192,147204,1,8,0:0:0
256,192,147337,1,8,0:0:0
256,192,147604,5,0,0:0:0
256,192,147870,5,8,0:0:0
256,192,148004,5,0,0:0:0
256,192,148270,5,8,0:0:0
256,192,148404,1,8,0:0:0
256,192,148670,5,0,0:0:0
256,192,148937,5,8,0:0:0
256,192,149070,5,0,0:0:0
256,192,149337,5,8,0:0:0
256,192,149470,1,8,0:0:0
256,192,149737,5,0,0:0:0
256,192,150004,5,8,0:0:0
256,192,150137,5,0,0:0:0
256,192,150404,5,8,0:0:0
256,192,150537,1,8,0:0:0
256,192,150804,1,12,0:0:0
256,192,151204,1,12,0:0:0
256,192,151604,1,12,0:0:0
256,192,151870,5,0,0:0:0
256,192,152137,5,8,0:0:0
256,192,152270,5,0,0:0:0
256,192,152537,5,8,0:0:0
256,192,152670,1,8,0:0:0
256,192,152937,5,0,0:0:0
256,192,153204,5,8,0:0:0
256,192,153337,5,0,0:0:0
256,192,153604,5,8,0:0:0
256,192,153737,1,8,0:0:0
256,192,154004,5,0,0:0:0
256,192,154271,5,8,0:0:0
256,192,154404,5,0,0:0:0
256,192,154671,5,8,0:0:0
256,192,154804,1,8,0:0:0
256,192,155071,5,0,0:0:0
256,192,155337,12,0,155870,0:0:0
256,192,156137,5,0,0:0:0
256,192,156404,1,8,0:0:0
256,192,156537,5,0,0:0:0
256,192,156804,5,8,0:0:0
256,192,156937,1,8,0:0:0
256,192,157204,5,0,0:0:0
256,192,157471,5,8,0:0:0
256,192,157604,5,0,0:0:0
256,192,157871,5,8,0:0:0
256,192,158004,5,0,0:0:0
256,192,158137,5,8,0:0:0
256,192,158270,5,0,0:0:0
256,192,158537,5,8,0:0:0
256,192,158670,5,0,0:0:0
256,192,158937,5,8,0:0:0
256,192,159070,1,8,0:0:0
256,192,159337,1,12,0:0:0
256,192,159737,1,12,0:0:0
256,192,160004,1,12,0:0:0
256,192,160404,5,0,0:0:0
256,192,160671,5,8,0:0:0
256,192,160804,5,0,0:0:0
256,192,161071,5,8,0:0:0
256,192,161204,1,8,0:0:0
256,192,161470,5,0,0:0:0
256,192,161737,5,8,0:0:0
256,192,161870,5,0,0:0:0
256,192,162270,5,8,0:0:0
256,192,162537,5,0,0:0:0
256,192,162937,5,8,0:0:0
256,192,163337,1,8,0:0:0
256,192,163737,1,8,0:0:0
256,192,164004,1,8,0:0:0
256,192,164137,1,8,0:0:0
256,192,164404,1,8,0:0:0
256,192,164670,5,0,0:0:0
256,192,165737,5,8,0:0:0
256,192,165870,5,0,0:0:0
256,192,166137,5,8,0:0:0
256,192,166270,5,0,0:0:0
256,192,166537,5,8,0:0:0
256,192,166804,5,0,0:0:0
256,192,167871,5,8,0:0:0
256,192,168004,5,0,0:0:0
256,192,168271,5,8,0:0:0
256,192,168404,5,0,0:0:0
256,192,168671,5,8,0:0:0
256,192,168937,5,0,0:0:0
256,192,170004,5,8,0:0:0
256,192,170137,5,0,0:0:0
256,192,170404,5,8,0:0:0
256,192,170537,5,0,0:0:0
256,192,170804,5,8,0:0:0
256,192,171070,5,0,0:0:0
256,192,172137,5,8,0:0:0
256,192,172270,5,0,0:0:0
256,192,172537,5,8,0:0:0
256,192,172670,5,0,0:0:0
256,192,172937,5,8,0:0:0
256,192,173204,5,0,0:0:0
256,192,174271,5,8,0:0:0
256,192,174404,5,0,0:0:0
256,192,174671,5,8,0:0:0
256,192,174804,5,0,0:0:0
256,192,175071,5,8,0:0:0
256,192,175337,5,0,0:0:0
256,192,176404,5,8,0:0:0
256,192,176537,5,0,0:0:0
256,192,176804,5,8,0:0:0
256,192,176937,5,0,0:0:0
256,192,177204,5,8,0:0:0
256,192,177470,5,0,0:0:0
256,192,178537,5,8,0:0:0
256,192,178670,5,0,0:0:0
256,192,178937,5,8,0:0:0
256,192,179070,5,0,0:0:0
256,192,179337,5,8,0:0:0
256,192,179604,5,0,0:0:0
256,192,180670,12,0,181470,0:0:0
256,200,181737,5,0,0:0:0
256,200,182004,1,8,0:0:0
256,200,182137,5,0,0:0:0
256,200,182270,5,8,0:0:0
256,200,182537,1,8,0:0:0
256,200,182670,1,8,0:0:0
256,200,182804,5,0,0:0:0
256,200,183070,5,8,0:0:0
256,200,183337,1,8,0:0:0
256,200,183604,1,8,0:0:0
256,200,183870,5,0,0:0:0
256,200,184137,5,8,0:0:0
256,200,184270,5,0,0:0:0
256,200,184404,5,8,0:0:0
256,200,184670,1,8,0:0:0
256,200,184804,1,8,0:0:0
256,200,184937,5,0,0:0:0
256,200,185204,5,8,0:0:0
256,200,185470,5,0,0:0:0
256,200,186004,1,0,0:0:0
256,200,186270,5,8,0:0:0
256,200,186404,5,0,0:0:0
256,200,186537,5,8,0:0:0
256,200,186804,5,0,0:0:0
256,200,186937,5,8,0:0:0
256,200,187070,5,0,0:0:0
256,200,187337,5,8,0:0:0
256,200,187870,1,8,0:0:0
256,200,188137,5,0,0:0:0
256,200,188403,5,8,0:0:0
256,200,188537,5,0,0:0:0
256,200,188670,5,8,0:0:0
256,200,188937,5,0,0:0:0
256,200,189070,5,8,0:0:0
256,200,189203,5,0,0:0:0
256,200,189470,5,8,0:0:0
256,200,189737,5,0,0:0:0
256,200,190003,5,8,0:0:0
256,200,190137,1,8,0:0:0
256,200,190270,5,0,0:0:0
256,200,190536,5,8,0:0:0
256,200,190670,5,0,0:0:0
256,200,190803,5,8,0:0:0
256,200,191070,5,0,0:0:0
256,200,191203,5,8,0:0:0
256,200,191336,5,0,0:0:0
256,200,191603,5,8,0:0:0
256,200,192136,1,8,0:0:0
256,200,192404,5,0,0:0:0
256,200,192670,5,8,0:0:0
256,200,192804,5,0,0:0:0
256,200,192937,5,8,0:0:0
256,200,193204,5,0,0:0:0
256,200,193470,1,0,0:0:0
256,200,193737,5,8,0:0:0
256,200,194004,1,8,0:0:0
256,200,194270,1,8,0:0:0
256,200,194537,5,0,0:0:0
256,200,194803,5,8,0:0:0
256,200,194937,5,0,0:0:0
256,200,195070,5,8,0:0:0
256,200,195337,5,0,0:0:0
256,200,195470,5,8,0:0:0
256,200,195603,5,0,0:0:0
256,200,195870,5,8,0:0:0
256,200,196403,1,8,0:0:0
256,200,196670,5,0,0:0:0
256,200,196937,5,8,0:0:0
256,200,197070,5,0,0:0:0
256,200,197204,5,8,0:0:0
256,200,197470,1,8,0:0:0
256,192,197737,12,0,198537,0:0:0
256,200,198804,5,0,0:0:0
256,200,199070,5,8,0:0:0
256,200,199204,5,0,0:0:0
256,200,199337,5,8,0:0:0
256,200,199604,5,0,0:0:0
256,200,199870,1,0,0:0:0
256,200,200137,5,8,0:0:0
256,200,200270,1,8,0:0:0
256,200,200404,5,0,0:0:0
256,200,200670,5,8,0:0:0
256,200,200937,5,0,0:0:0
256,200,201203,5,8,0:0:0
256,200,201337,5,0,0:0:0
256,200,201470,5,8,0:0:0
256,200,201737,5,0,0:0:0
256,200,201870,5,8,0:0:0
256,200,202003,5,0,0:0:0
256,200,202270,5,8,0:0:0
256,200,202537,1,8,0:0:0
256,200,203070,5,0,0:0:0
256,200,203336,5,8,0:0:0
256,200,203470,5,0,0:0:0
256,200,203603,5,8,0:0:0
256,200,203870,5,0,0:0:0
256,200,204003,5,8,0:0:0
256,200,204136,5,0,0:0:0
256,200,204403,5,8,0:0:0
256,200,204670,5,0,0:0:0
256,200,204937,5,8,0:0:0
256,200,205204,5,0,0:0:0
256,200,205470,5,8,0:0:0
256,200,205604,5,0,0:0:0
256,200,205737,5,8,0:0:0
256,200,206004,5,0,0:0:0
256,200,206137,5,8,0:0:0
256,200,206270,5,0,0:0:0
256,200,206537,5,8,0:0:0
256,200,206804,1,8,0:0:0
256,200,207337,5,0,0:0:0
256,200,207603,5,8,0:0:0
256,200,207737,5,0,0:0:0
256,200,207870,5,8,0:0:0
256,200,208137,5,0,0:0:0
256,200,208270,5,8,0:0:0
256,200,208403,5,0,0:0:0
256,200,208670,5,8,0:0:0
256,200,208937,1,8,0:0:0
256,200,209070,1,8,0:0:0
256,200,209203,1,8,0:0:0
256,200,209470,5,0,0:0:0
256,200,209736,5,8,0:0:0
256,200,209870,5,0,0:0:0
256,200,210003,5,8,0:0:0
256,200,210270,1,8,0:0:0
256,200,210536,5,0,0:0:0
256,200,210803,1,0,0:0:0
256,200,211070,5,8,0:0:0
256,200,211336,1,8,0:0:0
256,200,211604,5,0,0:0:0
256,200,211870,5,8,0:0:0
256,200,212004,5,0,0:0:0
256,200,212137,5,8,0:0:0
256,200,212404,5,0,0:0:0
256,200,212537,5,8,0:0:0
256,200,212670,5,0,0:0:0
256,200,212937,5,8,0:0:0
256,200,213470,1,8,0:0:0
256,200,213737,5,0,0:0:0
256,200,214004,5,8,0:0:0
256,200,214137,5,0,0:0:0
256,200,214270,5,8,0:0:0
256,200,214537,1,8,0:0:0
256,192,214804,12,8,217070,0:0:0
