osu file format v10

[General]
AudioFilename: weyheyhey !! - Helical Scan -03 I'm Your Daddy.mp3
AudioLeadIn: 0
PreviewTime: 62004
Countdown: 0
SampleSet: Normal
StackLeniency: 0.7
Mode: 1
LetterboxInBreaks: 0

[Editor]
Bookmarks: 6804,23870,40937,58004,62270,79337,96404,113470,130537,147604,164670,181737,198804,215870
DistanceSpacing: 1.2
BeatDivisor: 4
GridSize: 32

[Metadata]
Title:I'm Your Daddy
TitleUnicode:I'm Your Daddy
Artist:weyheyhey !!
ArtistUnicode:weyheyhey !!
Creator:Loctav
Version:Fatal Oni
Source:
Tags:Helical Scan Luanny PhNyx [Luanny PhNyx] breakcore jungle [Luanny]
BeatmapID:179231
BeatmapSetID:59859

[Difficulty]
HPDrainRate:5
CircleSize:7
OverallDifficulty:6
ApproachRate:10
SliderMultiplier:1.4
SliderTickRate:1

[Events]
//Background and Video events
0,0,"bg.jpg"
//Break Periods
//Storyboard Layer 0 (Background)
//Storyboard Layer 1 (Fail)
//Storyboard Layer 2 (Pass)
//Storyboard Layer 3 (Foreground)
Sprite,Foreground,Centre,"luanny.jpg",320,240 M,0,6804,,68,275 S,0,6804,,0.5967999 F,0,6804,6937,0,1 F,0,23737,23870,1,0 F,0,40937,41070,0,1 F,0,62137,62270,1,0 F,0,79337,79470,0.0150376,1 F,0,96270,96404,1,0 F,0,113470,113604,0,1 F,0,130404,130537,1,0 F,0,147604,147737,0,1 F,0,164537,164670,0.9548872,0 F,0,181737,181870,0,1 F,0,198670,198804,1,0
Sprite,Foreground,Centre,"loctav.jpg",320,240 M,0,6804,,68,275 S,0,6804,,0.5967999 F,0,23870,24004,0,1 F,0,40804,40937,0.9328358,0 F,0,62270,62404,0,1 F,0,79204,79337,0.9552239,0 F,0,96404,96537,0,1 F,0,113337,113470,0.9323308,0 F,0,130537,130670,0.06309004,1 F,0,147470,147604,0.9647778,0 F,0,164670,164804,0,1 F,0,181604,181737,1,0 F,0,198804,198937,0,1 F,0,216937,217070,1,0
//Storyboard Sound Samples
//Background Colour Transformations
3,100,0,0,0

[TimingPoints]
6804,266.666666666667,4,1,0,100,1,0
57604,-111.111111111111,4,1,0,70,0,0
57737,-116.279069767442,4,1,0,70,0,0
57870,-120.481927710843,4,1,0,70,0,0
58004,-125,4,1,0,70,0,0
62270,-100,4,1,0,100,0,1
96404,-100,4,1,0,100,0,0
163604,-102.040816326531,4,1,0,100,0,0
163737,-104.166666666667,4,1,0,100,0,0
163870,-106.382978723404,4,1,0,100,0,0
164004,-108.695652173913,4,1,0,70,0,0
164137,-111.111111111111,4,1,0,70,0,0
164270,-113.636363636364,4,1,0,70,0,0
164404,-116.279069767442,4,1,0,70,0,0
164537,-121.951219512195,4,1,0,70,0,0
164937,-125,4,1,0,70,0,0
181737,-86.9565217391304,4,1,0,100,0,1
197337,-88.4955752212389,4,1,0,100,0,1
197470,-90.9090909090909,4,1,0,100,0,1
197604,-95.2380952380952,4,1,0,100,0,1
197737,-100,4,1,0,100,0,0
198804,-86.9565217391304,4,1,0,100,0,1
214804,-100,4,1,0,70,0,0

[Colours]
Combo1 : 5,5,240
Combo2 : 255,0,0

[HitObjects]
256,192,6804,5,0,0:0:0
256,192,6937,1,8,0:0:0
256,192,7004,1,8,0:0:0
256,192,7070,1,8,0:0:0
256,192,7204,1,0,0:0:0
256,192,7337,1,0,0:0:0
256,192,7470,1,8,0:0:0
256,192,7604,1,8,0:0:0
256,192,7648,1,8,0:0:0
256,192,7692,1,8,0:0:0
256,192,7737,1,0,0:0:0
256,192,7870,1,0,0:0:0
256,192,8004,1,8,0:0:0
256,192,8070,1,8,0:0:0
256,192,8137,1,0,0:0:0
256,192,8204,1,0,0:0:0
256,192,8270,1,8,0:0:0
256,192,8404,1,8,0:0:0
256,192,8537,1,8,0:0:0
256,192,8670,1,0,0:0:0
256,192,8804,1,8,0:0:0
256,192,8937,1,0,0:0:0
256,192,9070,1,8,0:0:0
256,192,9137,1,8,0:0:0
256,192,9204,1,8,0:0:0
256,192,9270,1,8,0:0:0
256,192,9337,1,0,0:0:0
256,192,9470,1,0,0:0:0
256,192,9604,2,0,B|256:256,4,35
256,192,10004,1,0,0:0:0
256,192,10137,1,8,0:0:0
256,192,10181,1,8,0:0:0
256,192,10226,1,8,0:0:0
256,192,10270,1,0,0:0:0
256,192,10404,1,0,0:0:0
256,192,10470,1,0,0:0:0
256,192,10537,1,8,0:0:0
256,192,10670,1,8,0:0:0
256,192,10804,1,8,0:0:0
256,192,10870,1,0,0:0:0
256,192,10937,1,8,0:0:0
256,192,11004,1,8,0:0:0
256,192,11070,1,0,0:0:0
256,192,11204,1,8,0:0:0
256,192,11270,1,0,0:0:0
256,192,11337,1,8,0:0:0
256,192,11470,1,0,0:0:0
256,192,11604,1,0,0:0:0
256,192,11670,1,8,0:0:0
256,192,11737,1,8,0:0:0
256,192,11804,1,8,0:0:0
256,192,11870,1,0,0:0:0
256,192,12137,1,0,0:0:0
256,192,12270,1,0,0:0:0
256,192,12315,1,0,0:0:0
256,192,12359,1,0,0:0:0
256,192,12404,1,8,0:0:0
256,192,12537,1,0,0:0:0
256,192,12670,1,8,0:0:0
256,192,12804,1,8,0:0:0
256,192,12870,1,8,0:0:0
256,192,12937,1,0,0:0:0
256,192,13004,1,0,0:0:0
256,192,13070,1,8,0:0:0
256,192,13204,1,0,0:0:0
256,192,13337,1,8,0:0:0
256,192,13404,1,8,0:0:0
256,192,13470,1,8,0:0:0
256,192,13604,1,0,0:0:0
256,192,13737,1,8,0:0:0
256,192,14004,1,8,0:0:0
256,192,14070,1,8,0:0:0
256,192,14137,1,0,0:0:0
256,192,14270,1,0,0:0:0
256,192,14404,1,8,0:0:0
256,192,14448,1,8,0:0:0
256,192,14492,1,8,0:0:0
256,192,14537,1,0,0:0:0
256,192,14604,1,0,0:0:0
256,192,14670,1,0,0:0:0
256,192,14737,1,0,0:0:0
256,192,14804,1,8,0:0:0
256,192,14870,1,8,0:0:0
256,192,14937,1,8,0:0:0
256,192,15004,1,8,0:0:0
256,192,15070,1,0,0:0:0
256,192,15137,1,8,0:0:0
256,192,15204,1,0,0:0:0
256,192,15270,1,8,0:0:0
256,192,15337,1,0,0:0:0
256,192,15604,1,8,0:0:0
256,192,15737,1,0,0:0:0
256,192,15870,1,0,0:0:0
256,192,15937,1,0,0:0:0
256,192,16004,1,8,0:0:0
256,192,16070,1,0,0:0:0
256,192,16137,1,8,0:0:0
256,192,16204,1,8,0:0:0
256,192,16270,1,8,0:0:0
256,192,16337,1,8,0:0:0
256,192,16404,1,0,0:0:0
256,192,16537,1,8,0:0:0
256,192,16670,1,0,0:0:0
256,192,16804,1,0,0:0:0
256,192,16937,1,8,0:0:0
256,192,17070,1,8,0:0:0
256,192,17137,1,8,0:0:0
256,192,17204,1,8,0:0:0
256,192,17337,1,8,0:0:0
256,192,17470,1,0,0:0:0
256,192,17604,1,8,0:0:0
256,192,17737,1,8,0:0:0
256,192,17804,1,8,0:0:0
256,192,17870,1,0,0:0:0
256,192,17937,1,0,0:0:0
256,192,18004,1,8,0:0:0
256,192,18137,1,8,0:0:0
256,192,18204,1,0,0:0:0
256,192,18270,1,8,0:0:0
256,192,18337,1,8,0:0:0
256,192,18404,1,0,0:0:0
256,192,18537,1,0,0:0:0
256,192,18670,1,0,0:0:0
256,192,18737,1,0,0:0:0
256,192,18804,1,8,0:0:0
256,192,18937,1,0,0:0:0
256,192,19070,1,8,0:0:0
256,192,19204,2,0,B|256:256,4,35
256,192,19604,1,0,0:0:0
256,192,19670,1,0,0:0:0
256,192,19737,1,8,0:0:0
256,192,19870,1,0,0:0:0
256,192,20004,1,0,0:0:0
256,192,20137,1,8,0:0:0
256,192,20204,1,0,0:0:0
256,192,20270,1,8,0:0:0
256,192,20337,1,0,0:0:0
256,192,20404,1,8,0:0:0
256,192,20470,1,8,0:0:0
256,192,20537,1,8,0:0:0
256,192,20604,1,8,0:0:0
256,192,20670,1,0,0:0:0
256,192,20737,1,0,0:0:0
256,192,20804,1,8,0:0:0
256,192,20870,1,0,0:0:0
256,192,20937,1,0,0:0:0
256,192,21070,1,0,0:0:0
256,192,21204,1,8,0:0:0
256,192,21337,1,0,0:0:0
256,192,21470,1,0,0:0:0
256,192,21537,1,0,0:0:0
256,192,21604,1,8,0:0:0
256,192,21648,1,8,0:0:0
256,192,21692,1,8,0:0:0
256,192,21737,1,0,0:0:0
256,192,21870,1,0,0:0:0
256,192,21937,1,0,0:0:0
256,192,22004,1,8,0:0:0
256,192,22070,1,8,0:0:0
256,192,22137,1,0,0:0:0
256,192,22270,1,8,0:0:0
256,192,22315,1,8,0:0:0
256,192,22359,1,8,0:0:0
256,192,22404,1,0,0:0:0
256,192,22537,1,0,0:0:0
256,192,22670,1,0,0:0:0
256,192,22804,1,0,0:0:0
256,192,22937,1,8,0:0:0
256,192,23004,1,8,0:0:0
256,192,23070,1,8,0:0:0
256,192,23137,1,8,0:0:0
256,192,23204,1,8,0:0:0
256,192,23337,1,0,0:0:0
256,192,23470,1,8,0:0:0
256,192,23537,1,8,0:0:0
256,192,23604,1,8,0:0:0
256,192,23870,1,4,0:0:0
256,192,24004,1,0,0:0:0
256,192,24070,1,0,0:0:0
256,192,24137,5,8,0:0:0
256,192,24270,5,0,0:0:0
256,192,24404,5,8,0:0:0
256,192,24448,1,8,0:0:0
256,192,24492,1,8,0:0:0
256,192,24537,1,8,0:0:0
256,192,24670,5,0,0:0:0
256,192,24804,5,8,0:0:0
256,192,24870,1,8,0:0:0
256,192,24937,5,0,0:0:0
256,192,25070,1,0,0:0:0
256,192,25204,5,8,0:0:0
256,192,25270,5,0,0:0:0
256,192,25337,5,8,0:0:0
256,192,25404,5,0,0:0:0
256,192,25470,5,8,0:0:0
256,192,25515,1,8,0:0:0
256,192,25559,1,8,0:0:0
256,192,25604,5,0,0:0:0
256,192,25737,5,8,0:0:0
256,192,25804,1,8,0:0:0
256,192,25870,1,8,0:0:0
256,192,25937,1,8,0:0:0
256,192,26004,5,0,0:0:0
256,192,26137,1,0,0:0:0
256,192,26204,5,8,0:0:0
256,192,26270,5,0,0:0:0
256,192,26337,1,0,0:0:0
256,192,26404,5,8,0:0:0
256,192,26470,5,0,0:0:0
256,192,26537,5,8,0:0:0
256,192,26604,1,8,0:0:0
256,192,26670,5,0,0:0:0
256,192,26804,5,8,0:0:0
256,192,26937,5,0,0:0:0
256,192,27070,1,4,0:0:0
256,192,27337,5,8,0:0:0
256,192,27470,5,4,0:0:0
256,192,27737,5,8,0:0:0
256,192,27870,5,4,0:0:0
256,192,28004,5,8,0:0:0
256,192,28137,5,4,0:0:0
256,192,28270,1,0,0:0:0
256,192,28337,1,0,0:0:0
256,192,28404,5,8,0:0:0
256,192,28537,1,8,0:0:0
256,192,28670,1,8,0:0:0
256,192,28715,1,8,0:0:0
256,192,28759,1,8,0:0:0
256,192,28804,1,8,0:0:0
256,192,28937,1,8,0:0:0
256,192,29070,5,0,0:0:0
256,192,29204,5,8,0:0:0
256,192,29337,5,0,0:0:0
256,192,29404,1,0,0:0:0
256,192,29470,1,0,0:0:0
256,192,29604,1,0,0:0:0
256,192,29737,5,8,0:0:0
256,192,29870,5,0,0:0:0
256,192,30004,5,8,0:0:0
256,192,30137,1,8,0:0:0
256,192,30204,1,8,0:0:0
256,192,30270,1,8,0:0:0
256,192,30404,5,0,0:0:0
256,192,30448,1,0,0:0:0
256,192,30492,1,0,0:0:0
256,192,30537,5,8,0:0:0
256,192,30670,1,8,0:0:0
256,192,30737,5,0,0:0:0
256,192,30804,1,0,0:0:0
256,192,30870,1,0,0:0:0
256,192,30937,5,8,0:0:0
256,192,31070,1,8,0:0:0
256,192,31204,1,8,0:0:0
256,192,31337,5,0,0:0:0
256,192,31404,1,0,0:0:0
256,192,31470,1,0,0:0:0
256,192,31537,1,0,0:0:0
256,192,31604,5,8,0:0:0
256,192,31737,5,0,0:0:0
256,192,31870,5,8,0:0:0
256,192,31937,1,8,0:0:0
256,192,32004,1,8,0:0:0
256,192,32070,1,8,0:0:0
256,192,32137,5,0,0:0:0
256,192,32204,5,0,0:0:0
256,192,32270,5,0,0:0:0
256,192,32337,5,8,0:0:0
256,192,32404,5,0,0:0:0
256,192,32537,1,0,0:0:0
256,192,32581,1,0,0:0:0
256,192,32626,1,0,0:0:0
256,192,32670,5,8,0:0:0
256,192,32804,5,0,0:0:0
256,192,33070,5,8,0:0:0
256,192,33204,1,8,0:0:0
256,192,33270,5,0,0:0:0
256,192,33337,1,0,0:0:0
256,192,33404,1,0,0:0:0
256,192,33470,5,8,0:0:0
256,192,33604,5,0,0:0:0
256,192,33648,1,0,0:0:0
256,192,33693,1,0,0:0:0
256,192,33737,5,8,0:0:0
256,192,33871,5,0,0:0:0
256,192,33937,1,0,0:0:0
256,192,34004,1,0,0:0:0
256,192,34137,5,8,0:0:0
256,192,34181,5,0,0:0:0
256,192,34226,1,0,0:0:0
256,192,34270,1,0,0:0:0
256,192,34404,1,0,0:0:0
256,192,34537,5,8,0:0:0
256,192,34670,5,0,0:0:0
256,192,34737,1,0,0:0:0
256,192,34804,5,8,0:0:0
256,192,34937,1,8,0:0:0
256,192,35004,5,0,0:0:0
256,192,35070,1,0,0:0:0
256,192,35137,1,0,0:0:0
256,192,35204,5,8,0:0:0
256,192,35270,5,0,0:0:0
256,192,35337,5,8,0:0:0
256,192,35470,5,0,0:0:0
256,192,35604,5,8,0:0:0
256,192,35737,5,0,0:0:0
256,192,35870,5,8,0:0:0
256,192,36004,1,8,0:0:0
256,192,36070,1,8,0:0:0
256,192,36137,5,0,0:0:0
256,192,36204,1,0,0:0:0
256,192,36270,5,8,0:0:0
256,192,36337,5,0,0:0:0
256,192,36404,5,8,0:0:0
256,192,36537,5,0,0:0:0
256,192,36581,1,0,0:0:0
256,192,36626,1,0,0:0:0
256,192,36670,1,0,0:0:0
256,192,36804,12,8,37070,0:0:0
256,192,37204,5,8,0:0:0
256,192,37337,5,0,0:0:0
256,192,37470,5,8,0:0:0
256,192,37604,1,8,0:0:0
256,192,37737,1,8,0:0:0
256,192,37870,5,0,0:0:0
256,192,37937,1,0,0:0:0
256,192,38004,5,8,0:0:0
256,192,38137,5,0,0:0:0
256,192,38204,1,0,0:0:0
256,192,38270,5,8,0:0:0
256,192,38404,5,0,0:0:0
256,192,38537,5,8,0:0:0
256,192,38604,1,8,0:0:0
256,192,38670,1,8,0:0:0
256,192,38737,1,8,0:0:0
256,192,38804,5,0,0:0:0
256,192,38937,5,8,0:0:0
256,192,39070,1,8,0:0:0
256,192,39115,1,8,0:0:0
256,192,39159,1,8,0:0:0
256,192,39204,5,0,0:0:0
256,192,39337,1,0,0:0:0
256,192,39470,5,8,0:0:0
256,192,39537,5,0,0:0:0
256,192,39604,5,8,0:0:0
256,192,39670,1,8,0:0:0
256,192,39737,5,0,0:0:0
256,192,39870,1,0,0:0:0
256,192,40004,5,8,0:0:0
256,192,40137,5,0,0:0:0
256,192,40181,1,0,0:0:0
256,192,40226,1,0,0:0:0
256,192,40270,5,8,0:0:0
256,192,40404,1,8,0:0:0
256,192,40537,5,0,0:0:0
256,192,40670,5,8,0:0:0
256,192,40804,1,8,0:0:0
256,192,40937,5,4,0:0:0
256,192,41070,1,8,0:0:0
256,192,41137,1,8,0:0:0
256,192,41204,1,8,0:0:0
256,192,41337,1,4,0:0:0
256,192,41470,1,0,0:0:0
256,192,41537,1,0,0:0:0
256,192,41604,1,8,0:0:0
256,192,41737,1,8,0:0:0
256,192,41804,1,8,0:0:0
256,192,41870,1,0,0:0:0
256,192,42004,1,4,0:0:0
256,192,42137,1,8,0:0:0
256,192,42270,1,6,0:0:0
256,192,42404,1,0,0:0:0
256,192,42537,1,4,0:0:0
256,192,42670,1,8,0:0:0
256,192,42804,1,8,0:0:0
256,192,42937,1,8,0:0:0
256,192,43070,1,4,0:0:0
256,192,43204,1,8,0:0:0
256,192,43337,1,8,0:0:0
256,192,43470,1,0,0:0:0
256,192,43737,1,8,0:0:0
256,192,43870,1,8,0:0:0
256,192,43937,1,8,0:0:0
256,192,44004,1,0,0:0:0
256,192,44137,1,6,0:0:0
256,192,44270,1,0,0:0:0
256,192,44404,1,8,0:0:0
256,192,44537,1,6,0:0:0
256,192,44670,1,0,0:0:0
256,192,44737,1,0,0:0:0
256,192,44804,1,8,0:0:0
256,192,44937,1,8,0:0:0
256,192,45070,1,8,0:0:0
256,192,45204,1,4,0:0:0
256,192,45337,1,8,0:0:0
256,192,45470,1,8,0:0:0
256,192,45604,1,0,0:0:0
256,192,45870,1,8,0:0:0
256,192,45937,1,8,0:0:0
256,192,46004,1,8,0:0:0
256,192,46070,1,8,0:0:0
256,192,46137,1,0,0:0:0
256,192,46270,1,4,0:0:0
256,192,46404,1,8,0:0:0
256,192,46537,1,8,0:0:0
256,192,46670,1,0,0:0:0
256,192,46804,1,4,0:0:0
256,192,46937,1,8,0:0:0
256,192,47070,1,8,0:0:0
256,192,47137,1,8,0:0:0
256,192,47204,1,0,0:0:0
256,192,47270,1,8,0:0:0
256,192,47337,1,0,0:0:0
256,192,47470,1,8,0:0:0
256,192,47604,1,8,0:0:0
256,192,47737,1,6,0:0:0
256,192,47870,1,8,0:0:0
256,192,48004,1,8,0:0:0
256,192,48137,1,8,0:0:0
256,192,48204,1,8,0:0:0
256,192,48270,1,0,0:0:0
256,192,48404,1,4,0:0:0
256,192,48537,1,8,0:0:0
256,192,48670,1,0,0:0:0
256,192,48803,1,6,0:0:0
256,192,49070,1,6,0:0:0
256,192,49204,1,8,0:0:0
256,192,49337,1,8,0:0:0
256,192,49470,1,0,0:0:0
256,192,49604,1,8,0:0:0
256,192,49670,1,8,0:0:0
256,192,49737,1,8,0:0:0
256,192,49870,1,0,0:0:0
256,192,50004,1,4,0:0:0
256,192,50137,1,8,0:0:0
256,192,50270,1,8,0:0:0
256,192,50337,1,8,0:0:0
256,192,50404,1,0,0:0:0
256,192,50537,1,0,0:0:0
256,192,50670,1,8,0:0:0
256,192,50804,1,0,0:0:0
256,192,50937,1,0,0:0:0
256,192,51204,1,8,0:0:0
256,192,51337,1,8,0:0:0
256,192,51470,1,8,0:0:0
256,192,51604,1,4,0:0:0
256,192,51737,1,0,0:0:0
256,192,51870,1,8,0:0:0
256,192,52004,1,4,0:0:0
256,192,52270,1,8,0:0:0
256,192,52404,1,8,0:0:0
256,192,52470,1,8,0:0:0
256,192,52537,1,0,0:0:0
256,192,52670,1,6,0:0:0
256,192,52804,1,8,0:0:0
256,192,52937,1,8,0:0:0
256,192,53070,1,6,0:0:0
256,192,53204,1,8,0:0:0
256,192,53270,1,8,0:0:0
256,192,53337,1,0,0:0:0
256,192,53470,1,8,0:0:0
256,192,53537,1,8,0:0:0
256,192,53604,1,8,0:0:0
256,192,53737,1,4,0:0:0
256,192,54004,1,4,0:0:0
256,192,54270,1,4,0:0:0
256,192,54537,1,8,0:0:0
256,192,54604,1,8,0:0:0
256,192,54670,1,0,0:0:0
256,192,54804,1,6,0:0:0
256,192,54937,1,0,0:0:0
256,192,55070,1,8,0:0:0
256,192,55204,1,0,0:0:0
256,192,55337,1,4,0:0:0
256,192,55604,1,8,0:0:0
256,192,55737,1,0,0:0:0
256,192,55870,1,6,0:0:0
256,192,56004,1,0,0:0:0
256,192,56137,1,8,0:0:0
256,192,56270,1,4,0:0:0
256,192,56537,1,8,0:0:0
256,192,56670,1,8,0:0:0
256,192,56737,1,0,0:0:0
256,192,56804,1,0,0:0:0
256,192,56937,1,4,0:0:0
256,192,57070,1,8,0:0:0
256,192,57204,1,8,0:0:0
256,192,57337,1,14,0:0:0
256,192,57604,1,14,0:0:0
256,192,57737,1,8,0:0:0
256,192,57870,1,8,0:0:0
256,192,58004,1,0,0:0:0
256,192,58137,1,0,0:0:0
256,192,58270,1,0,0:0:0
256,192,58404,1,0,0:0:0
256,192,58537,1,8,0:0:0
256,192,58670,1,0,0:0:0
256,192,58804,1,0,0:0:0
256,192,58937,1,8,0:0:0
256,192,59070,1,0,0:0:0
256,192,59204,1,0,0:0:0
256,192,59337,1,8,0:0:0
256,192,59470,1,0,0:0:0
256,192,59604,1,8,0:0:0
256,192,59737,1,8,0:0:0
256,192,59804,1,8,0:0:0
256,192,59870,1,0,0:0:0
256,192,60004,1,8,0:0:0
256,192,60137,1,0,0:0:0
256,192,60404,1,0,0:0:0
256,192,60670,1,0,0:0:0
256,192,60937,1,0,0:0:0
256,192,61204,1,8,0:0:0
256,192,61470,1,8,0:0:0
256,192,61737,1,8,0:0:0
256,192,61804,1,8,0:0:0
256,192,61870,1,0,0:0:0
256,192,62004,1,8,0:0:0
256,192,62070,1,8,0:0:0
256,192,62137,1,8,0:0:0
256,192,62270,1,4,0:0:0
256,192,62404,1,0,0:0:0
256,192,62470,1,0,0:0:0
256,192,62537,5,8,0:0:0
256,192,62670,5,0,0:0:0
256,192,62804,5,8,0:0:0
256,192,62848,5,0,0:0:0
256,192,62892,1,0,0:0:0
256,192,62937,5,8,0:0:0
256,192,63070,1,8,0:0:0
256,192,63137,5,0,0:0:0
256,192,63204,5,8,0:0:0
256,192,63270,1,8,0:0:0
256,192,63337,1,8,0:0:0
256,192,63470,1,8,0:0:0
256,192,63604,1,8,0:0:0
256,192,63648,1,8,0:0:0
256,192,63692,1,8,0:0:0
256,192,63737,5,0,0:0:0
256,192,63870,5,8,0:0:0
256,192,63937,5,0,0:0:0
256,192,64004,5,8,0:0:0
256,192,64070,1,8,0:0:0
256,192,64137,5,0,0:0:0
256,192,64204,1,0,0:0:0
256,192,64270,5,8,0:0:0
256,192,64404,5,0,0:0:0
256,192,64448,1,0,0:0:0
256,192,64492,1,0,0:0:0
256,192,64537,1,0,0:0:0
256,192,64670,1,0,0:0:0
256,192,64804,5,12,0:0:0
256,192,65070,1,12,0:0:0
256,192,65204,5,0,0:0:0
256,192,65248,5,8,0:0:0
256,192,65292,1,8,0:0:0
256,192,65337,1,8,0:0:0
256,192,65470,5,0,0:0:0
256,192,65537,1,0,0:0:0
256,192,65604,1,0,0:0:0
256,192,65670,5,8,0:0:0
256,192,65737,5,0,0:0:0
256,192,65804,5,8,0:0:0
256,192,65870,5,0,0:0:0
256,192,66004,5,8,0:0:0
256,192,66048,5,0,0:0:0
256,192,66092,1,0,0:0:0
256,192,66137,5,8,0:0:0
256,192,66270,1,12,0:0:0
256,192,66404,5,4,0:0:0
256,192,66537,5,12,0:0:0
256,192,66670,5,0,0:0:0
256,192,66737,1,0,0:0:0
256,192,66804,5,8,0:0:0
256,192,66870,1,8,0:0:0
256,192,66937,1,8,0:0:0
256,192,67004,5,0,0:0:0
256,192,67070,5,8,0:0:0
256,192,67115,1,8,0:0:0
256,192,67159,1,8,0:0:0
256,192,67204,1,8,0:0:0
256,192,67337,1,8,0:0:0
256,192,67381,1,8,0:0:0
256,192,67426,1,8,0:0:0
256,192,67470,5,0,0:0:0
256,192,67537,1,0,0:0:0
256,192,67604,1,0,0:0:0
256,192,67737,1,0,0:0:0
256,192,67804,1,0,0:0:0
256,192,67870,1,0,0:0:0
256,192,67915,1,0,0:0:0
256,192,67959,1,0,0:0:0
256,192,68004,5,8,0:0:0
256,192,68137,5,0,0:0:0
256,192,68404,5,8,0:0:0
256,192,68470,1,8,0:0:0
256,192,68537,1,8,0:0:0
256,192,68670,5,4,0:0:0
256,192,68804,1,0,0:0:0
256,192,68937,5,8,0:0:0
256,192,69004,1,8,0:0:0
256,192,69070,5,0,0:0:0
256,192,69204,1,0,0:0:0
256,192,69337,5,8,0:0:0
256,192,69404,1,8,0:0:0
256,192,69470,5,0,0:0:0
256,192,69604,5,8,0:0:0
256,192,69737,1,12,0:0:0
256,192,69870,5,0,0:0:0
256,192,69915,1,0,0:0:0
256,192,69959,1,0,0:0:0
256,192,70004,5,8,0:0:0
256,192,70137,5,0,0:0:0
256,192,70270,5,8,0:0:0
256,192,70337,5,0,0:0:0
256,192,70470,5,8,0:0:0
256,192,70537,5,0,0:0:0
256,192,70670,5,8,0:0:0
256,192,70737,5,0,0:0:0
256,192,70804,1,0,0:0:0
256,192,70937,1,0,0:0:0
256,192,71070,1,0,0:0:0
256,192,71204,1,0,0:0:0
256,192,71248,1,0,0:0:0
256,192,71292,1,0,0:0:0
256,192,71337,5,8,0:0:0
256,192,71470,1,8,0:0:0
256,192,71604,1,8,0:0:0
256,192,71737,5,0,0:0:0
256,192,71781,1,0,0:0:0
256,192,71826,1,0,0:0:0
256,192,71870,5,8,0:0:0
256,192,72004,1,8,0:0:0
256,192,72137,1,8,0:0:0
256,192,72270,5,0,0:0:0
256,192,72404,5,8,0:0:0
256,192,72470,5,0,0:0:0
256,192,72537,5,8,0:0:0
256,192,72604,5,0,0:0:0
256,192,72670,5,8,0:0:0
256,192,72737,1,8,0:0:0
256,192,72804,1,8,0:0:0
256,192,72937,5,0,0:0:0
256,192,73070,5,8,0:0:0
256,192,73137,5,0,0:0:0
256,192,73204,5,8,0:0:0
256,192,73337,1,12,0:0:0
256,192,73470,5,0,0:0:0
256,192,73515,1,0,0:0:0
256,192,73559,1,0,0:0:0
256,192,73604,5,8,0:0:0
256,192,73737,5,0,0:0:0
256,192,73781,1,0,0:0:0
256,192,73826,1,0,0:0:0
256,192,73870,5,8,0:0:0
256,192,74004,1,8,0:0:0
256,192,74070,5,0,0:0:0
256,192,74137,5,8,0:0:0
256,192,74204,1,8,0:0:0
256,192,74270,1,8,0:0:0
256,192,74337,1,8,0:0:0
256,192,74404,1,8,0:0:0
256,192,74537,5,0,0:0:0
256,192,74604,1,0,0:0:0
256,192,74670,1,0,0:0:0
256,192,74737,1,0,0:0:0
256,192,74804,5,8,0:0:0
256,192,74937,5,0,0:0:0
256,192,75070,5,12,0:0:0
256,192,75337,1,8,0:0:0
256,192,75470,5,0,0:0:0
256,192,75604,1,0,0:0:0
256,192,75670,1,0,0:0:0
256,192,75737,5,8,0:0:0
256,192,75804,1,8,0:0:0
256,192,75870,1,8,0:0:0
256,192,75937,5,0,0:0:0
256,192,76004,5,8,0:0:0
256,192,76137,5,0,0:0:0
256,192,76270,1,0,0:0:0
256,192,76337,1,0,0:0:0
256,192,76404,5,8,0:0:0
256,192,76537,1,8,0:0:0
256,192,76670,5,0,0:0:0
256,192,76715,1,0,0:0:0
256,192,76759,1,0,0:0:0
256,192,76804,5,8,0:0:0
256,192,76937,5,0,0:0:0
256,192,77004,1,0,0:0:0
256,192,77070,5,8,0:0:0
256,192,77204,1,12,0:0:0
256,192,77337,5,0,0:0:0
256,192,77470,5,8,0:0:0
256,192,77604,5,0,0:0:0
256,192,77737,5,8,0:0:0
256,192,77870,1,8,0:0:0
256,192,78004,5,0,0:0:0
256,192,78048,1,0,0:0:0
256,192,78092,1,0,0:0:0
256,192,78137,5,8,0:0:0
256,192,78270,5,0,0:0:0
256,192,78337,1,0,0:0:0
256,192,78404,5,8,0:0:0
256,192,78470,5,0,0:0:0
256,192,78537,5,8,0:0:0
256,192,78604,1,8,0:0:0
256,192,78670,5,0,0:0:0
256,192,78804,5,8,0:0:0
256,192,78870,5,0,0:0:0
256,192,78937,5,8,0:0:0
256,192,79070,1,8,0:0:0
256,192,79115,1,8,0:0:0
256,192,79159,1,8,0:0:0
256,192,79204,1,8,0:0:0
256,192,79337,5,4,0:0:0
256,192,79604,1,4,0:0:0
256,192,79870,1,4,0:0:0
256,192,80004,1,0,0:0:0
256,192,80137,1,0,0:0:0
256,192,80270,1,8,0:0:0
256,192,80337,1,8,0:0:0
256,192,80404,1,0,0:0:0
256,192,80470,1,8,0:0:0
256,192,80537,1,0,0:0:0
256,192,80604,1,0,0:0:0
256,192,80670,1,8,0:0:0
256,192,80737,1,0,0:0:0
256,192,80804,1,8,0:0:0
256,192,80937,1,8,0:0:0
256,192,81004,1,0,0:0:0
256,192,81070,1,8,0:0:0
256,192,81204,1,8,0:0:0
256,192,81337,1,8,0:0:0
256,192,81470,1,4,0:0:0
256,192,81604,1,8,0:0:0
256,192,81670,1,0,0:0:0
256,192,81737,1,8,0:0:0
256,192,81804,1,0,0:0:0
256,192,81870,1,0,0:0:0
256,192,81937,1,0,0:0:0
256,192,82004,1,8,0:0:0
256,192,82137,1,0,0:0:0
256,192,82181,1,0,0:0:0
256,192,82226,1,0,0:0:0
256,192,82270,1,8,0:0:0
256,192,82404,1,8,0:0:0
256,192,82470,1,8,0:0:0
256,192,82537,1,0,0:0:0
256,192,82604,1,0,0:0:0
256,192,82670,1,8,0:0:0
256,192,82737,1,8,0:0:0
256,192,82804,1,0,0:0:0
256,192,82870,1,8,0:0:0
256,192,82937,1,8,0:0:0
256,192,83070,1,8,0:0:0
256,192,83204,1,0,0:0:0
256,192,83270,1,0,0:0:0
256,192,83337,1,8,0:0:0
256,192,83404,1,8,0:0:0
256,192,83470,1,0,0:0:0
256,192,83604,1,4,0:0:0
256,192,83870,1,4,0:0:0
256,192,84137,1,4,0:0:0
256,192,84270,1,0,0:0:0
256,192,84337,1,8,0:0:0
256,192,84404,1,0,0:0:0
256,192,84470,1,8,0:0:0
256,192,84537,1,0,0:0:0
256,192,84604,1,0,0:0:0
256,192,84670,1,8,0:0:0
256,192,84737,1,0,0:0:0
256,192,84804,1,0,0:0:0
256,192,84870,1,8,0:0:0
256,192,84937,1,0,0:0:0
256,192,85004,1,0,0:0:0
256,192,85070,1,0,0:0:0
256,192,85115,1,0,0:0:0
256,192,85159,1,0,0:0:0
256,192,85204,1,8,0:0:0
256,192,85337,1,8,0:0:0
256,192,85470,1,0,0:0:0
256,192,85515,1,0,0:0:0
256,192,85559,1,0,0:0:0
256,192,85604,1,8,0:0:0
256,192,85737,1,4,0:0:0
256,192,86004,1,4,0:0:0
256,192,86270,1,4,0:0:0
256,192,86404,1,0,0:0:0
256,192,86470,1,8,0:0:0
256,192,86537,1,8,0:0:0
256,192,86604,1,8,0:0:0
256,192,86670,1,0,0:0:0
256,192,86804,1,8,0:0:0
256,192,86870,1,0,0:0:0
256,192,86937,1,8,0:0:0
256,192,87004,1,0,0:0:0
256,192,87070,1,8,0:0:0
256,192,87204,1,8,0:0:0
256,192,87337,1,8,0:0:0
256,192,87404,1,8,0:0:0
256,192,87470,1,0,0:0:0
256,192,87537,1,0,0:0:0
256,192,87604,1,8,0:0:0
256,192,87648,1,8,0:0:0
256,192,87692,1,8,0:0:0
256,192,87737,1,8,0:0:0
256,192,87870,1,4,0:0:0
256,192,88137,1,4,0:0:0
256,192,88404,1,4,0:0:0
256,192,88537,1,0,0:0:0
256,192,88604,1,8,0:0:0
256,192,88670,1,8,0:0:0
256,192,88737,1,0,0:0:0
256,192,88804,1,8,0:0:0
256,192,88848,1,8,0:0:0
256,192,88892,1,8,0:0:0
256,192,88937,1,8,0:0:0
256,192,89070,1,0,0:0:0
256,192,89204,1,8,0:0:0
256,192,89337,1,8,0:0:0
256,192,89404,1,0,0:0:0
256,192,89470,1,8,0:0:0
256,192,89537,1,0,0:0:0
256,192,89604,1,8,0:0:0
256,192,89670,1,0,0:0:0
256,192,89737,1,0,0:0:0
256,192,89804,1,8,0:0:0
256,192,89870,1,0,0:0:0
256,192,90004,1,4,0:0:0
256,192,90270,1,4,0:0:0
256,192,90537,1,4,0:0:0
256,192,90670,1,0,0:0:0
256,192,90804,1,0,0:0:0
256,192,90870,1,0,0:0:0
256,192,90937,1,8,0:0:0
256,192,91004,1,8,0:0:0
256,192,91070,1,8,0:0:0
256,192,91204,1,8,0:0:0
256,192,91337,1,8,0:0:0
256,192,91404,1,8,0:0:0
256,192,91470,1,0,0:0:0
256,192,91537,1,0,0:0:0
256,192,91604,1,8,0:0:0
256,192,91737,1,0,0:0:0
256,192,91870,1,0,0:0:0
256,192,91937,1,0,0:0:0
256,192,92004,1,8,0:0:0
256,192,92137,1,4,0:0:0
256,192,92270,1,0,0:0:0
256,192,92404,1,8,0:0:0
256,192,92470,1,8,0:0:0
256,192,92537,1,0,0:0:0
256,192,92604,1,8,0:0:0
256,192,92670,1,0,0:0:0
256,192,92737,1,8,0:0:0
256,192,92804,1,0,0:0:0
256,192,92937,1,8,0:0:0
256,192,93004,1,0,0:0:0
256,192,93070,1,8,0:0:0
256,192,93137,1,8,0:0:0
256,192,93204,1,0,0:0:0
256,192,93270,1,8,0:0:0
256,192,93337,1,8,0:0:0
256,192,93404,1,8,0:0:0
256,192,93470,1,0,0:0:0
256,192,93537,1,8,0:0:0
256,192,93604,1,0,0:0:0
256,192,93670,1,8,0:0:0
256,192,93737,1,8,0:0:0
256,192,93870,1,8,0:0:0
256,192,93937,1,8,0:0:0
256,192,94004,1,8,0:0:0
256,192,94070,1,8,0:0:0
256,192,94137,1,0,0:0:0
256,192,94204,1,8,0:0:0
256,192,94270,1,0,0:0:0
256,192,94337,1,8,0:0:0
256,192,94404,1,8,0:0:0
256,192,94470,1,0,0:0:0
256,192,94537,1,8,0:0:0
256,192,94604,1,0,0:0:0
256,192,94670,1,8,0:0:0
256,192,94737,1,0,0:0:0
256,192,94804,1,8,0:0:0
256,192,94937,1,0,0:0:0
256,192,95004,1,8,0:0:0
256,192,95070,1,8,0:0:0
256,192,95137,1,8,0:0:0
256,192,95204,1,0,0:0:0
256,192,95337,1,0,0:0:0
256,192,95404,1,0,0:0:0
256,192,95470,1,8,0:0:0
256,192,95604,12,0,96270,0:0:0
256,192,96404,5,0,0:0:0
256,192,96470,5,0,0:0:0
256,192,96537,1,0,0:0:0
256,192,96604,1,0,0:0:0
256,192,96670,5,8,0:0:0
256,192,96804,5,0,0:0:0
256,192,96937,1,0,0:0:0
256,192,97004,1,0,0:0:0
256,192,97070,1,0,0:0:0
256,192,97137,1,0,0:0:0
256,192,97204,5,8,0:0:0
256,192,97270,5,0,0:0:0
256,192,97337,5,8,0:0:0
256,192,97470,5,0,0:0:0
256,192,97604,1,0,0:0:0
256,192,97670,1,0,0:0:0
256,192,97737,5,8,0:0:0
256,192,97870,5,0,0:0:0
256,192,98004,5,8,0:0:0
256,192,98137,1,8,0:0:0
256,192,98270,5,0,0:0:0
256,192,98337,1,0,0:0:0
256,192,98404,5,8,0:0:0
256,192,98537,5,0,0:0:0
256,192,98604,1,0,0:0:0
256,192,98670,1,0,0:0:0
256,192,98737,1,0,0:0:0
256,192,98804,5,8,0:0:0
256,192,98937,1,8,0:0:0
256,192,99070,5,0,0:0:0
256,192,99137,1,0,0:0:0
256,192,99204,5,8,0:0:0
256,192,99337,5,0,0:0:0
256,192,99404,1,0,0:0:0
256,192,99470,5,8,0:0:0
256,192,99604,1,12,0:0:0
256,192,99737,5,4,0:0:0
256,192,99870,1,4,0:0:0
256,192,100004,5,12,0:0:0
256,192,100137,5,0,0:0:0
256,192,100204,1,0,0:0:0
256,192,100270,5,8,0:0:0
256,192,100404,1,8,0:0:0
256,192,100537,1,8,0:0:0
256,192,100670,1,12,0:0:0
256,192,100937,5,0,0:0:0
256,192,101070,5,8,0:0:0
256,192,101204,5,0,0:0:0
256,192,101270,1,0,0:0:0
256,192,101337,1,0,0:0:0
256,192,101470,5,8,0:0:0
256,192,101604,1,8,0:0:0
256,192,101737,5,4,0:0:0
256,192,101870,1,0,0:0:0
256,192,101937,1,0,0:0:0
256,192,102004,5,8,0:0:0
256,192,102137,5,0,0:0:0
256,192,102204,1,0,0:0:0
256,192,102270,1,0,0:0:0
256,192,102404,5,8,0:0:0
256,192,102537,1,8,0:0:0
256,192,102670,5,0,0:0:0
256,192,102737,1,0,0:0:0
256,192,102804,5,8,0:0:0
256,192,102870,1,8,0:0:0
256,192,102937,5,0,0:0:0
256,192,103004,1,0,0:0:0
256,192,103070,5,8,0:0:0
256,192,103204,1,8,0:0:0
256,192,103337,5,0,0:0:0
256,192,103381,1,0,0:0:0
256,192,103426,1,0,0:0:0
256,192,103470,5,8,0:0:0
256,192,103604,5,0,0:0:0
256,192,103648,1,0,0:0:0
256,192,103693,1,0,0:0:0
256,192,103737,5,8,0:0:0
256,192,103870,1,12,0:0:0
256,192,104004,5,0,0:0:0
256,192,104137,1,0,0:0:0
256,192,104270,5,8,0:0:0
256,192,104404,5,0,0:0:0
256,192,104537,5,8,0:0:0
256,192,104670,1,8,0:0:0
256,192,104804,1,8,0:0:0
256,192,104937,5,4,0:0:0
256,192,105204,1,0,0:0:0
256,192,105337,5,8,0:0:0
256,192,105470,5,0,0:0:0
256,192,105537,1,0,0:0:0
256,192,105604,1,0,0:0:0
256,192,105670,1,0,0:0:0
256,192,105737,5,8,0:0:0
256,192,105804,5,0,0:0:0
256,192,105870,5,8,0:0:0
256,192,106004,1,8,0:0:0
256,192,106070,5,0,0:0:0
256,192,106137,1,0,0:0:0
256,192,106204,1,0,0:0:0
256,192,106270,5,8,0:0:0
256,192,106404,5,0,0:0:0
256,192,106470,1,0,0:0:0
256,192,106537,1,0,0:0:0
256,192,106670,5,8,0:0:0
256,192,106804,5,0,0:0:0
256,192,106870,1,0,0:0:0
256,192,106937,5,8,0:0:0
256,192,107070,1,8,0:0:0
256,192,107204,5,0,0:0:0
256,192,107270,1,0,0:0:0
256,192,107337,5,8,0:0:0
256,192,107470,5,0,0:0:0
256,192,107604,1,0,0:0:0
256,192,107670,1,0,0:0:0
256,192,107737,5,8,0:0:0
256,192,107870,5,0,0:0:0
256,192,107937,1,0,0:0:0
256,192,108004,5,8,0:0:0
256,192,108070,1,8,0:0:0
256,192,108137,1,8,0:0:0
256,192,108181,1,8,0:0:0
256,192,108226,1,8,0:0:0
256,192,108270,1,8,0:0:0
256,192,108404,5,4,0:0:0
256,192,108537,1,4,0:0:0
256,192,108670,5,12,0:0:0
256,192,108804,5,4,0:0:0
256,192,108937,5,12,0:0:0
256,192,109070,1,12,0:0:0
256,192,109204,1,12,0:0:0
256,192,109337,5,0,0:0:0
256,192,109404,1,0,0:0:0
256,192,109470,5,8,0:0:0
256,192,109604,5,0,0:0:0
256,192,109670,1,0,0:0:0
256,192,109737,5,8,0:0:0
256,192,109804,5,0,0:0:0
256,192,109870,1,0,0:0:0
256,192,109937,1,0,0:0:0
256,192,110004,5,8,0:0:0
256,192,110137,1,8,0:0:0
256,192,110270,1,12,0:0:0
256,192,110404,5,0,0:0:0
256,192,110470,1,0,0:0:0
256,192,110537,5,8,0:0:0
256,192,110670,5,0,0:0:0
256,192,110737,1,0,0:0:0
256,192,110804,1,0,0:0:0
256,192,110937,5,12,0:0:0
256,192,111070,5,0,0:0:0
256,192,111137,1,0,0:0:0
256,192,111204,5,8,0:0:0
256,192,111337,5,4,0:0:0
256,192,111470,1,0,0:0:0
256,192,111537,1,0,0:0:0
256,192,111604,5,8,0:0:0
256,192,111737,5,0,0:0:0
256,192,111870,1,0,0:0:0
256,192,112004,5,8,0:0:0
256,192,112137,5,0,0:0:0
256,192,112204,1,0,0:0:0
256,192,112270,1,0,0:0:0
256,192,112404,1,4,0:0:0
256,192,112537,5,8,0:0:0
256,192,112604,1,8,0:0:0
256,192,112670,5,0,0:0:0
256,192,112715,1,0,0:0:0
256,192,112759,1,0,0:0:0
256,192,112804,1,0,0:0:0
256,192,112870,5,8,0:0:0
256,192,112937,1,8,0:0:0
256,192,113004,1,8,0:0:0
256,192,113070,1,8,0:0:0
256,192,113137,1,8,0:0:0
256,192,113204,5,0,0:0:0
256,192,113337,5,8,0:0:0
256,192,113470,5,4,0:0:0
256,192,113604,1,0,0:0:0
256,192,113670,1,0,0:0:0
256,192,113737,1,8,0:0:0
256,192,113870,1,0,0:0:0
256,192,113937,1,0,0:0:0
256,192,114004,1,0,0:0:0
256,192,114137,1,0,0:0:0
256,192,114204,1,0,0:0:0
256,192,114270,1,8,0:0:0
256,192,114337,1,0,0:0:0
256,192,114404,1,8,0:0:0
256,192,114537,1,0,0:0:0
256,192,114670,1,0,0:0:0
256,192,114737,1,0,0:0:0
256,192,114804,1,8,0:0:0
256,192,114937,1,0,0:0:0
256,192,115004,1,0,0:0:0
256,192,115070,1,0,0:0:0
256,192,115204,1,8,0:0:0
256,192,115337,1,0,0:0:0
256,192,115404,1,0,0:0:0
256,192,115470,1,8,0:0:0
256,192,115537,1,0,0:0:0
256,192,115604,1,0,0:0:0
256,192,115737,1,0,0:0:0
256,192,115804,1,0,0:0:0
256,192,115870,1,8,0:0:0
256,192,116004,1,0,0:0:0
256,192,116137,1,0,0:0:0
256,192,116204,1,0,0:0:0
256,192,116270,1,8,0:0:0
256,192,116404,1,0,0:0:0
256,192,116470,1,0,0:0:0
256,192,116537,1,0,0:0:0
256,192,116604,1,0,0:0:0
256,192,116670,1,8,0:0:0
256,192,116737,1,0,0:0:0
256,192,116804,1,8,0:0:0
256,192,116937,1,0,0:0:0
256,192,117070,1,8,0:0:0
256,192,117204,1,4,0:0:0
256,192,117337,1,0,0:0:0
256,192,117470,1,8,0:0:0
256,192,117537,1,0,0:0:0
256,192,117604,1,8,0:0:0
256,192,117670,1,0,0:0:0
256,192,117737,1,0,0:0:0
256,192,117870,1,0,0:0:0
256,192,117937,1,0,0:0:0
256,192,118004,1,8,0:0:0
256,192,118137,1,8,0:0:0
256,192,118270,1,0,0:0:0
256,192,118337,1,0,0:0:0
256,192,118404,1,8,0:0:0
256,192,118537,1,0,0:0:0
256,192,118604,1,0,0:0:0
256,192,118670,1,8,0:0:0
256,192,118737,1,8,0:0:0
256,192,118804,1,0,0:0:0
256,192,118937,1,0,0:0:0
256,192,119004,1,0,0:0:0
256,192,119070,1,8,0:0:0
256,192,119204,1,0,0:0:0
256,192,119270,1,0,0:0:0
256,192,119337,1,0,0:0:0
256,192,119470,1,8,0:0:0
256,192,119604,1,0,0:0:0
256,192,119670,1,0,0:0:0
256,192,119737,1,8,0:0:0
256,192,119804,1,0,0:0:0
256,192,119870,1,0,0:0:0
256,192,119937,1,0,0:0:0
256,192,120004,1,8,0:0:0
256,192,120070,1,0,0:0:0
256,192,120137,1,8,0:0:0
256,192,120270,1,0,0:0:0
256,192,120404,1,0,0:0:0
256,192,120470,1,0,0:0:0
256,192,120537,1,8,0:0:0
256,192,120670,1,0,0:0:0
256,192,120737,1,0,0:0:0
256,192,120804,1,0,0:0:0
256,192,120937,1,8,0:0:0
256,192,121070,1,8,0:0:0
256,192,121137,1,8,0:0:0
256,192,121204,1,0,0:0:0
256,192,121337,1,8,0:0:0
256,192,121470,1,0,0:0:0
256,192,121604,1,4,0:0:0
256,192,121737,1,6,0:0:0
256,192,121870,1,6,0:0:0
256,192,122004,1,4,0:0:0
256,192,122270,1,8,0:0:0
256,192,122404,1,0,0:0:0
256,192,122537,1,0,0:0:0
256,192,122604,1,0,0:0:0
256,192,122737,1,0,0:0:0
256,192,122804,1,8,0:0:0
256,192,122937,1,8,0:0:0
256,192,123070,1,0,0:0:0
256,192,123204,1,0,0:0:0
256,192,123270,1,0,0:0:0
256,192,123337,1,8,0:0:0
256,192,123470,1,0,0:0:0
256,192,123537,1,0,0:0:0
256,192,123604,1,0,0:0:0
256,192,123670,1,0,0:0:0
256,192,123737,1,8,0:0:0
256,192,123870,1,0,0:0:0
256,192,123937,1,0,0:0:0
256,192,124004,1,8,0:0:0
256,192,124070,1,8,0:0:0
256,192,124137,1,0,0:0:0
256,192,124270,1,0,0:0:0
256,192,124337,1,0,0:0:0
256,192,124404,1,8,0:0:0
256,192,124537,1,0,0:0:0
256,192,124670,1,0,0:0:0
256,192,124737,1,0,0:0:0
256,192,124804,1,8,0:0:0
256,192,124937,1,0,0:0:0
256,192,125004,1,8,0:0:0
256,192,125070,1,0,0:0:0
256,192,125137,1,0,0:0:0
256,192,125204,1,8,0:0:0
256,192,125337,1,6,0:0:0
256,192,125470,1,4,0:0:0
256,192,125604,1,6,0:0:0
256,192,125737,1,4,0:0:0
256,192,125870,1,0,0:0:0
256,192,125937,1,0,0:0:0
256,192,126004,1,8,0:0:0
256,192,126070,1,0,0:0:0
256,192,126137,1,8,0:0:0
256,192,126270,1,4,0:0:0
256,192,126404,1,0,0:0:0
256,192,126470,1,0,0:0:0
256,192,126537,1,8,0:0:0
256,192,126670,1,0,0:0:0
256,192,126737,1,0,0:0:0
256,192,126804,1,0,0:0:0
256,192,126937,1,0,0:0:0
256,192,127004,1,0,0:0:0
256,192,127070,1,8,0:0:0
256,192,127137,1,0,0:0:0
256,192,127204,1,8,0:0:0
256,192,127337,1,0,0:0:0
256,192,127470,1,0,0:0:0
256,192,127537,1,0,0:0:0
256,192,127604,1,8,0:0:0
256,192,127737,1,0,0:0:0
256,192,127804,1,0,0:0:0
256,192,127870,1,0,0:0:0
256,192,128004,1,8,0:0:0
256,192,128137,1,0,0:0:0
256,192,128204,1,0,0:0:0
256,192,128270,1,8,0:0:0
256,192,128337,1,0,0:0:0
256,192,128404,1,0,0:0:0
256,192,128537,1,0,0:0:0
256,192,128604,1,0,0:0:0
256,192,128670,1,8,0:0:0
256,192,128804,1,0,0:0:0
256,192,128937,1,0,0:0:0
256,192,129004,1,0,0:0:0
256,192,129070,1,8,0:0:0
256,192,129204,1,0,0:0:0
256,192,129270,1,0,0:0:0
256,192,129337,1,8,0:0:0
256,192,129404,1,0,0:0:0
256,192,129470,1,8,0:0:0
256,192,129604,12,8,130137,0:0:0
256,192,130270,5,8,0:0:0
256,192,130404,1,8,0:0:0
256,192,130537,5,4,0:0:0
256,192,130804,5,8,0:0:0
256,192,130937,5,4,0:0:0
256,192,131204,5,8,0:0:0
256,192,131337,1,8,0:0:0
256,192,131470,1,8,0:0:0
256,192,131604,5,4,0:0:0
256,192,131870,5,8,0:0:0
256,192,132003,5,4,0:0:0
256,192,132270,5,8,0:0:0
256,192,132404,5,0,0:0:0
256,192,132537,5,8,0:0:0
256,192,132670,5,4,0:0:0
256,192,132937,5,8,0:0:0
256,192,133070,5,4,0:0:0
256,192,133337,5,8,0:0:0
256,192,133470,5,0,0:0:0
256,192,133604,1,0,0:0:0
256,192,133670,1,0,0:0:0
256,192,133737,1,0,0:0:0
256,192,133870,1,0,0:0:0
256,192,134004,1,0,0:0:0
256,192,134137,5,8,0:0:0
256,192,134270,1,8,0:0:0
256,192,134337,1,8,0:0:0
256,192,134404,1,8,0:0:0
256,192,134470,1,8,0:0:0
256,192,134537,1,8,0:0:0
256,192,134581,5,0,0:0:0
256,192,134626,1,0,0:0:0
256,192,134670,1,0,0:0:0
256,192,134804,1,4,0:0:0
256,192,135070,5,8,0:0:0
256,192,135203,5,4,0:0:0
256,192,135470,5,8,0:0:0
256,192,135604,5,0,0:0:0
256,192,135737,5,8,0:0:0
256,192,135870,5,4,0:0:0
256,192,136137,5,8,0:0:0
256,192,136270,5,4,0:0:0
256,192,136537,5,8,0:0:0
256,192,136670,5,0,0:0:0
256,192,136804,5,8,0:0:0
256,192,136937,5,4,0:0:0
256,192,137204,5,8,0:0:0
256,192,137337,5,4,0:0:0
256,192,137604,5,8,0:0:0
256,192,137737,5,0,0:0:0
256,192,137871,1,0,0:0:0
256,192,137937,1,0,0:0:0
256,192,138004,1,0,0:0:0
256,192,138137,1,0,0:0:0
256,192,138271,1,0,0:0:0
256,192,138337,1,0,0:0:0
256,192,138404,5,8,0:0:0
256,192,138537,1,8,0:0:0
256,192,138604,1,8,0:0:0
256,192,138671,1,8,0:0:0
256,192,138737,1,8,0:0:0
256,192,138804,1,8,0:0:0
256,192,138848,5,0,0:0:0
256,192,138893,1,0,0:0:0
256,192,138937,1,0,0:0:0
256,192,139071,1,4,0:0:0
256,192,139337,5,8,0:0:0
256,192,139470,5,4,0:0:0
256,192,139737,5,8,0:0:0
256,192,139871,5,0,0:0:0
256,192,140004,5,8,0:0:0
256,192,140137,5,4,0:0:0
256,192,140404,5,8,0:0:0
256,192,140537,5,4,0:0:0
256,192,140804,5,8,0:0:0
256,192,140937,5,0,0:0:0
256,192,141071,5,8,0:0:0
256,192,141204,5,4,0:0:0
256,192,141471,5,8,0:0:0
256,192,141604,5,4,0:0:0
256,192,141871,5,8,0:0:0
256,192,142004,5,0,0:0:0
256,192,142138,1,0,0:0:0
256,192,142204,1,0,0:0:0
256,192,142271,1,0,0:0:0
256,192,142404,1,0,0:0:0
256,192,142538,1,0,0:0:0
256,192,142604,1,0,0:0:0
256,192,142671,5,8,0:0:0
256,192,142804,1,8,0:0:0
256,192,142871,1,8,0:0:0
256,192,142938,1,8,0:0:0
256,192,143004,1,8,0:0:0
256,192,143071,1,8,0:0:0
256,192,143115,5,0,0:0:0
256,192,143160,1,0,0:0:0
256,192,143204,1,0,0:0:0
256,192,143338,1,4,0:0:0
256,192,143604,5,8,0:0:0
256,192,143737,5,4,0:0:0
256,192,144004,5,8,0:0:0
256,192,144138,5,0,0:0:0
256,192,144271,5,8,0:0:0
256,192,144404,5,4,0:0:0
256,192,144671,5,8,0:0:0
256,192,144804,5,0,0:0:0
256,192,144937,5,8,0:0:0
256,192,145070,1,8,0:0:0
256,192,145204,5,0,0:0:0
256,192,145338,5,8,0:0:0
256,192,145471,5,4,0:0:0
256,192,145738,5,8,0:0:0
256,192,145871,5,4,0:0:0
256,192,146138,5,8,0:0:0
256,192,146271,5,0,0:0:0
256,192,146405,1,0,0:0:0
256,192,146471,1,0,0:0:0
256,192,146538,1,0,0:0:0
256,192,146671,5,8,0:0:0
256,192,146805,5,0,0:0:0
256,192,146871,1,0,0:0:0
256,192,146938,5,8,0:0:0
256,192,147071,1,8,0:0:0
256,192,147137,5,0,0:0:0
256,192,147204,5,8,0:0:0
256,192,147270,5,0,0:0:0
256,192,147337,5,8,0:0:0
256,192,147382,5,0,0:0:0
256,192,147427,1,0,0:0:0
256,192,147471,1,0,0:0:0
256,192,147604,1,4,0:0:0
256,192,147737,1,8,0:0:0
256,192,147804,1,0,0:0:0
256,192,147870,1,8,0:0:0
256,192,148004,1,0,0:0:0
256,192,148137,1,0,0:0:0
256,192,148204,1,0,0:0:0
256,192,148270,1,8,0:0:0
256,192,148404,1,0,0:0:0
256,192,148537,1,0,0:0:0
256,192,148670,1,0,0:0:0
256,192,148737,1,0,0:0:0
256,192,148804,1,0,0:0:0
256,192,148937,1,8,0:0:0
256,192,149070,1,0,0:0:0
256,192,149137,1,0,0:0:0
256,192,149204,1,8,0:0:0
256,192,149270,1,0,0:0:0
256,192,149337,1,8,0:0:0
256,192,149470,1,0,0:0:0
256,192,149604,1,8,0:0:0
256,192,149737,1,0,0:0:0
256,192,149870,1,8,0:0:0
256,192,150004,1,8,0:0:0
256,192,150070,1,8,0:0:0
256,192,150137,1,0,0:0:0
256,192,150270,1,0,0:0:0
256,192,150404,1,8,0:0:0
256,192,150470,1,8,0:0:0
256,192,150537,1,0,0:0:0
256,192,150670,1,0,0:0:0
256,192,150804,1,6,0:0:0
256,192,150937,1,0,0:0:0
256,192,151004,1,0,0:0:0
256,192,151070,1,8,0:0:0
256,192,151204,1,6,0:0:0
256,192,151337,1,0,0:0:0
256,192,151470,1,8,0:0:0
256,192,151604,1,6,0:0:0
256,192,151870,1,4,0:0:0
256,192,152004,1,8,0:0:0
256,192,152070,1,8,0:0:0
256,192,152137,1,8,0:0:0
256,192,152270,1,0,0:0:0
256,192,152404,1,8,0:0:0
256,192,152537,1,8,0:0:0
256,192,152670,1,0,0:0:0
256,192,152804,1,0,0:0:0
256,192,152937,1,4,0:0:0
256,192,153070,1,8,0:0:0
256,192,153204,1,8,0:0:0
256,192,153270,1,8,0:0:0
256,192,153337,1,0,0:0:0
256,192,153404,1,0,0:0:0
256,192,153470,1,8,0:0:0
256,192,153604,1,8,0:0:0
256,192,153670,1,8,0:0:0
256,192,153737,1,0,0:0:0
256,192,153870,1,8,0:0:0
256,192,154004,1,0,0:0:0
256,192,154137,1,8,0:0:0
256,192,154204,1,8,0:0:0
256,192,154270,1,8,0:0:0
256,192,154404,1,0,0:0:0
256,192,154537,1,8,0:0:0
256,192,154604,1,0,0:0:0
256,192,154670,1,8,0:0:0
256,192,154737,1,8,0:0:0
256,192,154804,1,0,0:0:0
256,192,154870,1,0,0:0:0
256,192,154937,1,8,0:0:0
256,192,155070,1,0,0:0:0
256,192,155204,1,0,0:0:0
256,192,155337,1,8,0:0:0
256,192,155381,1,0,0:0:0
256,192,155426,1,0,0:0:0
256,192,155470,1,8,0:0:0
256,192,155604,1,0,0:0:0
256,192,155648,1,0,0:0:0
256,192,155692,1,0,0:0:0
256,192,155737,1,8,0:0:0
256,192,155870,1,8,0:0:0
256,192,155915,1,0,0:0:0
256,192,155959,1,0,0:0:0
256,192,156004,1,8,0:0:0
256,192,156137,1,0,0:0:0
256,192,156404,1,8,0:0:0
256,192,156537,1,0,0:0:0
256,192,156670,1,8,0:0:0
256,192,156804,1,8,0:0:0
256,192,156937,1,0,0:0:0
256,192,157004,1,0,0:0:0
256,192,157070,1,0,0:0:0
256,192,157204,1,0,0:0:0
256,192,157337,1,8,0:0:0
256,192,157404,1,0,0:0:0
256,192,157470,1,8,0:0:0
256,192,157604,1,0,0:0:0
256,192,157670,1,0,0:0:0
256,192,157737,1,8,0:0:0
256,192,157804,1,0,0:0:0
256,192,157870,1,8,0:0:0
256,192,158004,1,0,0:0:0
256,192,158137,1,8,0:0:0
256,192,158270,1,0,0:0:0
256,192,158537,1,8,0:0:0
256,192,158670,1,0,0:0:0
256,192,158737,1,0,0:0:0
256,192,158804,1,8,0:0:0
256,192,158937,1,8,0:0:0
256,192,159070,1,0,0:0:0
256,192,159204,1,0,0:0:0
256,192,159337,1,6,0:0:0
256,192,159470,1,0,0:0:0
256,192,159604,1,6,0:0:0
256,192,159737,1,4,0:0:0
256,192,159870,1,0,0:0:0
256,192,160004,1,6,0:0:0
256,192,160137,1,8,0:0:0
256,192,160270,1,6,0:0:0
256,192,160404,1,0,0:0:0
256,192,160537,1,8,0:0:0
256,192,160604,1,8,0:0:0
256,192,160670,1,8,0:0:0
256,192,160804,1,0,0:0:0
256,192,160937,1,8,0:0:0
256,192,161004,1,0,0:0:0
256,192,161070,1,8,0:0:0
256,192,161204,1,0,0:0:0
256,192,161337,1,0,0:0:0
256,192,161470,1,4,0:0:0
256,192,161604,1,8,0:0:0
256,192,161737,1,8,0:0:0
256,192,161870,1,0,0:0:0
256,192,161937,1,0,0:0:0
256,192,162004,1,8,0:0:0
256,192,162137,1,0,0:0:0
256,192,162270,1,8,0:0:0
256,192,162404,1,8,0:0:0
256,192,162537,1,0,0:0:0
256,192,162604,1,0,0:0:0
256,192,162670,1,8,0:0:0
256,192,162804,1,8,0:0:0
256,192,162937,1,4,0:0:0
256,192,163070,1,0,0:0:0
256,192,163204,1,6,0:0:0
256,192,163337,1,4,0:0:0
256,192,163470,1,0,0:0:0
256,192,163604,1,8,0:0:0
256,192,163737,1,4,0:0:0
256,192,163870,1,0,0:0:0
256,192,164004,1,6,0:0:0
256,192,164137,1,4,0:0:0
256,192,164270,1,0,0:0:0
256,192,164404,1,6,0:0:0
256,192,164537,1,0,0:0:0
256,192,164670,1,8,0:0:0
256,192,164937,1,0,0:0:0
256,192,165204,5,8,0:0:0
256,192,165470,5,0,0:0:0
256,192,165737,5,8,0:0:0
256,192,165870,5,0,0:0:0
256,192,166137,5,8,0:0:0
256,192,166270,5,0,0:0:0
256,192,166537,1,0,0:0:0
256,192,166670,5,8,0:0:0
256,192,166804,5,0,0:0:0
256,192,167070,1,0,0:0:0
256,192,167337,1,0,0:0:0
256,192,167604,1,0,0:0:0
256,192,167870,5,8,0:0:0
256,192,168004,5,0,0:0:0
256,192,168270,5,8,0:0:0
256,192,168404,5,0,0:0:0
256,192,168670,1,0,0:0:0
256,192,168804,5,8,0:0:0
256,192,168937,5,0,0:0:0
256,192,169204,1,0,0:0:0
256,192,169470,1,0,0:0:0
256,192,169737,1,0,0:0:0
256,192,170004,5,8,0:0:0
256,192,170137,5,0,0:0:0
256,192,170404,5,8,0:0:0
256,192,170537,5,0,0:0:0
256,192,170804,1,0,0:0:0
256,192,170937,5,8,0:0:0
256,192,171070,5,0,0:0:0
256,192,171337,1,0,0:0:0
256,192,171604,1,0,0:0:0
256,192,171870,1,0,0:0:0
256,192,172137,5,8,0:0:0
256,192,172270,5,0,0:0:0
256,192,172537,5,8,0:0:0
256,192,172670,5,0,0:0:0
256,192,172937,1,0,0:0:0
256,192,173070,5,8,0:0:0
256,192,173204,5,0,0:0:0
256,192,173470,1,0,0:0:0
256,192,173737,1,0,0:0:0
256,192,174004,1,0,0:0:0
256,192,174270,5,8,0:0:0
256,192,174404,5,0,0:0:0
256,192,174670,5,8,0:0:0
256,192,174804,5,0,0:0:0
256,192,175070,1,0,0:0:0
256,192,175204,5,8,0:0:0
256,192,175337,5,0,0:0:0
256,192,175603,1,0,0:0:0
256,192,175870,1,0,0:0:0
256,192,176137,1,0,0:0:0
256,192,176403,5,8,0:0:0
256,192,176537,5,0,0:0:0
256,192,176803,5,8,0:0:0
256,192,176937,5,0,0:0:0
256,192,177203,1,0,0:0:0
256,192,177337,5,8,0:0:0
256,192,177470,5,0,0:0:0
256,192,177736,1,0,0:0:0
256,192,178003,1,0,0:0:0
256,192,178270,1,0,0:0:0
256,192,178536,5,8,0:0:0
256,192,178670,5,0,0:0:0
256,192,178936,5,8,0:0:0
256,192,179070,5,0,0:0:0
256,192,179336,1,0,0:0:0
256,192,179470,5,8,0:0:0
256,192,179604,5,0,0:0:0
256,192,179870,1,0,0:0:0
256,192,180137,1,0,0:0:0
256,192,180404,1,0,0:0:0
256,192,180670,12,0,181470,0:0:0
256,192,181737,5,4,0:0:0
256,192,181870,5,8,0:0:0
256,192,182004,1,8,0:0:0
256,192,182137,1,0,0:0:0
256,192,182204,1,0,0:0:0
256,192,182270,1,8,0:0:0
256,192,182337,1,8,0:0:0
256,192,182404,1,0,0:0:0
256,192,182470,1,0,0:0:0
256,192,182537,1,0,0:0:0
256,192,182604,1,0,0:0:0
256,192,182670,1,8,0:0:0
256,192,182804,1,8,0:0:0
256,192,182937,1,0,0:0:0
256,192,183070,1,8,0:0:0
256,192,183137,1,8,0:0:0
256,192,183204,1,0,0:0:0
256,192,183270,1,0,0:0:0
256,192,183337,1,8,0:0:0
256,192,183470,1,0,0:0:0
256,192,183604,1,0,0:0:0
256,192,183670,1,0,0:0:0
256,192,183737,1,8,0:0:0
256,192,183870,1,0,0:0:0
256,192,184004,1,8,0:0:0
256,192,184137,1,8,0:0:0
256,192,184270,1,0,0:0:0
256,192,184337,1,0,0:0:0
256,192,184404,1,8,0:0:0
256,192,184470,1,8,0:0:0
256,192,184537,1,0,0:0:0
256,192,184670,1,0,0:0:0
256,192,184804,1,8,0:0:0
256,192,184937,1,8,0:0:0
256,192,185004,1,8,0:0:0
256,192,185070,1,0,0:0:0
256,192,185137,1,0,0:0:0
256,192,185204,1,8,0:0:0
256,192,185270,1,0,0:0:0
256,192,185337,1,8,0:0:0
256,192,185404,1,0,0:0:0
256,192,185470,1,8,0:0:0
256,192,185537,1,8,0:0:0
256,192,185604,1,0,0:0:0
256,192,185670,1,8,0:0:0
256,192,185737,1,0,0:0:0
256,192,185804,1,0,0:0:0
256,192,185870,1,8,0:0:0
256,192,185937,1,8,0:0:0
256,192,186004,1,0,0:0:0
256,192,186270,1,8,0:0:0
256,192,186404,1,0,0:0:0
256,192,186537,1,8,0:0:0
256,192,186604,1,8,0:0:0
256,192,186670,1,0,0:0:0
256,192,186737,1,0,0:0:0
256,192,186804,1,0,0:0:0
256,192,186870,1,0,0:0:0
256,192,186937,1,8,0:0:0
256,192,187070,1,8,0:0:0
256,192,187204,1,0,0:0:0
256,192,187337,1,8,0:0:0
256,192,187404,1,8,0:0:0
256,192,187470,1,0,0:0:0
256,192,187604,1,8,0:0:0
256,192,187737,1,0,0:0:0
256,192,187870,1,0,0:0:0
256,192,187937,1,0,0:0:0
256,192,188004,1,8,0:0:0
256,192,188137,1,0,0:0:0
256,192,188270,1,8,0:0:0
256,192,188337,1,0,0:0:0
256,192,188404,1,8,0:0:0
256,192,188537,1,0,0:0:0
256,192,188604,1,0,0:0:0
256,192,188670,1,8,0:0:0
256,192,188737,1,8,0:0:0
256,192,188804,1,0,0:0:0
256,192,188937,1,0,0:0:0
256,192,189070,1,8,0:0:0
256,192,189137,1,0,0:0:0
256,192,189204,1,8,0:0:0
256,192,189337,1,0,0:0:0
256,192,189470,1,8,0:0:0
256,192,189537,1,8,0:0:0
256,192,189604,1,0,0:0:0
256,192,189670,1,0,0:0:0
256,192,189737,1,8,0:0:0
256,192,189804,1,0,0:0:0
256,192,189870,1,0,0:0:0
256,192,190004,1,6,0:0:0
256,192,190137,1,4,0:0:0
256,192,190270,1,6,0:0:0
256,192,190537,1,8,0:0:0
256,192,190670,1,0,0:0:0
256,192,190737,1,0,0:0:0
256,192,190804,1,8,0:0:0
256,192,190937,1,0,0:0:0
256,192,191070,1,0,0:0:0
256,192,191204,1,8,0:0:0
256,192,191270,1,0,0:0:0
256,192,191337,1,8,0:0:0
256,192,191404,1,8,0:0:0
256,192,191470,1,0,0:0:0
256,192,191537,1,0,0:0:0
256,192,191604,1,8,0:0:0
256,192,191670,1,0,0:0:0
256,192,191737,1,0,0:0:0
256,192,191804,1,0,0:0:0
256,192,191870,1,8,0:0:0
256,192,191937,1,8,0:0:0
256,192,192004,1,0,0:0:0
256,192,192137,1,0,0:0:0
256,192,192270,1,8,0:0:0
256,192,192404,1,0,0:0:0
256,192,192537,1,8,0:0:0
256,192,192604,1,8,0:0:0
256,192,192670,1,8,0:0:0
256,192,192804,1,0,0:0:0
256,192,192870,1,0,0:0:0
256,192,192937,1,8,0:0:0
256,192,193004,1,8,0:0:0
256,192,193070,1,0,0:0:0
256,192,193204,1,0,0:0:0
256,192,193337,1,8,0:0:0
256,192,193404,1,0,0:0:0
256,192,193470,1,8,0:0:0
256,192,193604,1,0,0:0:0
256,192,193737,1,8,0:0:0
256,192,193870,1,0,0:0:0
256,192,194004,1,8,0:0:0
256,192,194070,1,8,0:0:0
256,192,194137,1,0,0:0:0
256,192,194204,1,8,0:0:0
256,192,194270,1,0,0:0:0
256,192,194404,1,8,0:0:0
256,192,194537,1,0,0:0:0
256,192,194670,1,8,0:0:0
256,192,194804,1,8,0:0:0
256,192,194870,1,8,0:0:0
256,192,194937,1,0,0:0:0
256,192,195070,1,8,0:0:0
256,192,195204,1,0,0:0:0
256,192,195337,1,0,0:0:0
256,192,195404,1,0,0:0:0
256,192,195470,1,8,0:0:0
256,192,195537,1,0,0:0:0
256,192,195604,1,8,0:0:0
256,192,195737,1,0,0:0:0
256,192,195870,1,8,0:0:0
256,192,196004,1,0,0:0:0
256,192,196137,1,8,0:0:0
256,192,196270,1,0,0:0:0
256,192,196404,1,0,0:0:0
256,192,196470,1,0,0:0:0
256,192,196537,1,8,0:0:0
256,192,196604,1,8,0:0:0
256,192,196670,1,0,0:0:0
256,192,196804,1,8,0:0:0
256,192,196937,1,8,0:0:0
256,192,197070,1,0,0:0:0
256,192,197137,1,0,0:0:0
256,192,197204,1,8,0:0:0
256,192,197337,1,0,0:0:0
256,192,197470,1,0,0:0:0
256,192,197604,1,8,0:0:0
256,192,197737,1,4,0:0:0
256,192,197870,1,8,0:0:0
256,192,198004,1,8,0:0:0
256,192,198070,1,0,0:0:0
256,192,198137,1,8,0:0:0
256,192,198270,1,8,0:0:0
256,192,198337,1,0,0:0:0
256,192,198404,1,8,0:0:0
256,192,198537,1,8,0:0:0
256,192,198604,1,0,0:0:0
256,192,198670,1,8,0:0:0
256,192,198804,1,4,0:0:0
256,192,198937,1,0,0:0:0
256,192,199004,1,0,0:0:0
256,192,199070,5,8,0:0:0
256,192,199204,5,0,0:0:0
256,192,199337,5,8,0:0:0
256,192,199470,5,0,0:0:0
256,192,199537,1,0,0:0:0
256,192,199604,1,0,0:0:0
256,192,199737,5,8,0:0:0
256,192,199870,1,8,0:0:0
256,192,199937,5,0,0:0:0
256,192,200004,5,8,0:0:0
256,192,200070,5,0,0:0:0
256,192,200137,1,0,0:0:0
256,192,200270,1,0,0:0:0
256,192,200404,5,8,0:0:0
256,192,200537,5,0,0:0:0
256,192,200604,1,0,0:0:0
256,192,200670,5,8,0:0:0
256,192,200804,1,8,0:0:0
256,192,200937,5,0,0:0:0
256,192,201070,5,8,0:0:0
256,192,201204,1,8,0:0:0
256,192,201270,1,8,0:0:0
256,192,201337,5,0,0:0:0
256,192,201470,1,0,0:0:0
256,192,201515,1,0,0:0:0
256,192,201559,1,0,0:0:0
256,192,201604,1,0,0:0:0
256,192,201737,1,0,0:0:0
256,192,201804,1,0,0:0:0
256,192,201870,5,8,0:0:0
256,192,202004,5,0,0:0:0
256,192,202048,1,0,0:0:0
256,192,202092,1,0,0:0:0
256,192,202137,5,8,0:0:0
256,192,202270,5,4,0:0:0
256,192,202404,1,4,0:0:0
256,192,202537,5,12,0:0:0
256,192,202670,5,0,0:0:0
256,192,202737,1,0,0:0:0
256,192,202804,5,8,0:0:0
256,192,202870,1,8,0:0:0
256,192,202937,1,8,0:0:0
256,192,203004,1,8,0:0:0
256,192,203070,5,0,0:0:0
256,192,203337,5,8,0:0:0
256,192,203404,1,8,0:0:0
256,192,203470,5,0,0:0:0
256,192,203604,5,8,0:0:0
256,192,203670,1,8,0:0:0
256,192,203737,1,8,0:0:0
256,192,203870,5,4,0:0:0
256,192,204004,5,12,0:0:0
256,192,204137,5,0,0:0:0
256,192,204204,1,0,0:0:0
256,192,204270,1,0,0:0:0
256,192,204404,1,0,0:0:0
256,192,204537,1,0,0:0:0
256,192,204670,1,0,0:0:0
256,192,204715,1,0,0:0:0
256,192,204759,1,0,0:0:0
256,192,204804,5,8,0:0:0
256,192,204937,1,8,0:0:0
256,192,205070,1,8,0:0:0
256,192,205137,1,8,0:0:0
256,192,205204,1,8,0:0:0
256,192,205337,5,0,0:0:0
256,192,205404,1,0,0:0:0
256,192,205470,5,8,0:0:0
256,192,205537,5,0,0:0:0
256,192,205604,1,0,0:0:0
256,192,205670,1,0,0:0:0
256,192,205737,5,8,0:0:0
256,192,205870,5,0,0:0:0
256,192,206004,1,0,0:0:0
256,192,206070,1,0,0:0:0
256,192,206137,5,8,0:0:0
256,192,206270,1,8,0:0:0
256,192,206404,5,4,0:0:0
256,192,206537,1,4,0:0:0
256,192,206670,1,4,0:0:0
256,192,206804,1,0,0:0:0
256,192,206937,5,8,0:0:0
256,192,207070,5,0,0:0:0
256,192,207204,5,8,0:0:0
256,192,207248,1,8,0:0:0
256,192,207292,1,8,0:0:0
256,192,207337,5,0,0:0:0
256,192,207604,5,8,0:0:0
256,192,207670,5,0,0:0:0
256,192,207737,1,0,0:0:0
256,192,207804,1,0,0:0:0
256,192,207870,5,8,0:0:0
256,192,207937,1,8,0:0:0
256,192,208004,1,8,0:0:0
256,192,208070,5,0,0:0:0
256,192,208137,5,8,0:0:0
256,192,208204,5,0,0:0:0
256,192,208270,5,8,0:0:0
256,192,208404,1,12,0:0:0
256,192,208537,5,4,0:0:0
256,192,208670,5,12,0:0:0
256,192,208804,5,4,0:0:0
256,192,208937,5,12,0:0:0
256,192,209070,5,4,0:0:0
256,192,209203,5,12,0:0:0
256,192,209337,1,12,0:0:0
256,192,209470,5,0,0:0:0
256,192,209604,1,0,0:0:0
256,192,209670,1,0,0:0:0
256,192,209737,5,8,0:0:0
256,192,209870,5,0,0:0:0
256,192,210004,5,8,0:0:0
256,192,210070,1,8,0:0:0
256,192,210137,5,0,0:0:0
256,192,210204,1,0,0:0:0
256,192,210270,5,8,0:0:0
256,192,210337,5,0,0:0:0
256,192,210404,5,8,0:0:0
256,192,210470,5,0,0:0:0
256,192,210537,5,8,0:0:0
256,192,210670,5,0,0:0:0
256,192,210804,1,0,0:0:0
256,192,210870,1,0,0:0:0
256,192,210937,1,0,0:0:0
256,192,211070,5,8,0:0:0
256,192,211137,1,8,0:0:0
256,192,211204,1,8,0:0:0
256,192,211270,1,8,0:0:0
256,192,211337,5,0,0:0:0
256,192,211470,5,8,0:0:0
256,192,211604,5,0,0:0:0
256,192,211670,1,0,0:0:0
256,192,211737,1,0,0:0:0
256,192,211870,5,8,0:0:0
256,192,212004,5,0,0:0:0
256,192,212137,5,8,0:0:0
256,192,212270,1,8,0:0:0
256,192,212315,1,8,0:0:0
256,192,212359,1,8,0:0:0
256,192,212404,1,8,0:0:0
256,192,212537,1,8,0:0:0
256,192,212670,5,0,0:0:0
256,192,212737,1,0,0:0:0
256,192,212804,1,0,0:0:0
256,192,212937,1,0,0:0:0
256,192,213070,1,0,0:0:0
256,192,213204,5,12,0:0:0
256,192,213337,5,0,0:0:0
256,192,213470,1,0,0:0:0
256,192,213604,5,12,0:0:0
256,192,213737,5,0,0:0:0
256,192,213870,5,8,0:0:0
256,192,214004,5,0,0:0:0
256,192,214137,5,12,0:0:0
256,192,214404,5,4,0:0:0
256,192,214537,5,12,0:0:0
256,192,214804,5,0,0:0:0
256,192,214937,1,0,0:0:0
256,192,215070,5,8,0:0:0
256,192,215204,5,0,0:0:0
256,192,215270,1,0,0:0:0
256,192,215337,5,8,0:0:0
256,192,215404,5,0,0:0:0
224,192,215470,1,0,0:0:0
224,192,215537,1,0,0:0:0
224,192,215604,5,8,0:0:0
224,192,215737,1,8,0:0:0
224,192,215870,5,0,0:0:0
224,192,216004,1,0,0:0:0
224,192,216070,1,0,0:0:0
224,192,216137,5,8,0:0:0
224,192,216204,1,8,0:0:0
224,192,216270,1,8,0:0:0
224,192,216337,1,8,0:0:0
224,192,216404,5,0,0:0:0
224,192,216470,1,0,0:0:0
224,192,216537,1,0,0:0:0
224,192,216604,1,0,0:0:0
224,192,216670,5,8,0:0:0
224,192,216737,5,0,0:0:0
224,192,216804,5,8,0:0:0
224,192,216870,5,0,0:0:0
224,192,216937,5,8,0:0:0
224,192,217004,1,8,0:0:0
224,192,217070,5,0,0:0:0
