osu file format v14

[General]
AudioFilename: Po Pi Po (Ryu Remix) + TF2 [MaD] feat. Ippon Manzoku..mp3
AudioLeadIn: 0
PreviewTime: 12766
Countdown: 0
SampleSet: Normal
StackLeniency: 0.7
Mode: 0
LetterboxInBreaks: 0
WidescreenStoryboard: 0

[Editor]
Bookmarks: 2434,3503,6354,6532,15084,15440,16509,16687,17044,17756,17935,22745,23101,23458,23636,23814,24527,27912,28090,32723,33435,36108,36464,36820,36999,37355,37711,38424,38602,38780,39137,39404,39671,39849,40027,40206,40384,40918,44125,44482,44660,44838,45194,45551,46085,46263,46620,46976,47689,48401,49114,49292,49470,49649,49827,51252,51965,52143,52499,55528,61230,71920,72187,72454
DistanceSpacing: 1.2
BeatDivisor: 2
GridSize: 4
TimelineZoom: 1.25

[Metadata]
Title:Po Pi Po (Ryu* Remix) + TF2 [MaD] feat. Ippon Manzoku.
TitleUnicode:Po Pi Po (Ryu☆ Remix) + TF2 [MaD] feat. Ippon Manzoku.
Artist:wazgul
ArtistUnicode:wazgul
Creator:BigEarsMau
Version:Normal
Source:
Tags:hatsune miku team fortress 2 zorefire Baraatje123 Raiden NolanM Nuolong Ameth Rianno
BeatmapID:735990
BeatmapSetID:332436

[Difficulty]
HPDrainRate:4
CircleSize:3
OverallDifficulty:4
ApproachRate:5
SliderMultiplier:1.1
SliderTickRate:1

[Events]
//Background and Video events
0,0,"OSU BG 2.jpg",0,0
Video,0,"optc.flv"
//Break Periods
//Storyboard Layer 0 (Background)
//Storyboard Layer 1 (Fail)
//Storyboard Layer 2 (Pass)
//Storyboard Layer 3 (Foreground)
//Storyboard Sound Samples

[TimingPoints]
1365.44387157835,356.294536817102,4,1,0,80,1,0
24168,-100,4,1,0,80,0,1
32719,-100,4,1,0,80,0,0
44120,-125,4,1,0,80,0,0
46971,-100,4,1,0,80,0,0

[Colours]
Combo1 : 128,255,128
Combo2 : 0,206,206
Combo3 : 0,225,0
Combo4 : 0,145,0

[HitObjects]
92,248,1365,5,4,0:0:0:0:
212,188,1721,1,0,0:0:0:0:
240,316,2078,2,0,P|288:292|332:240,1,110
384,132,2790,1,0,0:0:0:0:
264,76,3146,1,0,0:0:0:0:
132,68,3503,2,0,P|88:112|72:180,1,110
200,180,4215,5,4,0:0:0:0:
320,236,4572,1,0,0:0:0:0:
448,212,4928,2,0,P|448:268|420:320,1,110
296,336,5640,1,0,0:0:0:0:
192,252,5997,1,0,0:0:0:0:
80,180,6353,2,0,P|119:137|179:120,1,110
284,180,7066,5,4,0:0:0:0:
416,184,7422,1,0,0:0:0:0:
336,76,7778,2,0,P|280:64|224:84,1,110
124,156,8491,1,0,0:0:0:0:
180,276,8847,1,0,0:0:0:0:
308,252,9203,2,0,P|336:240|364:208,2,55
248,132,9916,5,0,0:0:0:0:
372,92,10272,1,0,0:0:0:0:
459,191,10629,2,0,P|471:231|471:259,2,55
372,92,11341,1,0,0:0:0:0:
248,132,11697,1,0,0:0:0:0:
124,92,12054,1,0,0:0:0:0:
308,280,12766,6,0,P|352:244|376:172,1,110
332,76,13479,1,0,0:0:0:0:
244,176,13835,1,0,0:0:0:0:
208,48,14192,2,0,P|156:68|128:124,1,110
244,176,14904,1,0,0:0:0:0:
156,272,15260,2,0,L|84:272,1,55
36,272,15617,5,2,0:0:0:0:
116,164,15973,2,0,B|176:116|256:168,1,110,2|2,0:0|0:0,0:0:0:0:
336,216,16686,1,2,0:0:0:0:
228,292,17042,2,0,B|176:288|176:288|100:232,2,110,2|2|2,0:0|0:0|0:0,0:0:0:0:
220,160,18111,1,0,0:0:0:0:
348,136,18467,6,0,P|404:124|456:136,1,110
404,256,19180,1,0,0:0:0:0:
272,244,19536,1,0,0:0:0:0:
192,136,19892,2,0,P|148:168|132:228,1,110
196,336,20605,1,0,0:0:0:0:
324,300,20961,2,0,L|388:256,1,55
424,232,21317,6,0,B|436:172|400:120,1,110,2|2,0:0|0:0,0:0:0:0:
297,204,22030,1,2,0:0:0:0:
228,92,22386,1,2,0:0:0:0:
100,116,22743,2,0,L|12:100,2,55,2|2|2,0:0|0:0|0:0,0:0:0:0:
208,192,23455,2,0,L|296:208,2,55,2|2|2,0:0|0:0|0:0,0:0:0:0:
336,148,24168,6,0,B|368:204|340:252,1,110,4|8,0:0|0:0,0:0:0:0:
244,344,24880,1,0,0:0:0:0:
124,292,25237,1,8,0:0:0:0:
100,164,25593,2,0,B|92:96|152:52,1,110,0|8,0:0|0:0,0:0:0:0:
232,160,26306,1,0,0:0:0:0:
328,252,26662,2,0,L|416:300,1,55,8|0,0:0|0:0,0:0:0:0:
436,308,27018,6,0,P|448:252|428:188,1,110,4|8,0:2|0:1,0:2:0:0:
368,88,27731,1,0,0:0:0:0:
240,60,28087,1,8,0:0:0:0:
120,112,28443,2,0,B|56:144|68:216,2,110,0|8|0,0:0|0:0|0:0,0:0:0:0:
248,148,29512,1,8,0:0:0:0:
368,92,29869,6,0,B|408:160|344:240,1,110,4|8,0:0|0:0,0:0:0:0:
300,308,30581,1,0,0:0:0:0:
168,316,30937,2,0,L|120:256,1,55,8|0,0:0|0:0,0:0:0:0:
100,216,31294,2,0,P|96:156|128:112,1,110,0|10,0:0|0:0,0:0:0:0:
248,68,32006,1,2,0:0:0:0:
368,124,32363,1,10,0:0:0:0:
436,236,32719,6,0,B|328:296,1,110,0|8,0:0|0:0,0:0:0:0:
220,236,33431,2,0,B|328:176,1,110,0|8,0:0|0:0,0:0:0:0:
440,132,34144,2,0,B|432:56|348:52,1,110,0|10,0:0|0:0,0:0:0:0:
244,24,34857,1,2,0:0:0:0:
292,152,35213,1,10,0:0:0:0:
292,152,35569,6,0,L|136:108,1,110,4|8,0:0|0:0,0:0:0:0:
72,56,36282,2,0,P|60:116|80:180,1,110,0|8,0:0|0:0,0:0:0:0:
92,224,36816,1,0,0:0:0:0:
144,264,36994,2,0,P|200:276|268:260,1,110,0|8,0:0|0:0,0:0:0:0:
376,216,37707,1,0,1:2:0:0:
360,88,38063,1,2,1:0:0:0:
228,80,38420,6,0,B|212:136|248:196,1,110,0|8,0:0|0:0,0:0:0:0:
352,260,39132,1,0,1:0:0:0:
444,164,39488,1,8,0:0:0:0:
440,32,39845,2,0,L|312:32,1,110,0|8,0:0|0:0,0:0:0:0:
228,116,40557,1,0,0:0:0:0:
136,216,40914,1,2,0:0:0:0:
136,216,41270,6,0,L|264:304,1,110,4|8,0:2|0:0,0:0:0:0:
356,260,41983,2,0,P|384:224|392:148,1,110,0|8,0:0|0:0,0:0:0:0:
372,100,42517,1,0,0:0:0:0:
316,68,42695,2,6,P|264:52|192:80,1,110,6|6,0:2|0:2,0:2:0:0:
100,136,43408,1,6,0:2:0:0:
244,292,44120,6,0,B|336:332|444:264,1,176
440,180,45189,1,8,0:0:0:0:
404,80,45545,2,0,B|312:40|204:108,1,176
156,164,46614,1,8,0:0:0:0:
156,164,46971,6,0,L|84:144,2,55,4|0|0,0:2|0:0|0:0,0:0:0:0:
256,252,47683,2,0,L|256:336,2,55,4|0|0,0:2|0:2|0:2,0:0:0:0:
356,164,48396,2,0,L|428:144,2,55,4|0|0,0:2|0:0|0:0,0:0:0:0:
256,78,49108,1,0,0:0:0:0:
128,108,49465,1,0,0:0:0:0:
128,108,49821,6,0,B|80:156|128:228,1,110,4|8,0:0|0:0,0:0:0:0:
240,264,50534,1,0,0:0:0:0:
360,212,50890,1,8,0:0:0:0:
468,132,51246,2,0,B|448:72|384:76,1,110,0|8,0:0|0:0,0:0:0:0:
252,76,51959,1,2,0:0:0:0:
252,76,52315,1,2,0:0:0:0:
132,128,52671,6,0,B|78:172|110:236,1,110,0|8,0:0|0:0,0:0:0:0:
216,300,53384,1,0,0:0:0:0:
336,248,53740,1,8,0:0:0:0:
216,196,54097,2,0,L|216:48,1,110,0|8,0:0|0:0,0:0:0:0:
344,56,54809,2,0,L|380:100,1,55
400,160,55165,2,0,L|400:252,1,55
400,280,55522,1,4,0:0:0:0:
272,308,55878,6,0,L|160:308,1,110,8|0,0:0|0:0,0:0:0:0:
100,192,56591,2,0,L|210:192,1,110,8|0,0:0|0:0,0:0:0:0:
280,80,57303,2,0,L|168:80,1,110,8|2,0:0|0:0,0:0:0:0:
48,132,58016,1,10,0:0:0:0:
52,264,58372,6,0,L|52:336,2,55,6|2|2,0:0|0:0|0:0,0:0:0:0:
184,244,59085,2,0,L|184:180,2,55,2|2|2,0:0|0:0|0:0,0:0:0:0:
72,176,59797,2,0,P|104:84|216:56,1,220
344,88,60866,1,0,0:0:0:0:
464,144,61222,6,0,B|492:200|464:256,1,110,4|0,0:0|0:0,0:0:0:0:
340,196,61935,2,0,L|280:196,1,55
92,244,62648,2,0,B|52:184|108:112,1,110
208,200,63360,1,0,0:0:0:0:
152,320,63716,1,8,0:0:0:0:
284,308,64073,6,0,B|340:316|384:272,1,110
288,180,64785,2,0,L|252:116,1,55
64,168,65498,1,4,0:2:0:0:
140,60,65854,2,4,B|188:32|256:56,1,110,4|4,0:2|0:2,0:2:0:0:
196,176,66567,1,8,0:0:0:0:
316,120,66923,6,0,P|332:168|300:256,1,110,4|0,0:0|0:0,0:0:0:0:
236,328,67636,2,0,L|212:256,1,55
179,83,68348,2,0,B|125:58|73:90,1,110,2|2,0:0|0:0,0:0:0:0:
136,204,69061,1,2,0:0:0:0:
252,268,69417,1,2,0:0:0:0:
368,204,69773,5,4,0:0:0:0:
256,192,70130,12,4,72624,0:0:0:0:
