osu file format v14

[General]
AudioFilename: Kirameki.mp3
AudioLeadIn: 2000
PreviewTime: 50895
Countdown: 0
SampleSet: Soft
StackLeniency: 0.7
Mode: 0
LetterboxInBreaks: 0
WidescreenStoryboard: 0

[Editor]
DistanceSpacing: 1.1
BeatDivisor: 4
GridSize: 32
TimelineZoom: 0.6999999

[Metadata]
Title:Kirameki-TV Size Ending Theme Ver.-
TitleUnicode:キラメキ-TV Size エンディング・テーマ Ver.-
Artist:wacci
ArtistUnicode:wacci
Creator:KantoKun
Version:Easy
Source:四月は君の嘘
Tags:Shigatsu wa Kimi no Uso Your Lie in April Ending
BeatmapID:565172
BeatmapSetID:244511

[Difficulty]
HPDrainRate:3
CircleSize:3
OverallDifficulty:3
ApproachRate:3
SliderMultiplier:1
SliderTickRate:1

[Events]
//Background and Video events
0,0,"BG.jpg",0,0
Video,6740,"PV.avi"
//Break Periods
//Storyboard Layer 0 (Background)
//Storyboard Layer 1 (Fail)
//Storyboard Layer 2 (Pass)
//Storyboard Layer 3 (Foreground)
//Storyboard Sound Samples

[TimingPoints]
232,612.244897959184,4,2,1,40,1,0
8956,-100,4,2,1,60,0,0
51660,-100,4,2,1,70,0,1
84109,-100,4,2,1,60,0,0
89619,-100,4,2,1,5,0,0

[Colours]
Combo1 : 255,128,128
Combo2 : 128,255,128
Combo3 : 255,255,128
Combo4 : 128,255,255

[HitObjects]
81,104,232,6,0,P|131:82|181:87,1,100,4|0,0:0|0:0,0:0:0:0:
251,115,1303,2,0,P|296:145|385:143,1,125,2|0,0:0|0:0,0:0:0:0:
462,97,2680,1,0,0:0:0:0:
366,149,3293,2,0,P|358:213|355:238,1,75,0|2,0:0|0:0,0:0:0:0:
247,306,4517,1,0,0:0:0:0:
164,232,5129,6,0,P|119:217|61:224,1,100
47,301,6201,2,0,P|105:319|184:306,1,125,2|0,0:0|0:0,0:0:0:0:
275,287,7578,2,0,P|330:265|434:319,1,175,0|2,0:0|0:0,0:0:0:0:
499,192,9415,1,8,0:0:0:0:
404,135,10027,6,0,P|400:68|398:19,1,100,2|8,3:0|0:0,0:0:0:0:
319,60,11099,2,0,P|252:56|176:51,1,125,8|8,0:0|0:0,0:0:0:0:
96,2,12476,2,0,P|83:51|97:102,1,100,0|8,3:0|0:0,0:0:0:0:
132,171,13548,2,0,P|151:230|121:300,1,125,8|8,0:0|0:0,0:0:0:0:
39,230,14925,5,0,3:0:0:0:
24,120,15538,1,8,0:0:0:0:
93,76,15997,2,0,P|145:69|216:109,1,125,8|8,0:0|0:0,0:0:0:0:
272,189,17374,2,0,P|313:185|376:180,1,100,0|8,3:0|0:0,0:0:0:0:
447,212,18446,1,8,0:0:0:0:
386,335,19211,2,0,P|345:339|282:344,1,100,8|0,0:0|3:0,0:0:0:0:
176,353,20436,5,8,0:0:0:0:
105,309,20895,2,0,P|89:267|98:187,1,125,8|8,0:0|0:0,0:0:0:0:
193,135,22272,2,0,P|201:86|194:37,1,100,0|8,3:0|0:0,0:0:0:0:
276,31,23344,2,0,L|320:29|408:25,1,125,8|8,0:0|0:0,0:0:0:0:
466,113,24721,5,0,3:0:0:0:
400,201,25334,2,0,P|356:203|309:205,1,75,8|8,0:0|0:0,0:0:0:0:
198,257,26558,2,0,P|196:213|192:146,1,100,8|0,0:0|3:0,0:0:0:0:
130,61,27783,2,0,P|169:64|220:44,1,75,8|8,0:0|0:0,0:0:0:0:
316,131,29007,6,0,P|369:118|429:132,1,100,8|2,0:0|3:0,0:0:0:0:
500,192,30232,1,8,0:0:0:0:
431,237,30691,2,0,P|426:293|418:367,1,125,8|8,0:0|0:0,0:0:0:0:
309,353,32068,2,0,P|314:297|318:248,1,100,0|8,3:0|0:0,0:0:0:0:
276,179,33140,1,8,0:0:0:0:
140,205,33905,1,8,0:0:0:0:
66,122,34517,6,0,P|54:69|70:18,1,100,0|8,3:0|0:0,0:0:0:0:
134,71,35589,2,0,P|196:67|268:61,1,125,8|8,0:0|0:0,0:0:0:0:
344,130,36966,2,0,P|340:192|337:235,1,100,0|8,3:0|0:0,0:0:0:0:
287,295,38038,2,0,P|319:308|403:278,1,125,10|8,0:0|0:0,0:0:0:0:
340,189,39415,6,0,P|289:193|233:196,1,100,4|8,3:2|0:0,0:0:0:0:
188,259,40487,2,0,P|131:254|72:301,1,125,8|8,0:0|0:0,0:0:0:0:
34,190,41864,2,0,P|21:141|31:87,1,100,0|8,3:0|0:0,0:0:0:0:
109,74,42936,2,0,P|124:135|114:200,1,125,8|8,0:0|0:0,0:0:0:0:
138,303,44313,6,0,P|215:298|249:296,1,100,4|8,3:2|0:0,0:0:0:0:
287,270,45232,2,0,B|347:288|365:250|434:268,1,150,2|8,3:0|0:0,0:0:0:0:
493,172,46762,2,0,P|516:113|492:24,1,150,4|2,3:2|3:0,0:0:0:0:
347,101,48599,1,8,0:0:0:0:
252,44,49211,6,0,P|202:41|148:38,1,100,2|8,0:0|0:0,0:0:0:0:
147,148,50436,2,0,P|197:151|251:154,1,100,8|4,0:0|0:3,0:0:0:0:
347,101,51660,6,0,P|397:95|453:118,1,100,2|8,3:0|0:0,0:0:0:0:
435,220,52885,2,0,P|385:226|329:203,1,100,2|8,0:0|0:0,0:0:0:0:
244,152,54109,1,0,3:0:0:0:
134,147,54721,1,8,0:0:0:0:
43,209,55334,2,0,P|40:263|37:309,1,100,2|8,0:0|0:0,0:0:0:0:
135,357,56558,6,0,P|138:303|141:257,1,100,0|8,3:0|0:0,0:0:0:0:
176,152,57783,2,0,P|172:107|167:52,1,100,2|8,0:0|0:0,0:0:0:0:
275,95,59007,2,0,P|333:101|381:78,1,100,0|8,3:0|0:0,0:0:0:0:
474,48,60232,1,2,0:0:0:0:
457,156,60844,1,8,0:0:0:0:
442,265,61456,6,0,P|449:316|453:367,1,100,4|8,3:2|0:0,0:0:0:0:
344,346,62680,2,0,P|293:353|242:357,1,100,2|8,0:0|0:0,0:0:0:0:
261,247,63905,2,0,P|254:196|250:145,1,100,0|8,3:0|0:0,0:0:0:0:
358,167,65129,2,0,P|409:160|460:156,2,100,2|8|0,0:0|0:0|3:0,0:0:0:0:
250,147,66966,5,8,0:0:0:0:
291,249,67578,2,0,P|286:298|280:348,1,100,2|8,0:0|0:0,0:0:0:0:
171,333,68803,2,0,P|175:283|181:233,1,100,0|8,3:0|0:0,0:0:0:0:
250,147,70027,1,2,0:0:0:0:
350,191,70640,2,0,L|402:185,1,50,8|4,0:0|0:3,0:0:0:0:
454,180,71252,6,0,P|466:132|453:63,1,100,2|8,3:0|0:0,0:0:0:0:
370,19,72476,1,2,0:0:0:0:
266,56,73089,1,8,0:0:0:0:
163,95,73701,2,0,P|111:91|44:86,1,100,0|8,3:0|0:0,0:0:0:0:
52,196,74925,2,0,P|104:200|171:205,1,100,2|8,0:0|0:0,0:0:0:0:
254,162,76150,6,0,P|259:217|241:268,1,100,0|8,3:0|0:0,0:0:0:0:
171,340,77374,1,2,0:0:0:0:
277,368,77987,1,8,0:0:0:0:
354,290,78599,1,4,3:2:0:0:
460,318,79212,1,8,0:0:0:0:
434,211,79823,2,0,P|425:160|436:111,1,100,2|8,0:0|0:0,0:0:0:0:
365,27,81048,6,0,P|312:32|260:35,1,100,2|8,3:0|0:0,0:0:0:0:
175,98,82272,2,0,P|122:93|70:90,2,100,4|8|8,3:2|0:0|0:0,0:0:0:0:
276,141,84109,2,0,P|283:204|300:347,1,200,2|8,0:3|0:0,0:0:0:0:
393,282,85946,6,0,P|384:219|381:180,1,100,2|8,3:0|0:0,0:0:0:0:
366,101,87017,2,0,P|313:75|241:87,1,125,8|8,0:0|0:0,0:0:0:0:
146,123,88395,6,0,P|92:145|41:135,1,100,2|8,3:2|0:0,0:0:0:0:
87,64,89466,1,2,3:0:0:0:
256,192,89619,12,0,95589,0:0:0:0:
