osu file format v12

[General]
AudioFilename: akasagarbha 7K Insane NK.mp3
AudioLeadIn: 0
PreviewTime: 27500
Countdown: 0
SampleSet: Normal
StackLeniency: 0.7
Mode: 3
LetterboxInBreaks: 0
SpecialStyle: 0

[Editor]
DistanceSpacing: 1.3
BeatDivisor: 4
GridSize: 8

[Metadata]
Title:Akasagarbha
TitleUnicode:Akasagarbha
Artist:wa.vs ETIA.
ArtistUnicode:wa.vs ETIA.
Creator:Luyuja
Version:7K Insane
Source:BMS
Tags:
BeatmapID:270012
BeatmapSetID:97956

[Difficulty]
HPDrainRate:7
CircleSize:7
OverallDifficulty:7
ApproachRate:5
SliderMultiplier:1.4
SliderTickRate:1

[Events]
//Background and Video events
0,0,"title.jpg",0,0
//Break Periods
//Storyboard Layer 0 (Background)
//Storyboard Layer 1 (Fail)
//Storyboard Layer 2 (Pass)
//Storyboard Layer 3 (Foreground)
//Storyboard Sound Samples
//Background Colour Transformations
3,100,163,162,255

[TimingPoints]
0,312.5,4,1,1,5,1,0
47500,-100,4,2,1,5,0,1
67500,-100,4,2,1,5,0,0

[HitObjects]
36,192,2500,1,0,0:0:0:70:piano_sub_a1 - 002.ogg
182,192,2500,1,0,0:0:0:70:piano_sub_a1 - 003.ogg
475,192,2500,1,0,0:0:0:70:piano_sub_a1 - 001.ogg
109,192,3750,1,0,0:0:0:70:piano_sub_a1 - 005.ogg
402,192,3750,1,0,0:0:0:70:piano_sub_a1 - 004.ogg
182,192,3906,1,0,0:0:0:70:piano_sub_a1 - 006.ogg
256,192,4062,1,0,0:0:0:70:piano_sub_a1 - 007.ogg
329,192,4218,1,0,0:0:0:70:piano_sub_a1 - 008.ogg
109,192,4375,1,0,0:0:0:70:piano_sub_a1 - 010.ogg
256,192,4375,1,0,0:0:0:70:piano_sub_a1 - 009.ogg
402,192,4375,1,0,0:0:0:70:piano_sub_a1 - 011.ogg
182,192,4687,1,0,0:0:0:70:piano_sub_a1 - 012.ogg
329,192,4687,1,0,0:0:0:70:piano_sub_a1 - 014.ogg
475,192,4687,1,0,0:0:0:70:piano_sub_a1 - 013.ogg
36,192,5000,1,0,0:0:0:70:piano_sub_a1 - 015.ogg
182,192,5000,1,0,0:0:0:70:piano_sub_a1 - 016.ogg
329,192,5000,1,0,0:0:0:70:piano_sub_a1 - 017.ogg
36,192,5625,1,0,0:0:0:70:piano_sub_a1 - 018.ogg
109,192,5781,1,0,0:0:0:70:piano_sub_a1 - 019.ogg
256,192,5937,1,0,0:0:0:70:piano_sub_a1 - 020.ogg
475,192,6093,1,0,0:0:0:70:piano_sub_a1 - 021.ogg
36,192,6250,1,0,0:0:0:70:piano_sub_a1 - 022.ogg
182,192,6250,1,0,0:0:0:70:piano_sub_a1 - 023.ogg
402,192,6250,1,0,0:0:0:70:piano_sub_a1 - 024.ogg
182,192,6875,1,0,0:0:0:70:piano_sub_a1 - 025.ogg
402,192,6875,1,0,0:0:0:70:piano_sub_a1 - 027.ogg
256,192,7187,1,0,0:0:0:70:piano_sub_a1 - 028.ogg
475,192,7187,1,0,0:0:0:70:piano_sub_a1 - 026.ogg
182,192,7500,1,0,0:0:0:70:piano_sub_a2 - 003.ogg
475,192,7500,1,0,0:0:0:70:piano_sub_a2 - 002.ogg
182,192,7656,1,0,0:0:0:70:piano_sub_a2 - 004.ogg
402,192,7656,1,0,0:0:0:70:piano_sub_a2 - 001.ogg
109,192,7968,1,0,0:0:0:70:piano_sub_a2 - 006.ogg
182,192,7968,1,0,0:0:0:70:piano_sub_a2 - 005.ogg
182,192,8750,1,0,0:0:0:70:piano_sub_a2 - 008.ogg
402,192,8750,1,0,0:0:0:70:piano_sub_a2 - 009.ogg
109,192,8906,1,0,0:0:0:70:piano_sub_a2 - 007.ogg
402,192,8906,1,0,0:0:0:70:piano_sub_a2 - 010.ogg
36,192,9218,1,0,0:0:0:70:piano_sub_a2 - 012.ogg
109,192,9218,1,0,0:0:0:70:piano_sub_a2 - 011.ogg
182,192,9687,1,0,0:0:0:70:piano_sub_a2 - 014.ogg
329,192,9687,1,0,0:0:0:70:piano_sub_a2 - 015.ogg
402,192,9687,1,0,0:0:0:70:piano_sub_a2 - 013.ogg
109,192,10000,1,0,0:0:0:70:piano_sub_a2 - 017.ogg
402,192,10000,1,0,0:0:0:70:piano_sub_a2 - 018.ogg
475,192,10000,1,0,0:0:0:70:piano_sub_a2 - 016.ogg
109,192,10312,1,0,0:0:0:70:piano_sub_a2 - 020.ogg
329,192,10312,1,0,0:0:0:70:piano_sub_a2 - 019.ogg
402,192,10312,1,0,0:0:0:70:piano_sub_a2 - 021.ogg
109,192,10468,1,0,0:0:0:70:piano_sub_a2 - 024.ogg
402,192,10468,1,0,0:0:0:70:piano_sub_a2 - 023.ogg
475,192,10468,1,0,0:0:0:70:piano_sub_a2 - 022.ogg
36,192,11250,1,0,0:0:0:70:piano_sub_a2 - 025.ogg
182,192,11406,1,0,0:0:0:70:piano_sub_a2 - 026.ogg
256,192,11562,1,0,0:0:0:70:piano_sub_a2 - 027.ogg
475,192,11718,1,0,0:0:0:70:piano_sub_a2 - 028.ogg
402,192,11875,1,0,0:0:0:70:piano_sub_a2 - 029.ogg
329,192,12031,1,0,0:0:0:70:piano_sub_a2 - 030.ogg
182,192,12187,1,0,0:0:0:70:piano_sub_a2 - 031.ogg
109,192,12343,1,0,0:0:0:70:piano_sub_a2 - 032.ogg
36,192,12500,1,0,0:0:0:70:piano_sub_a3 - 001.ogg
182,192,12500,1,0,0:0:0:70:piano_sub_a3 - 003.ogg
402,192,12500,1,0,0:0:0:70:piano_sub_a3 - 002.ogg
475,192,12500,1,0,0:0:0:70:kick2.ogg
36,192,12968,1,0,0:0:0:70:piano_sub_a3 - 004.ogg
182,192,12968,1,0,0:0:0:70:piano_sub_a3 - 006.ogg
402,192,12968,1,0,0:0:0:70:piano_sub_a3 - 005.ogg
475,192,12968,1,0,0:0:0:70:kick2.ogg
475,192,13437,1,0,0:0:0:70:clap1.ogg
36,192,13750,1,0,0:0:0:70:piano_sub_a1 - 004.ogg
256,192,13750,1,0,0:0:0:70:piano_sub_a1 - 005.ogg
329,192,13750,1,0,0:0:0:70:hat1.ogg
182,192,13906,1,0,0:0:0:70:piano_sub_a1 - 006.ogg
329,192,14062,1,0,0:0:0:70:piano_sub_a1 - 007.ogg
475,192,14062,1,0,0:0:0:70:clap1.ogg
109,192,14218,1,0,0:0:0:70:piano_sub_a1 - 008.ogg
182,192,14375,1,0,0:0:0:70:piano_sub_a1 - 011.ogg
402,192,14375,1,0,0:0:0:70:piano_sub_a1 - 009.ogg
182,192,14687,1,0,0:0:0:70:piano_sub_a1 - 012.ogg
329,192,14687,1,0,0:0:0:70:piano_sub_a1 - 014.ogg
475,192,14687,1,0,0:0:0:70:clap1.ogg
36,192,15000,1,0,0:0:0:70:piano_sub_a1 - 015.ogg
256,192,15000,1,0,0:0:0:70:piano_sub_a1 - 017.ogg
402,192,15000,1,0,0:0:0:70:piano_sub_a1 - 016.ogg
475,192,15312,1,0,0:0:0:70:clap1.ogg
109,192,15625,1,0,0:0:0:70:piano_sub_a1 - 018.ogg
182,192,15781,1,0,0:0:0:70:piano_sub_a1 - 019.ogg
36,192,15937,1,0,0:0:0:70:clap1.ogg
329,192,15937,1,0,0:0:0:70:piano_sub_a1 - 020.ogg
475,192,16093,1,0,0:0:0:70:piano_sub_a1 - 021.ogg
109,192,16250,1,0,0:0:0:70:piano_sub_a3 - 007.ogg
256,192,16250,1,0,0:0:0:70:piano_sub_a3 - 008.ogg
402,192,16250,1,0,0:0:0:70:piano_sub_a3 - 009.ogg
475,192,16562,1,0,0:0:0:70:clap1.ogg
475,192,17187,1,0,0:0:0:70:clap1.ogg
36,192,17500,1,0,0:0:0:70:piano_sub_a4 - 001.ogg
109,192,17500,1,0,0:0:0:70:hat1.ogg
182,192,17656,1,0,0:0:0:70:piano_sub_a4 - 002.ogg
256,192,17656,1,0,0:0:0:70:hat2.ogg
256,192,17812,1,0,0:0:0:70:piano_sub_a4 - 003.ogg
329,192,17812,1,0,0:0:0:70:clap1.ogg
402,192,17968,1,0,0:0:0:70:piano_sub_a4 - 004.ogg
475,192,17968,1,0,0:0:0:70:hat2.ogg
36,192,18281,1,0,0:0:0:70:piano_sub_a4 - 005.ogg
109,192,18281,1,0,0:0:0:70:hat2.ogg
109,192,18437,1,0,0:0:0:70:clap1.ogg
182,192,18437,1,0,0:0:0:70:piano_sub_a4 - 006.ogg
182,192,18593,1,0,0:0:0:70:hat2.ogg
256,192,18593,1,0,0:0:0:70:piano_sub_a4 - 007.ogg
36,192,18750,1,0,0:0:0:70:piano_sub_a4 - 008.ogg
256,192,18750,1,0,0:0:0:70:hat1.ogg
109,192,18906,1,0,0:0:0:70:piano_sub_a4 - 009.ogg
329,192,18906,1,0,0:0:0:70:hat2.ogg
182,192,19062,1,0,0:0:0:70:piano_sub_a4 - 010.ogg
329,192,19062,1,0,0:0:0:70:clap1.ogg
256,192,19218,1,0,0:0:0:70:piano_sub_a4 - 011.ogg
475,192,19218,1,0,0:0:0:70:hat2.ogg
36,192,19531,1,0,0:0:0:70:piano_sub_a4 - 012.ogg
182,192,19531,1,0,0:0:0:70:hat1.ogg
182,192,19687,1,0,0:0:0:70:clap1.ogg
329,192,19687,1,0,0:0:0:70:piano_sub_a4 - 013.ogg
329,192,19843,1,0,0:0:0:70:piano_sub_a4 - 014.ogg
475,192,19843,1,0,0:0:0:70:hat2.ogg
36,192,20000,1,0,0:0:0:70:piano_sub_a4 - 015.ogg
182,192,20000,1,0,0:0:0:70:hat1.ogg
109,192,20156,1,0,0:0:0:70:hat2.ogg
256,192,20156,1,0,0:0:0:70:piano_sub_a4 - 016.ogg
256,192,20312,1,0,0:0:0:70:piano_sub_a4 - 017.ogg
402,192,20312,1,0,0:0:0:70:clap1.ogg
329,192,20468,1,0,0:0:0:70:piano_sub_a4 - 018.ogg
475,192,20468,1,0,0:0:0:70:hat2.ogg
109,192,20937,1,0,0:0:0:70:piano_sub_a4 - 022.ogg
329,192,20937,1,0,0:0:0:70:piano_sub_a4 - 020.ogg
402,192,20937,1,0,0:0:0:70:clap1.ogg
36,192,21250,1,0,0:0:0:70:piano_sub_a4 - 024.ogg
109,192,21250,1,0,0:0:0:70:piano_sub_a4 - 023.ogg
329,192,21250,1,0,0:0:0:70:piano_sub_a4 - 025.ogg
36,192,21875,1,0,0:0:0:70:piano_main_a1 - 001.ogg
182,192,22187,1,0,0:0:0:70:piano_main_a1 - 002.ogg
36,192,22500,1,0,0:0:0:70:cym.ogg
256,192,22500,1,0,0:0:0:70:piano_main_a1 - 003.ogg
329,192,22500,1,0,0:0:0:70:deepkick.ogg
329,192,23125,1,0,0:0:0:70:piano_main_a1 - 004.ogg
402,192,23750,1,0,0:0:0:70:piano_main_a1 - 005.ogg
182,192,24218,1,0,0:0:0:70:piano_main_a1 - 006.ogg
329,192,24687,1,0,0:0:0:70:piano_main_a1 - 007.ogg
402,192,25000,1,0,0:0:0:70:piano_main_a1 - 008.ogg
475,192,25156,1,0,0:0:0:70:piano_main_a1 - 009.ogg
402,192,25312,1,0,0:0:0:70:piano_main_a1 - 010.ogg
329,192,25468,1,0,0:0:0:70:piano_main_a1 - 011.ogg
182,192,25781,1,0,0:0:0:70:piano_main_a1 - 012.ogg
109,192,25937,1,0,0:0:0:70:piano_main_a1 - 013.ogg
36,192,26250,1,0,0:0:0:70:piano_sub_a5 - 016.ogg
109,192,26250,1,0,0:0:0:70:piano_sub_a5 - 014.ogg
256,192,26250,1,0,0:0:0:70:kick2.ogg
329,192,26250,1,0,0:0:0:70:cym2.ogg
475,192,26250,1,0,0:0:0:70:piano_main_a1 - 014.ogg
36,192,26718,1,0,0:0:0:70:piano_sub_a5 - 016.ogg
109,192,26718,1,0,0:0:0:70:piano_sub_a5 - 014.ogg
256,192,26718,1,0,0:0:0:70:kick2.ogg
329,192,26718,1,0,0:0:0:70:cym2.ogg
475,192,26718,1,0,0:0:0:70:piano_sub_a5 - 015.ogg
36,192,27187,1,0,0:0:0:70:piano_sub_a5 - 016.ogg
109,192,27187,1,0,0:0:0:70:cym2.ogg
256,192,27187,1,0,0:0:0:70:piano_sub_a5 - 014.ogg
329,192,27187,1,0,0:0:0:70:piano_sub_a5 - 015.ogg
475,192,27187,1,0,0:0:0:70:piano_main_b1 - 001.ogg
182,192,27226,1,0,0:0:0:70:kick4.ogg
329,192,27265,1,0,0:0:0:70:kick4.ogg
475,192,27304,1,0,0:0:0:70:kick4.ogg
36,192,27343,1,0,0:0:0:70:kick4.ogg
182,192,27382,1,0,0:0:0:70:kick4.ogg
329,192,27421,1,0,0:0:0:70:kick4.ogg
475,192,27460,1,0,0:0:0:70:kick4.ogg
36,192,27500,1,0,0:0:0:70:cym.ogg
256,192,27500,1,0,0:0:0:70:piano_main_c1 - 001.ogg
402,192,27500,1,0,0:0:0:70:kick2.ogg
109,192,27656,1,0,0:0:0:70:hat2.ogg
402,192,27812,1,0,0:0:0:70:kick2.ogg
109,192,27968,1,0,0:0:0:70:hat2.ogg
256,192,27968,1,0,0:0:0:70:piano_main_c1 - 002.ogg
402,192,28125,1,0,0:0:0:70:kick2.ogg
109,192,28281,1,0,0:0:0:70:hat2.ogg
182,192,28281,1,0,0:0:0:70:piano_main_c1 - 003.ogg
329,192,28437,1,0,0:0:0:70:piano_main_c1 - 004.ogg
402,192,28437,1,0,0:0:0:70:kick2.ogg
256,192,28489,1,0,0:0:0:70:piano_main_c1 - 005.ogg
182,192,28541,1,0,0:0:0:70:piano_main_c1 - 006.ogg
109,192,28593,1,0,0:0:0:70:piano_main_c1 - 007.ogg
402,192,28593,1,0,0:0:0:70:hat2.ogg
182,192,28750,1,0,0:0:0:70:piano_main_c1 - 008.ogg
402,192,28750,1,0,0:0:0:70:kick2.ogg
109,192,28906,1,0,0:0:0:70:hat2.ogg
402,192,29062,1,0,0:0:0:70:kick2.ogg
109,192,29218,1,0,0:0:0:70:hat2.ogg
256,192,29218,1,0,0:0:0:70:piano_main_c1 - 009.ogg
182,192,29375,1,0,0:0:0:70:piano_sub_a1 - 010.ogg
329,192,29375,1,0,0:0:0:70:piano_sub_a1 - 011.ogg
402,192,29375,1,0,0:0:0:70:kick2.ogg
109,192,29531,1,0,0:0:0:70:hat2.ogg
256,192,29687,1,0,0:0:0:70:piano_main_c1 - 010.ogg
402,192,29687,1,0,0:0:0:70:kick2.ogg
109,192,29843,1,0,0:0:0:70:hat2.ogg
182,192,30000,1,0,0:0:0:70:kick2.ogg
256,192,30000,1,0,0:0:0:70:piano_main_c1 - 011.ogg
402,192,30000,1,0,0:0:0:70:piano_sub_a1 - 016.ogg
109,192,30156,1,0,0:0:0:70:hat2.ogg
402,192,30312,1,0,0:0:0:70:kick2.ogg
109,192,30468,1,0,0:0:0:70:hat2.ogg
329,192,30468,1,0,0:0:0:70:piano_main_c1 - 012.ogg
182,192,30625,1,0,0:0:0:70:piano_sub_a1 - 018.ogg
402,192,30625,1,0,0:0:0:70:kick2.ogg
109,192,30781,1,0,0:0:0:70:hat2.ogg
256,192,30781,1,0,0:0:0:70:piano_sub_a1 - 019.ogg
329,192,30937,1,0,0:0:0:70:piano_main_c1 - 013.ogg
402,192,30937,1,0,0:0:0:70:kick2.ogg
109,192,31093,1,0,0:0:0:70:hat2.ogg
182,192,31093,1,0,0:0:0:70:piano_sub_a1 - 021.ogg
256,192,31171,1,0,0:0:0:70:piano_sub_a1 - 024.ogg
329,192,31250,1,0,0:0:0:70:piano_sub_a1 - 022.ogg
402,192,31250,1,0,0:0:0:70:kick2.ogg
109,192,31406,1,0,0:0:0:70:hat2.ogg
402,192,31562,1,0,0:0:0:70:kick2.ogg
109,192,31718,1,0,0:0:0:70:hat2.ogg
182,192,31875,1,0,0:0:0:70:piano_main_c1 - 014.ogg
256,192,31875,1,0,0:0:0:70:piano_sub_a1 - 025.ogg
402,192,31875,1,0,0:0:0:70:kick2.ogg
109,192,32031,1,0,0:0:0:70:hat2.ogg
182,192,32187,1,0,0:0:0:70:piano_main_c1 - 015.ogg
402,192,32187,1,0,0:0:0:70:kick2.ogg
109,192,32343,1,0,0:0:0:70:hat2.ogg
402,192,32343,1,0,0:0:0:70:kick2.ogg
182,192,32500,1,0,0:0:0:70:piano_sub_a2 - 001.ogg
256,192,32500,1,0,0:0:0:70:piano_main_c2 - 001.ogg
402,192,32500,1,0,0:0:0:70:kick2.ogg
109,192,32656,1,0,0:0:0:70:hat2.ogg
402,192,32812,1,0,0:0:0:70:kick2.ogg
109,192,32968,1,0,0:0:0:70:hat2.ogg
402,192,33125,1,0,0:0:0:70:kick2.ogg
109,192,33281,1,0,0:0:0:70:hat2.ogg
182,192,33281,1,0,0:0:0:70:piano_main_c2 - 002.ogg
256,192,33437,1,0,0:0:0:70:piano_main_c2 - 003.ogg
402,192,33437,1,0,0:0:0:70:kick2.ogg
109,192,33593,1,0,0:0:0:70:hat2.ogg
329,192,33593,1,0,0:0:0:70:piano_main_c2 - 004.ogg
182,192,33750,1,0,0:0:0:70:kick2.ogg
402,192,33750,1,0,0:0:0:70:piano_main_c2 - 005.ogg
109,192,33906,1,0,0:0:0:70:hat2.ogg
182,192,34062,1,0,0:0:0:70:piano_main_c2 - 006.ogg
402,192,34062,1,0,0:0:0:70:kick2.ogg
109,192,34218,1,0,0:0:0:70:hat2.ogg
256,192,34218,1,0,0:0:0:70:piano_main_c2 - 007.ogg
402,192,34375,1,0,0:0:0:70:kick2.ogg
109,192,34531,1,0,0:0:0:70:hat2.ogg
329,192,34531,1,0,0:0:0:70:piano_main_c2 - 008.ogg
402,192,34687,1,0,0:0:0:70:kick2.ogg
109,192,34843,1,0,0:0:0:70:hat2.ogg
182,192,35000,1,0,0:0:0:70:piano_main_c2 - 009.ogg
329,192,35000,1,0,0:0:0:70:piano_sub_a2 - 017.ogg
402,192,35000,1,0,0:0:0:70:kick2.ogg
109,192,35156,1,0,0:0:0:70:hat2.ogg
182,192,35312,1,0,0:0:0:70:piano_main_c2 - 010.ogg
402,192,35312,1,0,0:0:0:70:kick2.ogg
109,192,35468,1,0,0:0:0:70:hat2.ogg
256,192,35468,1,0,0:0:0:70:piano_main_c2 - 011.ogg
402,192,35625,1,0,0:0:0:70:kick2.ogg
109,192,35781,1,0,0:0:0:70:hat2.ogg
402,192,35937,1,0,0:0:0:70:kick2.ogg
109,192,36093,1,0,0:0:0:70:hat2.ogg
402,192,36250,1,0,0:0:0:70:kick2.ogg
109,192,36406,1,0,0:0:0:70:hat2.ogg
402,192,36562,1,0,0:0:0:70:kick2.ogg
109,192,36718,1,0,0:0:0:70:hat2.ogg
329,192,36875,1,0,0:0:0:70:piano_main_c2 - 012.ogg
402,192,36875,1,0,0:0:0:70:kick2.ogg
109,192,37031,1,0,0:0:0:70:hat2.ogg
256,192,37031,1,0,0:0:0:70:piano_main_c2 - 013.ogg
402,192,37109,1,0,0:0:0:70:kick1.ogg
182,192,37187,1,0,0:0:0:70:piano_main_c2 - 014.ogg
402,192,37187,1,0,0:0:0:70:kick2.ogg
109,192,37343,1,0,0:0:0:70:hat2.ogg
256,192,37343,1,0,0:0:0:70:piano_main_c2 - 015.ogg
402,192,37343,1,0,0:0:0:70:kick2.ogg
36,192,37500,1,0,0:0:0:70:kick2.ogg
182,192,37500,1,0,0:0:0:70:cym.ogg
329,192,37500,1,0,0:0:0:70:piano_sub_a3 - 002.ogg
475,192,37500,1,0,0:0:0:70:hat1.ogg
256,192,37578,1,0,0:0:0:70:hat1.ogg
402,192,37578,1,0,0:0:0:70:saw_cut - 098.ogg
182,192,37656,1,0,0:0:0:70:hat2.ogg
329,192,37656,1,0,0:0:0:70:saw_cut - 099.ogg
36,192,37812,1,0,0:0:0:70:hat1.ogg
256,192,37812,1,0,0:0:0:70:saw_cut - 100.ogg
402,192,37812,1,0,0:0:0:70:kick2.ogg
109,192,37890,1,0,0:0:0:70:hat1.ogg
329,192,37890,1,0,0:0:0:70:saw_cut - 101.ogg
182,192,37968,1,0,0:0:0:70:hat2.ogg
402,192,37968,1,0,0:0:0:70:piano_sub_a3 - 004.ogg
256,192,38046,1,0,0:0:0:70:acid_b1 - 007.ogg
182,192,38125,1,0,0:0:0:70:kick2.ogg
329,192,38125,1,0,0:0:0:70:hat1.ogg
475,192,38125,1,0,0:0:0:70:saw_cut - 103.ogg
109,192,38281,1,0,0:0:0:70:hat2.ogg
402,192,38281,1,0,0:0:0:70:saw_cut - 105.ogg
36,192,38437,1,0,0:0:0:70:kick2.ogg
182,192,38437,1,0,0:0:0:70:piano_main_c1 - 004.ogg
475,192,38437,1,0,0:0:0:70:hat1.ogg
109,192,38515,1,0,0:0:0:70:hat1.ogg
329,192,38515,1,0,0:0:0:70:saw_cut - 107.ogg
182,192,38593,1,0,0:0:0:70:hat1.ogg
402,192,38593,1,0,0:0:0:70:piano_main_c1 - 007.ogg
109,192,38750,1,0,0:0:0:70:hat1.ogg
256,192,38750,1,0,0:0:0:70:saw_cut - 109.ogg
402,192,38750,1,0,0:0:0:70:kick2.ogg
182,192,38828,1,0,0:0:0:70:hat1.ogg
475,192,38828,1,0,0:0:0:70:saw_cut - 110.ogg
256,192,38906,1,0,0:0:0:70:hat2.ogg
402,192,38906,1,0,0:0:0:70:saw_cut - 111.ogg
109,192,39062,1,0,0:0:0:70:kick2.ogg
256,192,39062,1,0,0:0:0:70:piano_sub_a1 - 007.ogg
402,192,39062,1,0,0:0:0:70:hat1.ogg
182,192,39140,1,0,0:0:0:70:hat1.ogg
475,192,39140,1,0,0:0:0:70:saw_cut - 113.ogg
256,192,39218,1,0,0:0:0:70:hat2.ogg
402,192,39218,1,0,0:0:0:70:hat1.ogg
109,192,39375,1,0,0:0:0:70:kick2.ogg
256,192,39375,1,0,0:0:0:70:piano_sub_a1 - 009.ogg
402,192,39375,1,0,0:0:0:70:hat1.ogg
36,192,39453,1,0,0:0:0:70:hat1.ogg
329,192,39453,1,0,0:0:0:70:saw_cut - 116.ogg
109,192,39531,1,0,0:0:0:70:hat2.ogg
256,192,39531,1,0,0:0:0:70:saw_cut - 117.ogg
109,192,39687,1,0,0:0:0:70:kick2.ogg
256,192,39687,1,0,0:0:0:70:piano_sub_a1 - 012.ogg
402,192,39687,1,0,0:0:0:70:hat1.ogg
36,192,39765,1,0,0:0:0:70:hat1.ogg
329,192,39765,1,0,0:0:0:70:saw_cut - 119.ogg
109,192,39843,1,0,0:0:0:70:hat2.ogg
256,192,39843,1,0,0:0:0:70:saw_cut - 120.ogg
36,192,40000,1,0,0:0:0:70:kick2.ogg
182,192,40000,1,0,0:0:0:70:piano_sub_a1 - 017.ogg
402,192,40000,1,0,0:0:0:70:hat1.ogg
109,192,40078,1,0,0:0:0:70:hat1.ogg
329,192,40078,1,0,0:0:0:70:saw_cut - 122.ogg
182,192,40156,1,0,0:0:0:70:hat2.ogg
256,192,40156,1,0,0:0:0:70:saw_cut - 123.ogg
36,192,40312,1,0,0:0:0:70:hat1.ogg
182,192,40312,1,0,0:0:0:70:kick2.ogg
402,192,40312,1,0,0:0:0:70:saw_cut - 124.ogg
109,192,40390,1,0,0:0:0:70:hat1.ogg
329,192,40390,1,0,0:0:0:70:saw_cut - 125.ogg
182,192,40468,1,0,0:0:0:70:hat2.ogg
256,192,40468,1,0,0:0:0:70:hat1.ogg
109,192,40625,1,0,0:0:0:70:kick2.ogg
329,192,40625,1,0,0:0:0:70:saw_cut - 127.ogg
402,192,40625,1,0,0:0:0:70:hat1.ogg
36,192,40703,1,0,0:0:0:70:hat1.ogg
475,192,40703,1,0,0:0:0:70:saw_cut - 128.ogg
182,192,40781,1,0,0:0:0:70:hat2.ogg
256,192,40781,1,0,0:0:0:70:saw_cut - 129.ogg
109,192,40937,1,0,0:0:0:70:kick2.ogg
329,192,40937,1,0,0:0:0:70:hat1.ogg
402,192,40937,1,0,0:0:0:70:saw_cut - 130.ogg
36,192,41015,1,0,0:0:0:70:hat1.ogg
475,192,41015,1,0,0:0:0:70:saw_cut - 131.ogg
182,192,41093,1,0,0:0:0:70:hat2.ogg
256,192,41093,1,0,0:0:0:70:hat1.ogg
36,192,41250,1,0,0:0:0:70:hat1.ogg
329,192,41250,1,0,0:0:0:70:saw_cut - 133.ogg
475,192,41250,1,0,0:0:0:70:piano_sub_a3 - 007.ogg
182,192,41328,1,0,0:0:0:70:hat1.ogg
256,192,41328,1,0,0:0:0:70:saw_cut - 134.ogg
109,192,41406,1,0,0:0:0:70:hat2.ogg
329,192,41406,1,0,0:0:0:70:saw_cut - 135.ogg
36,192,41562,1,0,0:0:0:70:hat1.ogg
329,192,41562,1,0,0:0:0:70:saw_cut - 136.ogg
475,192,41562,1,0,0:0:0:70:kick2.ogg
182,192,41640,1,0,0:0:0:70:saw_cut - 137.ogg
256,192,41640,1,0,0:0:0:70:hat1.ogg
109,192,41718,1,0,0:0:0:70:hat2.ogg
329,192,41718,1,0,0:0:0:70:hat1.ogg
36,192,41875,1,0,0:0:0:70:hat1.ogg
182,192,41875,1,0,0:0:0:70:saw_cut - 139.ogg
329,192,41875,1,0,0:0:0:70:kick2.ogg
256,192,41953,1,0,0:0:0:70:hat1.ogg
402,192,41953,1,0,0:0:0:70:saw_cut - 140.ogg
36,192,42031,1,0,0:0:0:70:hat2.ogg
182,192,42031,1,0,0:0:0:70:hat1.ogg
36,192,42187,1,0,0:0:0:70:kick2.ogg
182,192,42187,1,0,0:0:0:70:hat1.ogg
329,192,42187,1,0,0:0:0:70:saw_cut - 142.ogg
256,192,42265,1,0,0:0:0:70:hat1.ogg
402,192,42265,1,0,0:0:0:70:saw_cut - 143.ogg
36,192,42343,1,0,0:0:0:70:hat2.ogg
182,192,42343,1,0,0:0:0:70:hat1.ogg
182,192,42500,1,0,0:0:0:70:saw_cut - 145.ogg
329,192,42500,1,0,0:0:0:70:kick2.ogg
475,192,42500,1,0,0:0:0:70:hat1.ogg
109,192,42578,1,0,0:0:0:70:hat1.ogg
256,192,42578,1,0,0:0:0:70:saw_cut - 146.ogg
329,192,42656,1,0,0:0:0:70:saw_cut - 147.ogg
475,192,42656,1,0,0:0:0:70:hat2.ogg
182,192,42812,1,0,0:0:0:70:hat1.ogg
329,192,42812,1,0,0:0:0:70:saw_cut - 148.ogg
475,192,42812,1,0,0:0:0:70:kick2.ogg
109,192,42890,1,0,0:0:0:70:hat1.ogg
256,192,42890,1,0,0:0:0:70:saw_cut - 149.ogg
329,192,42968,1,0,0:0:0:70:hat2.ogg
475,192,42968,1,0,0:0:0:70:saw_cut - 150.ogg
36,192,43125,1,0,0:0:0:70:hat1.ogg
182,192,43125,1,0,0:0:0:70:kick2.ogg
402,192,43125,1,0,0:0:0:70:saw_cut - 151.ogg
109,192,43203,1,0,0:0:0:70:saw_cut - 152.ogg
256,192,43203,1,0,0:0:0:70:hat1.ogg
182,192,43281,1,0,0:0:0:70:hat2.ogg
329,192,43281,1,0,0:0:0:70:hat1.ogg
36,192,43437,1,0,0:0:0:70:saw_cut - 154.ogg
182,192,43437,1,0,0:0:0:70:kick2.ogg
402,192,43437,1,0,0:0:0:70:hat1.ogg
109,192,43515,1,0,0:0:0:70:hat1.ogg
256,192,43515,1,0,0:0:0:70:saw_cut - 155.ogg
182,192,43593,1,0,0:0:0:70:hat2.ogg
329,192,43593,1,0,0:0:0:70:hat1.ogg
182,192,43750,1,0,0:0:0:70:hat1.ogg
256,192,43750,1,0,0:0:0:70:kick2.ogg
329,192,43750,1,0,0:0:0:70:saw_cut - 157.ogg
402,192,43828,1,0,0:0:0:70:hat1.ogg
475,192,43828,1,0,0:0:0:70:saw_cut - 158.ogg
36,192,43906,1,0,0:0:0:70:hat2.ogg
109,192,43906,1,0,0:0:0:70:hat1.ogg
182,192,44062,1,0,0:0:0:70:hat1.ogg
256,192,44062,1,0,0:0:0:70:kick2.ogg
329,192,44062,1,0,0:0:0:70:saw_cut - 160.ogg
402,192,44140,1,0,0:0:0:70:hat1.ogg
475,192,44140,1,0,0:0:0:70:saw_cut - 161.ogg
36,192,44218,1,0,0:0:0:70:hat2.ogg
109,192,44218,1,0,0:0:0:70:hat1.ogg
182,192,44375,1,0,0:0:0:70:kick2.ogg
329,192,44375,1,0,0:0:0:70:saw_cut - 163.ogg
402,192,44375,1,0,0:0:0:70:hat1.ogg
109,192,44453,1,0,0:0:0:70:hat1.ogg
256,192,44453,1,0,0:0:0:70:saw_cut - 164.ogg
36,192,44531,1,0,0:0:0:70:hat2.ogg
182,192,44531,1,0,0:0:0:70:hat1.ogg
109,192,44687,1,0,0:0:0:70:hat1.ogg
182,192,44687,1,0,0:0:0:70:saw_cut - 166.ogg
329,192,44687,1,0,0:0:0:70:clap1.ogg
256,192,44765,1,0,0:0:0:70:hat1.ogg
402,192,44765,1,0,0:0:0:70:saw_cut - 167.ogg
329,192,44843,1,0,0:0:0:70:hat2.ogg
475,192,44843,1,0,0:0:0:70:saw_cut - 168.ogg
36,192,45000,1,0,0:0:0:70:hat1.ogg
109,192,45000,1,0,0:0:0:70:saw_cut - 169.ogg
256,192,45000,1,0,0:0:0:70:kick2.ogg
182,192,45078,1,0,0:0:0:70:hat1.ogg
402,192,45078,1,0,0:0:0:70:saw_cut - 170.ogg
256,192,45156,1,0,0:0:0:70:hat2.ogg
329,192,45156,1,0,0:0:0:70:piano_sub_a4 - 016.ogg
475,192,45156,1,0,0:0:0:70:bass6.ogg
36,192,45312,1,0,0:0:0:70:kick2.ogg
182,192,45312,1,0,0:0:0:70:saw_cut - 172.ogg
402,192,45312,1,0,0:0:0:70:hat1.ogg
109,192,45390,1,0,0:0:0:70:saw_cut - 173.ogg
329,192,45390,1,0,0:0:0:70:hat1.ogg
182,192,45468,1,0,0:0:0:70:hat2.ogg
256,192,45468,1,0,0:0:0:70:hat1.ogg
402,192,45468,1,0,0:0:0:70:saw_cut - 174.ogg
36,192,45625,1,0,0:0:0:70:kick2.ogg
256,192,45625,1,0,0:0:0:70:saw_cut - 175.ogg
329,192,45625,1,0,0:0:0:70:hat1.ogg
109,192,45703,1,0,0:0:0:70:hat1.ogg
182,192,45703,1,0,0:0:0:70:saw_cut - 176.ogg
36,192,45781,1,0,0:0:0:70:hat2.ogg
256,192,45781,1,0,0:0:0:70:hat1.ogg
329,192,45781,1,0,0:0:0:70:saw_cut - 177.ogg
109,192,45937,1,0,0:0:0:70:kick2.ogg
402,192,45937,1,0,0:0:0:70:hat1.ogg
475,192,45937,1,0,0:0:0:70:saw_cut - 178.ogg
36,192,46015,1,0,0:0:0:70:saw_cut - 179.ogg
182,192,46015,1,0,0:0:0:70:hat1.ogg
109,192,46093,1,0,0:0:0:70:hat2.ogg
256,192,46093,1,0,0:0:0:70:saw_cut - 180.ogg
329,192,46093,1,0,0:0:0:70:hat1.ogg
36,192,46250,1,0,0:0:0:70:kick2.ogg
182,192,46250,1,0,0:0:0:70:cym.ogg
256,192,46250,1,0,0:0:0:70:piano_sub_a4 - 025.ogg
402,192,46250,1,0,0:0:0:70:piano_sub_a4 - 023.ogg
475,192,46250,1,0,0:0:0:70:piano_sub_a4 - 024.ogg
36,192,47187,1,0,0:0:0:70:bell_b1 - 001.ogg
182,192,47187,1,0,0:0:0:70:strings_a1 - 001.ogg
109,192,47265,1,0,0:0:0:70:bell_b1 - 002.ogg
256,192,47265,1,0,0:0:0:70:strings_a1 - 002.ogg
182,192,47343,1,0,0:0:0:70:bell_b1 - 003.ogg
329,192,47343,1,0,0:0:0:70:strings_a1 - 003.ogg
256,192,47421,1,0,0:0:0:70:bell_b1 - 004.ogg
402,192,47421,1,0,0:0:0:70:strings_a1 - 004.ogg
36,192,47500,1,0,0:0:0:70:kick2.ogg
329,192,47500,1,0,0:0:0:70:cym.ogg
475,192,47500,128,0,48750:0:0:0:70:strings_a2 - 001.ogg
402,192,47656,1,0,0:0:0:70:hat2.ogg
36,192,47812,1,0,0:0:0:70:kick2.ogg
402,192,47968,1,0,0:0:0:70:hat2.ogg
36,192,48125,1,0,0:0:0:70:kick2.ogg
402,192,48281,1,0,0:0:0:70:hat2.ogg
36,192,48437,1,0,0:0:0:70:kick2.ogg
402,192,48593,1,0,0:0:0:70:hat2.ogg
36,192,48750,1,0,0:0:0:70:kick2.ogg
402,192,48750,128,0,49375:0:0:0:70:strings_a2 - 002.ogg
329,192,48906,1,0,0:0:0:70:hat2.ogg
36,192,49062,1,0,0:0:0:70:kick2.ogg
329,192,49218,1,0,0:0:0:70:hat2.ogg
36,192,49375,1,0,0:0:0:70:kick2.ogg
329,192,49375,128,0,50000:0:0:0:70:strings_a2 - 003.ogg
256,192,49531,1,0,0:0:0:70:hat2.ogg
36,192,49687,1,0,0:0:0:70:kick2.ogg
256,192,49843,1,0,0:0:0:70:hat2.ogg
36,192,50000,1,0,0:0:0:70:kick2.ogg
256,192,50000,1,0,0:0:0:70:strings_a2 - 004.ogg
475,192,50000,1,0,0:0:0:70:pure_a1 - 001.ogg
109,192,50156,1,0,0:0:0:70:pure_a1 - 002.ogg
256,192,50156,1,0,0:0:0:70:hat2.ogg
329,192,50156,1,0,0:0:0:70:hat1.ogg
402,192,50156,1,0,0:0:0:70:bass3.ogg
36,192,50312,1,0,0:0:0:70:kick2.ogg
109,192,50312,1,0,0:0:0:70:acid_b1 - 024.ogg
182,192,50312,1,0,0:0:0:70:hat1.ogg
329,192,50312,1,0,0:0:0:70:pure_a1 - 003.ogg
402,192,50312,1,0,0:0:0:70:clap1.ogg
475,192,50312,1,0,0:0:0:70:harpsichord_a1 - 019.ogg
109,192,50468,1,0,0:0:0:70:hat2.ogg
182,192,50468,1,0,0:0:0:70:hat1.ogg
256,192,50468,1,0,0:0:0:70:acid_b1 - 026.ogg
402,192,50468,1,0,0:0:0:70:harpsichord_a1 - 020.ogg
475,192,50468,1,0,0:0:0:70:pure_a1 - 004.ogg
36,192,50625,1,0,0:0:0:70:kick2.ogg
109,192,50781,1,0,0:0:0:70:hat1.ogg
256,192,50781,1,0,0:0:0:70:harpsichord_a1 - 022.ogg
329,192,50781,1,0,0:0:0:70:hat2.ogg
402,192,50781,1,0,0:0:0:70:pure_a1 - 005.ogg
36,192,50937,1,0,0:0:0:70:kick2.ogg
109,192,50937,1,0,0:0:0:70:acid_b1 - 029.ogg
182,192,50937,1,0,0:0:0:70:hat1.ogg
329,192,50937,1,0,0:0:0:70:pure_a1 - 006.ogg
402,192,50937,1,0,0:0:0:70:clap1.ogg
475,192,50937,1,0,0:0:0:70:harpsichord_a1 - 023.ogg
109,192,51093,1,0,0:0:0:70:pure_a1 - 007.ogg
182,192,51093,1,0,0:0:0:70:harpsichord_a1 - 024.ogg
256,192,51093,1,0,0:0:0:70:hat2.ogg
402,192,51093,1,0,0:0:0:70:acid_b1 - 030.ogg
475,192,51093,1,0,0:0:0:70:hat1.ogg
36,192,51250,1,0,0:0:0:70:kick2.ogg
109,192,51406,1,0,0:0:0:70:hat1.ogg
256,192,51406,1,0,0:0:0:70:hat2.ogg
329,192,51406,1,0,0:0:0:70:pure_a1 - 008.ogg
402,192,51406,1,0,0:0:0:70:bass4.ogg
36,192,51562,1,0,0:0:0:70:kick2.ogg
109,192,51562,1,0,0:0:0:70:pure_a1 - 009.ogg
182,192,51562,1,0,0:0:0:70:hat1.ogg
329,192,51562,1,0,0:0:0:70:clap1.ogg
402,192,51562,1,0,0:0:0:70:harpsichord_a1 - 027.ogg
475,192,51562,1,0,0:0:0:70:acid_b1 - 034.ogg
109,192,51718,1,0,0:0:0:70:pure_a1 - 010.ogg
182,192,51718,1,0,0:0:0:70:bass4.ogg
256,192,51718,1,0,0:0:0:70:acid_b1 - 036.ogg
402,192,51718,1,0,0:0:0:70:hat1.ogg
475,192,51718,1,0,0:0:0:70:hat2.ogg
36,192,51875,1,0,0:0:0:70:kick2.ogg
109,192,52031,1,0,0:0:0:70:hat1.ogg
256,192,52031,1,0,0:0:0:70:bass4.ogg
329,192,52031,1,0,0:0:0:70:pure_a1 - 011.ogg
402,192,52031,1,0,0:0:0:70:hat2.ogg
36,192,52187,1,0,0:0:0:70:kick2.ogg
109,192,52187,1,0,0:0:0:70:pure_a1 - 012.ogg
182,192,52187,1,0,0:0:0:70:clap1.ogg
329,192,52187,1,0,0:0:0:70:hat1.ogg
402,192,52187,1,0,0:0:0:70:harpsichord_a1 - 031.ogg
475,192,52187,1,0,0:0:0:0:
109,192,52343,1,0,0:0:0:70:acid_b1 - 042.ogg
182,192,52343,1,0,0:0:0:70:pure_a1 - 013.ogg
256,192,52343,1,0,0:0:0:70:bass4.ogg
402,192,52343,1,0,0:0:0:70:kick2.ogg
475,192,52343,1,0,0:0:0:70:hat1.ogg
36,192,52500,1,0,0:0:0:70:kick2.ogg
402,192,52500,128,0,53750:0:0:0:70:strings_a2 - 001.ogg
329,192,52656,1,0,0:0:0:70:hat2.ogg
36,192,52812,1,0,0:0:0:70:kick2.ogg
329,192,52968,1,0,0:0:0:70:hat2.ogg
36,192,53125,1,0,0:0:0:70:kick2.ogg
329,192,53281,1,0,0:0:0:70:hat2.ogg
36,192,53437,1,0,0:0:0:70:kick2.ogg
329,192,53593,1,0,0:0:0:70:hat2.ogg
36,192,53750,1,0,0:0:0:70:kick2.ogg
329,192,53750,128,0,54375:0:0:0:70:strings_a2 - 002.ogg
256,192,53906,1,0,0:0:0:70:hat2.ogg
36,192,54062,1,0,0:0:0:70:kick2.ogg
256,192,54218,1,0,0:0:0:70:hat2.ogg
36,192,54375,1,0,0:0:0:70:kick2.ogg
475,192,54375,128,0,55000:0:0:0:70:strings_a3 - 001.ogg
402,192,54531,1,0,0:0:0:70:hat2.ogg
36,192,54687,1,0,0:0:0:70:kick2.ogg
402,192,54843,1,0,0:0:0:70:hat2.ogg
36,192,55000,1,0,0:0:0:70:kick2.ogg
329,192,55000,1,0,0:0:0:70:pure_a1 - 001.ogg
402,192,55000,1,0,0:0:0:70:strings_a3 - 002.ogg
109,192,55156,1,0,0:0:0:70:hat1.ogg
256,192,55156,1,0,0:0:0:70:bass3.ogg
329,192,55156,1,0,0:0:0:70:pure_a1 - 002.ogg
402,192,55156,1,0,0:0:0:70:harpsichord_a2 - 018.ogg
36,192,55312,1,0,0:0:0:70:kick2.ogg
109,192,55312,1,0,0:0:0:70:pure_a1 - 003.ogg
182,192,55312,1,0,0:0:0:70:harpsichord_a2 - 019.ogg
329,192,55312,1,0,0:0:0:70:hat1.ogg
402,192,55312,1,0,0:0:0:70:acid_b1 - 066.ogg
475,192,55312,1,0,0:0:0:70:clap1.ogg
109,192,55468,1,0,0:0:0:70:hat2.ogg
182,192,55468,1,0,0:0:0:70:pure_a1 - 004.ogg
256,192,55468,1,0,0:0:0:70:hat1.ogg
402,192,55468,1,0,0:0:0:70:harpsichord_a2 - 020.ogg
475,192,55468,1,0,0:0:0:70:bass3.ogg
36,192,55625,1,0,0:0:0:70:kick2.ogg
109,192,55781,1,0,0:0:0:70:hat2.ogg
256,192,55781,1,0,0:0:0:70:bass3.ogg
329,192,55781,1,0,0:0:0:70:pure_a1 - 005.ogg
402,192,55781,1,0,0:0:0:70:hat1.ogg
36,192,55937,1,0,0:0:0:70:harpsichord_a2 - 023.ogg
109,192,55937,1,0,0:0:0:70:pure_a1 - 006.ogg
182,192,55937,1,0,0:0:0:70:acid_b1 - 071.ogg
329,192,55937,1,0,0:0:0:70:kick2.ogg
402,192,55937,1,0,0:0:0:70:hat1.ogg
475,192,55937,1,0,0:0:0:70:clap1.ogg
109,192,56093,1,0,0:0:0:70:harpsichord_a2 - 024.ogg
182,192,56093,1,0,0:0:0:70:pure_a1 - 007.ogg
256,192,56093,1,0,0:0:0:70:bass3.ogg
402,192,56093,1,0,0:0:0:70:acid_b1 - 072.ogg
475,192,56093,1,0,0:0:0:70:hat2.ogg
36,192,56250,1,0,0:0:0:70:kick2.ogg
109,192,56406,1,0,0:0:0:70:pure_a1 - 008.ogg
256,192,56406,1,0,0:0:0:70:hat2.ogg
329,192,56406,1,0,0:0:0:70:hat1.ogg
402,192,56406,1,0,0:0:0:70:harpsichord_a2 - 026.ogg
36,192,56562,1,0,0:0:0:70:kick2.ogg
109,192,56562,1,0,0:0:0:70:pure_a1 - 009.ogg
182,192,56562,1,0,0:0:0:70:hat1.ogg
329,192,56562,1,0,0:0:0:70:harpsichord_a2 - 027.ogg
402,192,56562,1,0,0:0:0:70:clap1.ogg
475,192,56562,1,0,0:0:0:70:acid_b1 - 076.ogg
109,192,56718,1,0,0:0:0:70:hat2.ogg
182,192,56718,1,0,0:0:0:70:pure_a1 - 010.ogg
256,192,56718,1,0,0:0:0:70:hat1.ogg
402,192,56718,1,0,0:0:0:70:bass4.ogg
475,192,56718,1,0,0:0:0:70:harpsichord_a2 - 028.ogg
36,192,56875,1,0,0:0:0:70:kick2.ogg
109,192,57031,1,0,0:0:0:70:pure_a2 - 001.ogg
256,192,57031,1,0,0:0:0:70:hat2.ogg
329,192,57031,1,0,0:0:0:70:hat1.ogg
402,192,57031,1,0,0:0:0:70:bass4.ogg
36,192,57187,1,0,0:0:0:70:strings_a3 - 004.ogg
256,192,57187,1,0,0:0:0:70:hat1.ogg
475,192,57187,1,0,0:0:0:70:bell_b3 - 004.ogg
109,192,57265,1,0,0:0:0:70:strings_a3 - 005.ogg
329,192,57265,1,0,0:0:0:70:hat1.ogg
182,192,57343,1,0,0:0:0:70:strings_a3 - 006.ogg
402,192,57343,1,0,0:0:0:70:bell_b3 - 006.ogg
256,192,57421,1,0,0:0:0:70:strings_a3 - 007.ogg
475,192,57421,1,0,0:0:0:70:bell_b3 - 007.ogg
36,192,57500,128,0,58750:0:0:0:70:strings_a2 - 001.ogg
402,192,57500,1,0,0:0:0:70:kick2.ogg
109,192,57656,1,0,0:0:0:70:hat2.ogg
402,192,57812,1,0,0:0:0:70:kick2.ogg
109,192,57968,1,0,0:0:0:70:hat2.ogg
402,192,58125,1,0,0:0:0:70:kick2.ogg
109,192,58281,1,0,0:0:0:70:hat2.ogg
402,192,58437,1,0,0:0:0:70:kick2.ogg
109,192,58593,1,0,0:0:0:70:hat2.ogg
109,192,58750,128,0,59375:0:0:0:70:strings_a2 - 002.ogg
402,192,58750,1,0,0:0:0:70:kick2.ogg
182,192,58906,1,0,0:0:0:70:hat2.ogg
402,192,59062,1,0,0:0:0:70:kick2.ogg
182,192,59218,1,0,0:0:0:70:hat2.ogg
182,192,59375,128,0,60000:0:0:0:70:strings_a2 - 003.ogg
402,192,59375,1,0,0:0:0:70:kick2.ogg
256,192,59531,1,0,0:0:0:70:hat2.ogg
402,192,59687,1,0,0:0:0:70:kick2.ogg
256,192,59843,1,0,0:0:0:70:hat2.ogg
36,192,60000,1,0,0:0:0:70:kick2.ogg
329,192,60000,1,0,0:0:0:70:harpsichord_a1 - 017.ogg
475,192,60000,1,0,0:0:0:70:strings_a2 - 004.ogg
109,192,60156,1,0,0:0:0:70:hat2.ogg
182,192,60156,1,0,0:0:0:70:harpsichord_a1 - 018.ogg
256,192,60156,1,0,0:0:0:70:pure_a1 - 002.ogg
402,192,60156,1,0,0:0:0:70:bass3.ogg
36,192,60312,1,0,0:0:0:70:pure_a1 - 003.ogg
109,192,60312,1,0,0:0:0:70:acid_b1 - 024.ogg
182,192,60312,1,0,0:0:0:70:hat1.ogg
329,192,60312,1,0,0:0:0:70:harpsichord_a1 - 019.ogg
402,192,60312,1,0,0:0:0:70:clap1.ogg
475,192,60312,1,0,0:0:0:70:kick2.ogg
36,192,60468,1,0,0:0:0:70:pure_a1 - 004.ogg
109,192,60468,1,0,0:0:0:70:hat2.ogg
256,192,60468,1,0,0:0:0:70:hat1.ogg
329,192,60468,1,0,0:0:0:70:harpsichord_a1 - 020.ogg
402,192,60468,1,0,0:0:0:70:acid_b1 - 026.ogg
475,192,60625,1,0,0:0:0:70:kick2.ogg
109,192,60781,1,0,0:0:0:70:bass3.ogg
182,192,60781,1,0,0:0:0:70:harpsichord_a1 - 022.ogg
256,192,60781,1,0,0:0:0:70:pure_a1 - 005.ogg
402,192,60781,1,0,0:0:0:70:hat2.ogg
36,192,60937,1,0,0:0:0:70:hat1.ogg
109,192,60937,1,0,0:0:0:70:pure_a1 - 006.ogg
182,192,60937,1,0,0:0:0:70:harpsichord_a1 - 023.ogg
329,192,60937,1,0,0:0:0:70:clap1.ogg
402,192,60937,1,0,0:0:0:70:acid_b1 - 029.ogg
475,192,60937,1,0,0:0:0:70:kick2.ogg
36,192,61093,1,0,0:0:0:70:pure_a1 - 007.ogg
109,192,61093,1,0,0:0:0:70:acid_b1 - 030.ogg
256,192,61093,1,0,0:0:0:70:hat2.ogg
329,192,61093,1,0,0:0:0:70:harpsichord_a1 - 024.ogg
402,192,61093,1,0,0:0:0:70:bass3.ogg
475,192,61250,1,0,0:0:0:70:kick2.ogg
109,192,61406,1,0,0:0:0:70:hat2.ogg
182,192,61406,1,0,0:0:0:70:bass4.ogg
256,192,61406,1,0,0:0:0:70:pure_a1 - 008.ogg
402,192,61406,1,0,0:0:0:70:hat1.ogg
36,192,61562,1,0,0:0:0:70:hat1.ogg
109,192,61562,1,0,0:0:0:70:harpsichord_a1 - 027.ogg
182,192,61562,1,0,0:0:0:70:pure_a1 - 009.ogg
329,192,61562,1,0,0:0:0:70:clap1.ogg
402,192,61562,1,0,0:0:0:70:acid_b1 - 034.ogg
475,192,61562,1,0,0:0:0:70:kick2.ogg
109,192,61718,1,0,0:0:0:70:pure_a1 - 010.ogg
256,192,61718,1,0,0:0:0:70:hat1.ogg
329,192,61718,1,0,0:0:0:70:hat2.ogg
402,192,61718,1,0,0:0:0:70:bass4.ogg
475,192,61718,1,0,0:0:0:70:harpsichord_a1 - 028.ogg
36,192,61875,1,0,0:0:0:70:kick2.ogg
182,192,61875,1,0,0:0:0:70:pure_a3 - 001.ogg
256,192,61875,1,0,0:0:0:70:harpsichord_a1 - 029.ogg
329,192,61875,1,0,0:0:0:70:hat1.ogg
36,192,62031,1,0,0:0:0:70:bass4.ogg
109,192,62031,1,0,0:0:0:70:acid_b1 - 039.ogg
256,192,62031,1,0,0:0:0:70:hat1.ogg
329,192,62031,1,0,0:0:0:70:hat2.ogg
402,192,62031,1,0,0:0:0:70:harpsichord_a1 - 030.ogg
475,192,62031,1,0,0:0:0:70:pure_a3 - 002.ogg
109,192,62187,1,0,0:0:0:70:clap1.ogg
182,192,62187,1,0,0:0:0:70:hat1.ogg
256,192,62187,1,0,0:0:0:70:pure_a3 - 003.ogg
329,192,62187,1,0,0:0:0:70:kick2.ogg
402,192,62187,1,0,0:0:0:70:harpsichord_a1 - 031.ogg
36,192,62343,1,0,0:0:0:70:pure_a3 - 004.ogg
109,192,62343,1,0,0:0:0:70:bass4.ogg
182,192,62343,1,0,0:0:0:70:acid_b1 - 042.ogg
256,192,62343,1,0,0:0:0:70:kick2.ogg
329,192,62343,1,0,0:0:0:70:hat2.ogg
256,192,62500,1,0,0:0:0:70:kick2.ogg
475,192,62500,128,0,63750:0:0:0:70:strings_a4 - 001.ogg
36,192,62656,1,0,0:0:0:70:hat2.ogg
256,192,62812,1,0,0:0:0:70:kick2.ogg
36,192,62968,1,0,0:0:0:70:hat2.ogg
256,192,63125,1,0,0:0:0:70:kick2.ogg
36,192,63281,1,0,0:0:0:70:hat2.ogg
256,192,63437,1,0,0:0:0:70:kick2.ogg
36,192,63593,1,0,0:0:0:70:hat2.ogg
256,192,63750,1,0,0:0:0:70:kick2.ogg
402,192,63750,128,0,64375:0:0:0:70:strings_a4 - 002.ogg
36,192,63906,1,0,0:0:0:70:hat2.ogg
256,192,64062,1,0,0:0:0:70:kick2.ogg
36,192,64218,1,0,0:0:0:70:hat2.ogg
256,192,64375,1,0,0:0:0:70:kick2.ogg
329,192,64375,128,0,65000:0:0:0:70:strings_a4 - 003.ogg
36,192,64531,1,0,0:0:0:70:hat2.ogg
256,192,64687,1,0,0:0:0:70:kick2.ogg
36,192,64843,1,0,0:0:0:70:hat2.ogg
109,192,65000,1,0,0:0:0:70:strings_a4 - 004.ogg
256,192,65000,1,0,0:0:0:70:kick2.ogg
475,192,65000,1,0,0:0:0:70:harpsichord_a2 - 017.ogg
36,192,65156,1,0,0:0:0:70:pure_a1 - 002.ogg
109,192,65156,1,0,0:0:0:70:pure_a1 - 001.ogg
182,192,65156,1,0,0:0:0:70:hat1.ogg
329,192,65156,1,0,0:0:0:70:hat1.ogg
109,192,65312,1,0,0:0:0:70:pure_a1 - 003.ogg
182,192,65312,1,0,0:0:0:70:clap1.ogg
256,192,65312,1,0,0:0:0:70:hat1.ogg
329,192,65312,1,0,0:0:0:70:acid_b1 - 066.ogg
402,192,65312,1,0,0:0:0:70:harpsichord_a2 - 019.ogg
475,192,65312,1,0,0:0:0:70:kick2.ogg
182,192,65468,1,0,0:0:0:70:pure_a1 - 004.ogg
256,192,65468,1,0,0:0:0:70:harpsichord_a2 - 020.ogg
329,192,65468,1,0,0:0:0:70:bass3.ogg
402,192,65468,1,0,0:0:0:70:hat2.ogg
475,192,65468,1,0,0:0:0:70:hat1.ogg
109,192,65625,1,0,0:0:0:70:kick2.ogg
36,192,65781,1,0,0:0:0:70:harpsichord_a2 - 022.ogg
109,192,65781,1,0,0:0:0:70:pure_a1 - 005.ogg
182,192,65781,1,0,0:0:0:70:hat2.ogg
329,192,65781,1,0,0:0:0:70:hat1.ogg
109,192,65937,1,0,0:0:0:70:hat1.ogg
182,192,65937,1,0,0:0:0:70:harpsichord_a2 - 023.ogg
256,192,65937,1,0,0:0:0:70:pure_a1 - 006.ogg
329,192,65937,1,0,0:0:0:70:clap1.ogg
402,192,65937,1,0,0:0:0:70:acid_b1 - 071.ogg
475,192,65937,1,0,0:0:0:70:kick2.ogg
182,192,66093,1,0,0:0:0:70:harpsichord_a2 - 024.ogg
256,192,66093,1,0,0:0:0:70:pure_a1 - 007.ogg
329,192,66093,1,0,0:0:0:70:acid_b1 - 072.ogg
402,192,66093,1,0,0:0:0:70:bass3.ogg
475,192,66093,1,0,0:0:0:70:hat1.ogg
109,192,66250,1,0,0:0:0:70:kick2.ogg
36,192,66406,1,0,0:0:0:70:pure_a1 - 008.ogg
109,192,66406,1,0,0:0:0:70:hat2.ogg
182,192,66406,1,0,0:0:0:70:acid_b1 - 075.ogg
329,192,66406,1,0,0:0:0:70:hat1.ogg
109,192,66562,1,0,0:0:0:70:pure_a1 - 009.ogg
182,192,66562,1,0,0:0:0:70:hat1.ogg
256,192,66562,1,0,0:0:0:70:clap1.ogg
329,192,66562,1,0,0:0:0:70:harpsichord_a2 - 027.ogg
402,192,66562,1,0,0:0:0:70:acid_b1 - 076.ogg
182,192,66718,1,0,0:0:0:70:pure_a1 - 010.ogg
256,192,66718,1,0,0:0:0:70:hat2.ogg
329,192,66718,1,0,0:0:0:70:bass4.ogg
402,192,66718,1,0,0:0:0:70:hat1.ogg
475,192,66718,1,0,0:0:0:70:harpsichord_a2 - 028.ogg
109,192,66875,1,0,0:0:0:70:hat1.ogg
36,192,67031,1,0,0:0:0:70:acid_b1 - 081.ogg
109,192,67031,1,0,0:0:0:70:pure_a1 - 011.ogg
182,192,67031,1,0,0:0:0:70:hat2.ogg
329,192,67031,1,0,0:0:0:70:hat1.ogg
109,192,67187,1,0,0:0:0:70:pure_a1 - 012.ogg
182,192,67187,1,0,0:0:0:70:hat1.ogg
256,192,67187,1,0,0:0:0:70:clap1.ogg
329,192,67187,1,0,0:0:0:70:harpsichord_a2 - 031.ogg
402,192,67187,1,0,0:0:0:0:
182,192,67343,1,0,0:0:0:70:hat2.ogg
256,192,67343,1,0,0:0:0:70:pure_a1 - 013.ogg
329,192,67343,1,0,0:0:0:70:hat1.ogg
402,192,67343,1,0,0:0:0:70:bass4.ogg
475,192,67343,1,0,0:0:0:70:harpsichord_a2 - 032.ogg
36,192,67500,1,0,0:0:0:70:deepkick.ogg
109,192,67500,1,0,0:0:0:70:piano_sub_b1 - 001.ogg
256,192,67500,1,0,0:0:0:70:piano_main_d1 - 001.ogg
475,192,67500,1,0,0:0:0:70:cym.ogg
182,192,67656,1,0,0:0:0:70:piano_sub_b1 - 002.ogg
256,192,68125,1,0,0:0:0:70:piano_sub_b1 - 004.ogg
329,192,68125,1,0,0:0:0:70:piano_sub_b1 - 003.ogg
475,192,68125,1,0,0:0:0:70:piano_main_d1 - 002.ogg
36,192,68750,1,0,0:0:0:70:piano_sub_b1 - 005.ogg
109,192,68750,1,0,0:0:0:70:piano_sub_b1 - 007.ogg
256,192,68750,1,0,0:0:0:70:piano_sub_b1 - 006.ogg
402,192,68750,1,0,0:0:0:70:piano_main_d1 - 003.ogg
475,192,68984,1,0,0:0:0:70:piano_main_d1 - 004.ogg
329,192,69140,1,0,0:0:0:70:piano_main_d1 - 005.ogg
256,192,69270,1,0,0:0:0:70:piano_main_d1 - 006.ogg
329,192,69322,1,0,0:0:0:70:piano_main_d1 - 007.ogg
109,192,69375,1,0,0:0:0:70:piano_sub_b1 - 008.ogg
256,192,69375,1,0,0:0:0:70:piano_main_d1 - 008.ogg
182,192,69531,1,0,0:0:0:70:piano_main_d1 - 009.ogg
36,192,69687,1,0,0:0:0:70:piano_sub_b1 - 009.ogg
329,192,69687,1,0,0:0:0:70:piano_main_d1 - 010.ogg
256,192,69739,1,0,0:0:0:70:piano_main_d1 - 011.ogg
182,192,69791,1,0,0:0:0:70:piano_main_d1 - 012.ogg
36,192,69843,1,0,0:0:0:70:piano_main_d1 - 013.ogg
182,192,69921,1,0,0:0:0:70:piano_main_d1 - 014.ogg
109,192,70000,1,0,0:0:0:70:piano_sub_b1 - 010.ogg
256,192,70000,1,0,0:0:0:70:piano_main_d1 - 015.ogg
402,192,70000,1,0,0:0:0:70:piano_sub_b1 - 011.ogg
402,192,70468,1,0,0:0:0:70:piano_main_d1 - 016.ogg
256,192,70625,1,0,0:0:0:70:piano_sub_b1 - 012.ogg
109,192,70781,1,0,0:0:0:70:piano_main_d1 - 017.ogg
402,192,70781,1,0,0:0:0:70:piano_sub_b1 - 013.ogg
182,192,70937,1,0,0:0:0:70:piano_main_d1 - 018.ogg
329,192,70937,1,0,0:0:0:70:piano_sub_b1 - 014.ogg
109,192,71093,1,0,0:0:0:70:piano_sub_b1 - 015.ogg
256,192,71145,1,0,0:0:0:70:piano_main_d1 - 019.ogg
402,192,71197,1,0,0:0:0:70:piano_main_d1 - 020.ogg
36,192,71250,1,0,0:0:0:70:piano_sub_b1 - 016.ogg
182,192,71250,1,0,0:0:0:70:piano_sub_b1 - 017.ogg
256,192,71250,1,0,0:0:0:70:piano_main_d1 - 021.ogg
182,192,71718,1,0,0:0:0:70:piano_main_d1 - 022.ogg
256,192,71796,1,0,0:0:0:70:piano_main_d1 - 023.ogg
109,192,71875,1,0,0:0:0:70:piano_sub_b1 - 018.ogg
402,192,71875,1,0,0:0:0:70:piano_main_d1 - 024.ogg
475,192,71953,1,0,0:0:0:70:piano_main_d1 - 025.ogg
256,192,72031,1,0,0:0:0:70:piano_main_d1 - 026.ogg
182,192,72109,1,0,0:0:0:70:piano_main_d1 - 027.ogg
36,192,72187,1,0,0:0:0:70:piano_main_d1 - 028.ogg
109,192,72265,1,0,0:0:0:70:piano_main_d1 - 029.ogg
256,192,72343,1,0,0:0:0:70:piano_main_d1 - 030.ogg
402,192,72421,1,0,0:0:0:70:piano_main_d1 - 031.ogg
36,192,72500,1,0,0:0:0:70:piano_sub_b2 - 001.ogg
475,192,72500,1,0,0:0:0:70:piano_main_d2 - 001.ogg
182,192,72656,1,0,0:0:0:70:piano_sub_b2 - 002.ogg
36,192,72968,1,0,0:0:0:70:piano_sub_b2 - 003.ogg
256,192,72968,1,0,0:0:0:70:piano_sub_b2 - 004.ogg
402,192,72968,1,0,0:0:0:70:piano_main_d2 - 002.ogg
109,192,73281,1,0,0:0:0:70:piano_main_d2 - 003.ogg
256,192,73437,1,0,0:0:0:70:piano_main_d2 - 004.ogg
329,192,73489,1,0,0:0:0:70:piano_main_d2 - 005.ogg
256,192,73541,1,0,0:0:0:70:piano_main_d2 - 006.ogg
182,192,73593,1,0,0:0:0:70:piano_main_d2 - 007.ogg
109,192,73750,1,0,0:0:0:70:piano_main_d2 - 008.ogg
329,192,73750,1,0,0:0:0:70:piano_sub_b2 - 005.ogg
475,192,73750,1,0,0:0:0:70:piano_sub_b2 - 006.ogg
182,192,73854,1,0,0:0:0:70:piano_main_d2 - 009.ogg
109,192,73958,1,0,0:0:0:70:piano_main_d2 - 010.ogg
36,192,74062,1,0,0:0:0:70:piano_main_d2 - 011.ogg
109,192,74166,1,0,0:0:0:70:piano_main_d2 - 012.ogg
36,192,74270,1,0,0:0:0:70:piano_main_d2 - 013.ogg
256,192,74375,1,0,0:0:0:70:piano_main_d2 - 014.ogg
329,192,74531,1,0,0:0:0:70:piano_main_d2 - 015.ogg
36,192,74687,1,0,0:0:0:70:piano_sub_b2 - 008.ogg
256,192,74687,1,0,0:0:0:70:piano_main_d2 - 016.ogg
402,192,74687,1,0,0:0:0:70:piano_sub_b2 - 007.ogg
109,192,74843,1,0,0:0:0:70:piano_main_d2 - 017.ogg
182,192,75000,1,0,0:0:0:70:piano_main_d2 - 018.ogg
475,192,75000,1,0,0:0:0:70:piano_sub_b2 - 009.ogg
329,192,75156,1,0,0:0:0:70:piano_sub_b2 - 010.ogg
256,192,75312,1,0,0:0:0:70:piano_sub_b2 - 011.ogg
182,192,75468,1,0,0:0:0:70:piano_sub_b2 - 012.ogg
402,192,75468,1,0,0:0:0:70:piano_main_d2 - 019.ogg
36,192,75625,1,0,0:0:0:70:rev_cymbal.ogg
475,192,75781,1,0,0:0:0:70:piano_main_d2 - 020.ogg
256,192,76093,1,0,0:0:0:70:piano_main_d2 - 021.ogg
36,192,76250,1,0,0:0:0:70:piano_sub_b2 - 013.ogg
329,192,76250,1,0,0:0:0:70:piano_sub_b2 - 014.ogg
475,192,76250,1,0,0:0:0:70:noize_a2.ogg
182,192,76406,1,0,0:0:0:70:piano_main_d2 - 022.ogg
329,192,76562,1,0,0:0:0:70:piano_main_d2 - 023.ogg
402,192,76666,1,0,0:0:0:70:piano_main_d2 - 024.ogg
36,192,76718,1,0,0:0:0:70:piano_sub_b2 - 016.ogg
329,192,76770,1,0,0:0:0:70:piano_main_d2 - 025.ogg
182,192,76875,1,0,0:0:0:70:piano_main_d2 - 026.ogg
256,192,76953,1,0,0:0:0:70:piano_main_d2 - 027.ogg
475,192,77031,1,0,0:0:0:70:piano_main_d2 - 028.ogg
402,192,77083,1,0,0:0:0:70:piano_main_d2 - 029.ogg
329,192,77135,1,0,0:0:0:70:piano_main_d2 - 030.ogg
256,192,77187,1,0,0:0:0:70:piano_main_d2 - 031.ogg
36,192,77265,1,0,0:0:0:70:piano_main_d2 - 032.ogg
109,192,77343,1,0,0:0:0:70:piano_main_d2 - 033.ogg
182,192,77421,1,0,0:0:0:70:piano_main_d2 - 034.ogg
36,192,77500,1,0,0:0:0:70:cym1.ogg
256,192,77500,1,0,0:0:0:70:piano_main_d3 - 002.ogg
329,192,77500,1,0,0:0:0:70:piano_main_d3 - 001.ogg
475,192,77500,1,0,0:0:0:70:kick2.ogg
109,192,77656,1,0,0:0:0:70:piano_main_d3 - 003.ogg
182,192,77734,1,0,0:0:0:70:piano_main_d3 - 004.ogg
256,192,77812,1,0,0:0:0:70:piano_main_d3 - 005.ogg
329,192,77890,1,0,0:0:0:70:piano_main_d3 - 006.ogg
36,192,77968,1,0,0:0:0:70:cym3.ogg
182,192,77968,1,0,0:0:0:70:piano_main_d3 - 007.ogg
256,192,77968,1,0,0:0:0:70:piano_sub_b3 - 003.ogg
402,192,77968,1,0,0:0:0:70:piano_main_d3 - 008.ogg
475,192,77968,1,0,0:0:0:70:kick2.ogg
329,192,78281,1,0,0:0:0:70:piano_main_d3 - 009.ogg
475,192,78359,1,0,0:0:0:70:piano_main_d3 - 010.ogg
182,192,78437,1,0,0:0:0:70:piano_sub_b3 - 005.ogg
329,192,78437,1,0,0:0:0:70:piano_main_d3 - 011.ogg
256,192,78515,1,0,0:0:0:70:piano_main_d3 - 012.ogg
36,192,78593,1,0,0:0:0:70:piano_sub_b3 - 006.ogg
182,192,78593,1,0,0:0:0:70:piano_main_d3 - 013.ogg
109,192,78671,1,0,0:0:0:70:piano_main_d3 - 014.ogg
36,192,78750,1,0,0:0:0:70:piano_main_d3 - 015.ogg
182,192,78750,1,0,0:0:0:70:piano_sub_b3 - 008.ogg
402,192,78750,1,0,0:0:0:70:piano_sub_b3 - 007.ogg
329,192,78828,1,0,0:0:0:70:piano_main_d3 - 016.ogg
182,192,78906,1,0,0:0:0:70:piano_main_d3 - 017.ogg
256,192,78984,1,0,0:0:0:70:piano_main_d3 - 018.ogg
36,192,79062,1,0,0:0:0:70:piano_main_d3 - 019.ogg
475,192,79062,1,0,0:0:0:70:piano_main_d3 - 020.ogg
402,192,79140,1,0,0:0:0:70:hat1.ogg
109,192,79218,1,0,0:0:0:70:piano_main_d3 - 022.ogg
329,192,79218,1,0,0:0:0:70:piano_sub_b3 - 009.ogg
182,192,79296,1,0,0:0:0:70:piano_main_d3 - 023.ogg
36,192,79375,1,0,0:0:0:70:piano_main_d3 - 024.ogg
256,192,79375,1,0,0:0:0:70:piano_sub_b3 - 011.ogg
402,192,79375,1,0,0:0:0:70:piano_sub_b3 - 010.ogg
182,192,79453,1,0,0:0:0:70:piano_main_d3 - 025.ogg
329,192,79531,1,0,0:0:0:70:piano_main_d3 - 026.ogg
256,192,79609,1,0,0:0:0:70:piano_main_d3 - 027.ogg
402,192,79687,1,0,0:0:0:70:piano_main_d3 - 028.ogg
36,192,79765,1,0,0:0:0:70:piano_main_d3 - 029.ogg
256,192,79843,1,0,0:0:0:70:piano_main_d3 - 030.ogg
475,192,79921,1,0,0:0:0:70:piano_main_d3 - 031.ogg
36,192,80000,1,0,0:0:0:70:kick2.ogg
182,192,80000,1,0,0:0:0:70:piano_sub_b3 - 013.ogg
329,192,80000,1,0,0:0:0:70:piano_sub_b3 - 012.ogg
402,192,80000,1,0,0:0:0:70:piano_main_d3 - 033.ogg
256,192,80078,1,0,0:0:0:70:piano_main_d3 - 034.ogg
182,192,80156,1,0,0:0:0:70:piano_main_d3 - 035.ogg
36,192,80234,1,0,0:0:0:70:piano_main_d3 - 036.ogg
109,192,80312,1,0,0:0:0:70:piano_main_d3 - 037.ogg
256,192,80390,1,0,0:0:0:70:piano_main_d3 - 038.ogg
182,192,80468,1,0,0:0:0:70:piano_main_d3 - 039.ogg
329,192,80468,1,0,0:0:0:70:piano_sub_b3 - 016.ogg
475,192,80468,1,0,0:0:0:70:piano_sub_b3 - 017.ogg
36,192,80546,1,0,0:0:0:70:piano_main_d3 - 040.ogg
182,192,80625,1,0,0:0:0:70:piano_main_d3 - 041.ogg
256,192,80677,1,0,0:0:0:70:piano_main_d3 - 042.ogg
329,192,80729,1,0,0:0:0:70:piano_main_d3 - 043.ogg
475,192,80781,1,0,0:0:0:70:piano_main_d3 - 044.ogg
402,192,80859,1,0,0:0:0:70:piano_main_d3 - 045.ogg
109,192,80937,1,0,0:0:0:70:piano_sub_b3 - 018.ogg
475,192,80937,1,0,0:0:0:70:piano_main_d3 - 046.ogg
182,192,81015,1,0,0:0:0:70:piano_main_d3 - 047.ogg
256,192,81093,1,0,0:0:0:70:piano_main_d3 - 048.ogg
402,192,81171,1,0,0:0:0:70:piano_main_d3 - 049.ogg
36,192,81250,1,0,0:0:0:70:kick3.ogg
109,192,81250,1,0,0:0:0:70:piano_sub_b3 - 020.ogg
182,192,81250,1,0,0:0:0:70:cym4.ogg
256,192,81250,1,0,0:0:0:70:piano_sub_b3 - 019.ogg
329,192,81250,1,0,0:0:0:70:piano_main_d3 - 050.ogg
475,192,81250,1,0,0:0:0:70:piano_sub_b3 - 021.ogg
36,192,81458,1,0,0:0:0:70:piano_sub_b3 - 022.ogg
109,192,81458,1,0,0:0:0:70:strings_b1 - 005.ogg
182,192,81458,1,0,0:0:0:70:cym4.ogg
256,192,81458,1,0,0:0:0:70:kick3.ogg
329,192,81458,1,0,0:0:0:70:piano_main_d3 - 051.ogg
36,192,81666,1,0,0:0:0:70:kick3.ogg
109,192,81666,1,0,0:0:0:70:piano_sub_b3 - 023.ogg
182,192,81666,1,0,0:0:0:70:piano_main_d3 - 052.ogg
256,192,81666,1,0,0:0:0:70:strings_b1 - 006.ogg
402,192,81666,1,0,0:0:0:70:cym4.ogg
475,192,81666,1,0,0:0:0:70:hat1.ogg
36,192,81875,1,0,0:0:0:70:piano_sub_b3 - 024.ogg
109,192,81875,1,0,0:0:0:70:kick3.ogg
182,192,81875,1,0,0:0:0:70:piano_main_d3 - 053.ogg
256,192,81875,1,0,0:0:0:70:hat1.ogg
402,192,81875,1,0,0:0:0:70:cym4.ogg
36,192,82083,1,0,0:0:0:70:kick3.ogg
182,192,82083,1,0,0:0:0:70:piano_sub_b3 - 026.ogg
256,192,82083,1,0,0:0:0:70:piano_main_d3 - 054.ogg
329,192,82083,1,0,0:0:0:70:cym4.ogg
475,192,82083,1,0,0:0:0:70:strings_b1 - 008.ogg
36,192,82291,1,0,0:0:0:70:kick3.ogg
109,192,82291,1,0,0:0:0:70:piano_sub_b3 - 027.ogg
182,192,82291,1,0,0:0:0:70:piano_main_d3 - 055.ogg
402,192,82291,1,0,0:0:0:70:strings_b1 - 009.ogg
475,192,82291,1,0,0:0:0:70:cym4.ogg
36,192,82500,1,0,0:0:0:70:piano_main_d4 - 001.ogg
256,192,82500,1,0,0:0:0:70:piano_sub_b4 - 001.ogg
475,192,82500,1,0,0:0:0:70:piano_main_d4 - 002.ogg
182,192,82578,1,0,0:0:0:70:piano_main_d4 - 003.ogg
402,192,82656,1,0,0:0:0:70:piano_main_d4 - 004.ogg
329,192,82734,1,0,0:0:0:70:piano_main_d4 - 005.ogg
36,192,82812,1,0,0:0:0:70:kick2.ogg
256,192,82812,1,0,0:0:0:70:cym2.ogg
182,192,82890,1,0,0:0:0:70:hat1.ogg
402,192,82968,1,0,0:0:0:70:piano_main_d4 - 008.ogg
329,192,83046,1,0,0:0:0:70:piano_main_d4 - 009.ogg
36,192,83125,1,0,0:0:0:70:piano_main_d4 - 010.ogg
256,192,83125,1,0,0:0:0:70:hat1.ogg
475,192,83125,1,0,0:0:0:70:snare - 001.ogg
182,192,83203,1,0,0:0:0:70:piano_main_d4 - 011.ogg
109,192,83281,1,0,0:0:0:70:kick2.ogg
256,192,83281,1,0,0:0:0:70:piano_sub_b4 - 008.ogg
402,192,83281,1,0,0:0:0:70:cym1.ogg
182,192,83359,1,0,0:0:0:70:snare - 001.ogg
256,192,83437,1,0,0:0:0:70:piano_main_d4 - 015.ogg
475,192,83437,1,0,0:0:0:70:piano_main_d4 - 014.ogg
402,192,83515,1,0,0:0:0:70:piano_main_d4 - 016.ogg
36,192,83593,1,0,0:0:0:70:cym1.ogg
256,192,83593,1,0,0:0:0:70:kick2.ogg
329,192,83593,1,0,0:0:0:70:piano_sub_b4 - 009.ogg
109,192,83671,1,0,0:0:0:70:piano_main_d4 - 018.ogg
182,192,83750,1,0,0:0:0:70:piano_main_d4 - 020.ogg
329,192,83750,1,0,0:0:0:70:kick2.ogg
475,192,83750,1,0,0:0:0:70:piano_sub_b4 - 012.ogg
256,192,83854,1,0,0:0:0:70:piano_main_d4 - 021.ogg
329,192,83906,1,0,0:0:0:70:piano_sub_b4 - 013.ogg
402,192,83958,1,0,0:0:0:70:piano_main_d4 - 022.ogg
36,192,84062,1,0,0:0:0:70:piano_sub_b4 - 015.ogg
182,192,84062,1,0,0:0:0:70:piano_sub_b4 - 014.ogg
256,192,84166,1,0,0:0:0:70:piano_main_d4 - 025.ogg
329,192,84218,1,0,0:0:0:70:bass4.ogg
402,192,84270,1,0,0:0:0:70:piano_main_d4 - 026.ogg
182,192,84375,1,0,0:0:0:70:kick2.ogg
475,192,84375,1,0,0:0:0:70:piano_main_d4 - 028.ogg
36,192,84479,1,0,0:0:0:70:piano_main_d4 - 029.ogg
109,192,84531,1,0,0:0:0:70:piano_sub_b4 - 017.ogg
182,192,84583,1,0,0:0:0:70:piano_main_d4 - 031.ogg
402,192,84583,1,0,0:0:0:70:piano_main_d4 - 032.ogg
36,192,84687,1,0,0:0:0:70:piano_main_d4 - 033.ogg
329,192,84687,1,0,0:0:0:70:piano_main_d4 - 034.ogg
475,192,84687,1,0,0:0:0:70:clap1.ogg
109,192,84791,1,0,0:0:0:70:piano_main_d4 - 035.ogg
256,192,84791,1,0,0:0:0:70:piano_main_d4 - 036.ogg
182,192,84843,1,0,0:0:0:70:kick2.ogg
329,192,84843,1,0,0:0:0:70:cym1.ogg
256,192,84895,1,0,0:0:0:70:piano_main_d4 - 038.ogg
402,192,84895,1,0,0:0:0:70:piano_main_d4 - 037.ogg
36,192,85000,1,0,0:0:0:70:piano_main_d4 - 039.ogg
256,192,85000,1,0,0:0:0:70:kick2.ogg
329,192,85000,1,0,0:0:0:70:piano_main_d4 - 040.ogg
109,192,85078,1,0,0:0:0:70:piano_main_d4 - 041.ogg
182,192,85156,1,0,0:0:0:70:piano_main_d4 - 042.ogg
475,192,85234,1,0,0:0:0:70:piano_main_d4 - 043.ogg
36,192,85312,1,0,0:0:0:70:kick2.ogg
256,192,85312,1,0,0:0:0:70:piano_sub_b4 - 024.ogg
402,192,85312,1,0,0:0:0:70:piano_sub_b4 - 023.ogg
109,192,85390,1,0,0:0:0:70:piano_main_d4 - 045.ogg
256,192,85468,1,0,0:0:0:70:kick5.ogg
402,192,85546,1,0,0:0:0:70:piano_main_d4 - 047.ogg
36,192,85625,1,0,0:0:0:70:kick4.ogg
329,192,85625,1,0,0:0:0:70:piano_main_d4 - 048.ogg
475,192,85625,1,0,0:0:0:70:piano_sub_b4 - 026.ogg
182,192,85677,1,0,0:0:0:70:piano_main_d4 - 049.ogg
256,192,85729,1,0,0:0:0:70:piano_main_d4 - 050.ogg
109,192,85781,1,0,0:0:0:70:kick1.ogg
329,192,85781,1,0,0:0:0:70:piano_sub_b4 - 029.ogg
402,192,85781,1,0,0:0:0:70:piano_main_d4 - 051.ogg
182,192,85833,1,0,0:0:0:70:piano_main_d4 - 052.ogg
256,192,85885,1,0,0:0:0:70:piano_main_d4 - 053.ogg
109,192,85937,1,0,0:0:0:70:piano_main_d4 - 054.ogg
329,192,85937,1,0,0:0:0:70:snare - 004.ogg
402,192,85937,1,0,0:0:0:70:kick4.ogg
182,192,85989,1,0,0:0:0:70:piano_main_d4 - 055.ogg
256,192,86041,1,0,0:0:0:70:piano_main_d4 - 056.ogg
36,192,86093,1,0,0:0:0:70:piano_main_d4 - 057.ogg
329,192,86093,1,0,0:0:0:70:piano_sub_b4 - 033.ogg
402,192,86093,1,0,0:0:0:70:hat2.ogg
182,192,86145,1,0,0:0:0:70:piano_main_d4 - 058.ogg
256,192,86197,1,0,0:0:0:70:piano_main_d4 - 059.ogg
36,192,86250,1,0,0:0:0:70:kick2.ogg
109,192,86250,1,0,0:0:0:70:piano_main_d4 - 060.ogg
182,192,86250,1,0,0:0:0:70:vanishing_world.ogg
329,192,86250,1,0,0:0:0:70:cym.ogg
475,192,86250,1,0,0:0:0:70:strings_c1 - 007.ogg
475,192,87031,1,0,0:0:0:70:kick1.ogg
475,192,87109,1,0,0:0:0:70:kick1.ogg
182,192,87187,1,0,0:0:0:70:clap2.ogg
36,192,87500,1,0,0:0:0:70:sawlead_000.ogg
109,192,87500,1,0,0:0:0:70:cym.ogg
329,192,87500,1,0,0:0:0:70:kick2.ogg
475,192,87500,1,0,0:0:0:70:hat1.ogg
256,192,87578,1,0,0:0:0:70:saw_cut - 002.ogg
402,192,87578,1,0,0:0:0:70:hat1.ogg
182,192,87656,1,0,0:0:0:70:sawlead_001.ogg
329,192,87656,1,0,0:0:0:70:hat2.ogg
256,192,87734,1,0,0:0:0:70:sawlead_002.ogg
36,192,87812,1,0,0:0:0:70:clap1.ogg
182,192,87812,1,0,0:0:0:70:kick2.ogg
402,192,87812,1,0,0:0:0:70:acid_b1 - 004.ogg
475,192,87812,1,0,0:0:0:70:hat1.ogg
109,192,87890,1,0,0:0:0:70:sawlead_003.ogg
329,192,87890,1,0,0:0:0:70:acid_b1 - 005.ogg
182,192,87968,1,0,0:0:0:70:sawlead_004.ogg
256,192,87968,1,0,0:0:0:70:acid_b1 - 006.ogg
402,192,87968,1,0,0:0:0:70:hat2.ogg
109,192,88046,1,0,0:0:0:70:acid_b1 - 007.ogg
36,192,88125,1,0,0:0:0:70:hat1.ogg
182,192,88125,1,0,0:0:0:70:kick2.ogg
329,192,88125,1,0,0:0:0:70:sawlead_005.ogg
475,192,88125,1,0,0:0:0:70:acid_b1 - 008.ogg
109,192,88203,1,0,0:0:0:70:hat1.ogg
256,192,88203,1,0,0:0:0:70:sawlead_006.ogg
402,192,88203,1,0,0:0:0:70:saw_cut - 008.ogg
36,192,88281,1,0,0:0:0:70:hat2.ogg
182,192,88281,1,0,0:0:0:70:hat1.ogg
329,192,88281,1,0,0:0:0:70:saw_cut - 009.ogg
256,192,88359,1,0,0:0:0:70:sawlead_007.ogg
109,192,88437,1,0,0:0:0:70:sawlead_008.ogg
182,192,88437,1,0,0:0:0:70:clap1.ogg
402,192,88437,1,0,0:0:0:70:kick2.ogg
256,192,88515,1,0,0:0:0:70:hat1.ogg
475,192,88515,1,0,0:0:0:70:sawlead_009.ogg
36,192,88593,1,0,0:0:0:70:sawlead_010.ogg
182,192,88593,1,0,0:0:0:70:hat2.ogg
329,192,88593,1,0,0:0:0:70:bass3.ogg
402,192,88593,1,0,0:0:0:70:acid_b1 - 010.ogg
36,192,88750,1,0,0:0:0:70:kick2.ogg
109,192,88750,1,0,0:0:0:70:piano_sub_a1 - 004.ogg
329,192,88750,1,0,0:0:0:70:sawlead_011.ogg
475,192,88750,1,0,0:0:0:70:piano_sub_a1 - 005.ogg
182,192,88828,1,0,0:0:0:70:hat1.ogg
256,192,88828,1,0,0:0:0:70:acid_b1 - 012.ogg
109,192,88906,1,0,0:0:0:70:sawlead_012.ogg
329,192,88906,1,0,0:0:0:70:acid_b1 - 013.ogg
475,192,88906,1,0,0:0:0:70:hat2.ogg
182,192,88984,1,0,0:0:0:70:sawlead_013.ogg
36,192,89062,1,0,0:0:0:70:kick2.ogg
256,192,89062,1,0,0:0:0:70:piano_sub_a1 - 007.ogg
329,192,89062,1,0,0:0:0:70:hat1.ogg
402,192,89062,1,0,0:0:0:70:clap1.ogg
109,192,89140,1,0,0:0:0:70:sawlead_014.ogg
475,192,89140,1,0,0:0:0:70:acid_b1 - 015.ogg
182,192,89218,1,0,0:0:0:70:sawlead_015.ogg
256,192,89218,1,0,0:0:0:70:acid_b1 - 016.ogg
329,192,89218,1,0,0:0:0:70:hat2.ogg
402,192,89218,1,0,0:0:0:70:piano_sub_a1 - 008.ogg
109,192,89296,1,0,0:0:0:70:acid_b1 - 017.ogg
182,192,89375,1,0,0:0:0:70:kick2.ogg
329,192,89375,1,0,0:0:0:70:hat1.ogg
475,192,89375,1,0,0:0:0:70:acid_b1 - 018.ogg
256,192,89453,1,0,0:0:0:70:sawlead_017.ogg
402,192,89453,1,0,0:0:0:70:hat1.ogg
36,192,89531,1,0,0:0:0:70:hat1.ogg
182,192,89531,1,0,0:0:0:70:bass4.ogg
329,192,89531,1,0,0:0:0:70:hat2.ogg
256,192,89609,1,0,0:0:0:70:sawlead_018.ogg
109,192,89687,1,0,0:0:0:70:sawlead_019.ogg
182,192,89687,1,0,0:0:0:70:clap1.ogg
329,192,89687,1,0,0:0:0:70:kick2.ogg
475,192,89687,1,0,0:0:0:70:acid_b1 - 019.ogg
256,192,89765,1,0,0:0:0:70:sawlead_020.ogg
36,192,89843,1,0,0:0:0:70:sawlead_021.ogg
182,192,89843,1,0,0:0:0:70:acid_b1 - 020.ogg
329,192,89843,1,0,0:0:0:70:hat2.ogg
402,192,89843,1,0,0:0:0:70:bass5.ogg
36,192,90000,1,0,0:0:0:70:kick2.ogg
182,192,90000,1,0,0:0:0:70:sawlead_022.ogg
329,192,90000,1,0,0:0:0:70:piano_sub_a1 - 017.ogg
402,192,90000,1,0,0:0:0:70:hat1.ogg
475,192,90000,1,0,0:0:0:70:piano_sub_a1 - 016.ogg
109,192,90078,1,0,0:0:0:70:acid_b1 - 022.ogg
256,192,90078,1,0,0:0:0:70:hat1.ogg
182,192,90156,1,0,0:0:0:70:hat1.ogg
329,192,90156,1,0,0:0:0:70:sawlead_023.ogg
402,192,90156,1,0,0:0:0:70:hat2.ogg
109,192,90234,1,0,0:0:0:70:sawlead_024.ogg
36,192,90312,1,0,0:0:0:70:clap1.ogg
182,192,90312,1,0,0:0:0:70:hat1.ogg
402,192,90312,1,0,0:0:0:70:kick2.ogg
109,192,90390,1,0,0:0:0:70:hat1.ogg
256,192,90390,1,0,0:0:0:70:sawlead_025.ogg
329,192,90390,1,0,0:0:0:70:acid_b1 - 025.ogg
182,192,90468,1,0,0:0:0:70:sawlead_026.ogg
402,192,90468,1,0,0:0:0:70:hat2.ogg
256,192,90546,1,0,0:0:0:70:acid_b1 - 027.ogg
36,192,90625,1,0,0:0:0:70:kick2.ogg
109,192,90625,1,0,0:0:0:70:sawlead_027.ogg
182,192,90625,1,0,0:0:0:70:hat1.ogg
329,192,90625,1,0,0:0:0:70:piano_sub_a1 - 018.ogg
402,192,90625,1,0,0:0:0:70:acid_b1 - 028.ogg
256,192,90703,1,0,0:0:0:70:sawlead_028.ogg
182,192,90781,1,0,0:0:0:70:hat1.ogg
329,192,90781,1,0,0:0:0:70:hat2.ogg
475,192,90781,1,0,0:0:0:70:piano_sub_a1 - 019.ogg
109,192,90859,1,0,0:0:0:70:sawlead_029.ogg
36,192,90937,1,0,0:0:0:70:sawlead_030.ogg
256,192,90937,1,0,0:0:0:70:piano_sub_a1 - 020.ogg
402,192,90937,1,0,0:0:0:70:clap1.ogg
475,192,90937,1,0,0:0:0:70:kick2.ogg
109,192,91015,1,0,0:0:0:70:sawlead_031.ogg
36,192,91093,1,0,0:0:0:70:hat1.ogg
182,192,91093,1,0,0:0:0:70:sawlead_032.ogg
402,192,91093,1,0,0:0:0:70:piano_sub_a1 - 021.ogg
256,192,91171,1,0,0:0:0:70:hat2.ogg
36,192,91250,1,0,0:0:0:70:hat1.ogg
109,192,91250,1,0,0:0:0:70:piano_sub_a1 - 022.ogg
182,192,91250,1,0,0:0:0:70:sawlead_033.ogg
329,192,91250,1,0,0:0:0:70:kick2.ogg
256,192,91328,1,0,0:0:0:70:hat1.ogg
109,192,91406,1,0,0:0:0:70:hat1.ogg
182,192,91406,1,0,0:0:0:70:acid_b1 - 033.ogg
329,192,91406,1,0,0:0:0:70:hat2.ogg
475,192,91406,1,0,0:0:0:70:sawlead_034.ogg
402,192,91484,1,0,0:0:0:70:sawlead_035.ogg
36,192,91562,1,0,0:0:0:70:kick2.ogg
329,192,91562,1,0,0:0:0:70:clap1.ogg
475,192,91562,1,0,0:0:0:70:hat1.ogg
109,192,91640,1,0,0:0:0:70:acid_b1 - 035.ogg
256,192,91640,1,0,0:0:0:70:hat1.ogg
182,192,91718,1,0,0:0:0:70:sawlead_037.ogg
402,192,91718,1,0,0:0:0:70:hat2.ogg
475,192,91718,1,0,0:0:0:70:hat1.ogg
36,192,91796,1,0,0:0:0:70:acid_b1 - 037.ogg
109,192,91875,1,0,0:0:0:70:sawlead_038.ogg
256,192,91875,1,0,0:0:0:70:piano_sub_a1 - 025.ogg
329,192,91875,1,0,0:0:0:70:kick2.ogg
402,192,91875,1,0,0:0:0:70:hat1.ogg
475,192,91875,1,0,0:0:0:70:piano_sub_a1 - 026.ogg
182,192,91953,1,0,0:0:0:70:hat1.ogg
256,192,92031,1,0,0:0:0:70:sawlead_039.ogg
475,192,92031,1,0,0:0:0:70:hat2.ogg
402,192,92109,1,0,0:0:0:70:sawlead_040.ogg
182,192,92187,1,0,0:0:0:70:hat1.ogg
329,192,92187,1,0,0:0:0:70:kick2.ogg
475,192,92187,1,0,0:0:0:70:clap1.ogg
109,192,92265,1,0,0:0:0:70:sawlead_041.ogg
256,192,92265,1,0,0:0:0:70:hat1.ogg
36,192,92343,1,0,0:0:0:70:kick2.ogg
182,192,92343,1,0,0:0:0:70:hat2.ogg
402,192,92343,1,0,0:0:0:70:hat1.ogg
475,192,92343,1,0,0:0:0:70:sawlead_042.ogg
36,192,92500,1,0,0:0:0:70:piano_sub_a2 - 003.ogg
109,192,92500,1,0,0:0:0:70:sawlead_043.ogg
256,192,92500,1,0,0:0:0:70:piano_sub_a2 - 002.ogg
329,192,92500,1,0,0:0:0:70:kick2.ogg
475,192,92500,1,0,0:0:0:70:piano_sub_a2 - 001.ogg
182,192,92578,1,0,0:0:0:70:hat1.ogg
36,192,92656,1,0,0:0:0:70:hat2.ogg
256,192,92656,1,0,0:0:0:70:hat1.ogg
402,192,92656,1,0,0:0:0:70:sawlead_044.ogg
475,192,92656,1,0,0:0:0:70:piano_sub_a2 - 004.ogg
182,192,92734,1,0,0:0:0:70:sawlead_045.ogg
109,192,92812,1,0,0:0:0:70:kick2.ogg
256,192,92812,1,0,0:0:0:70:clap1.ogg
329,192,92812,1,0,0:0:0:70:hat1.ogg
182,192,92890,1,0,0:0:0:70:hat1.ogg
402,192,92890,1,0,0:0:0:70:sawlead_046.ogg
36,192,92968,1,0,0:0:0:70:sawlead_047.ogg
256,192,92968,1,0,0:0:0:70:hat2.ogg
329,192,92968,1,0,0:0:0:70:piano_sub_a2 - 005.ogg
475,192,92968,1,0,0:0:0:70:hat1.ogg
182,192,93046,1,0,0:0:0:70:acid_b1 - 049.ogg
109,192,93125,1,0,0:0:0:70:kick2.ogg
402,192,93125,1,0,0:0:0:70:sawlead_048.ogg
475,192,93125,1,0,0:0:0:70:hat1.ogg
182,192,93203,1,0,0:0:0:70:sawlead_049.ogg
329,192,93203,1,0,0:0:0:70:hat1.ogg
36,192,93281,1,0,0:0:0:70:hat1.ogg
109,192,93281,1,0,0:0:0:70:hat2.ogg
475,192,93359,1,0,0:0:0:70:sawlead_050.ogg
36,192,93437,1,0,0:0:0:70:sawlead_051.ogg
109,192,93437,1,0,0:0:0:70:hat1.ogg
182,192,93437,1,0,0:0:0:70:kick2.ogg
329,192,93437,1,0,0:0:0:70:clap1.ogg
256,192,93515,1,0,0:0:0:70:sawlead_052.ogg
402,192,93515,1,0,0:0:0:70:hat1.ogg
36,192,93593,1,0,0:0:0:70:hat1.ogg
182,192,93593,1,0,0:0:0:70:hat2.ogg
475,192,93593,1,0,0:0:0:70:sawlead_053.ogg
36,192,93750,1,0,0:0:0:70:kick2.ogg
182,192,93750,1,0,0:0:0:70:sawlead_054.ogg
329,192,93750,1,0,0:0:0:70:hat1.ogg
109,192,93828,1,0,0:0:0:70:hat1.ogg
36,192,93906,1,0,0:0:0:70:hat1.ogg
256,192,93906,1,0,0:0:0:70:sawlead_055.ogg
402,192,93906,1,0,0:0:0:70:hat2.ogg
109,192,93984,1,0,0:0:0:70:sawlead_056.ogg
36,192,94062,1,0,0:0:0:70:clap1.ogg
256,192,94062,1,0,0:0:0:70:acid_b1 - 056.ogg
329,192,94062,1,0,0:0:0:70:hat1.ogg
475,192,94062,1,0,0:0:0:70:kick2.ogg
182,192,94140,1,0,0:0:0:70:hat1.ogg
402,192,94140,1,0,0:0:0:70:sawlead_057.ogg
109,192,94218,1,0,0:0:0:70:acid_b1 - 058.ogg
256,192,94218,1,0,0:0:0:70:hat2.ogg
475,192,94218,1,0,0:0:0:70:sawlead_058.ogg
402,192,94296,1,0,0:0:0:70:acid_b1 - 059.ogg
36,192,94375,1,0,0:0:0:70:kick2.ogg
182,192,94375,1,0,0:0:0:70:acid_b1 - 060.ogg
329,192,94375,1,0,0:0:0:70:hat1.ogg
475,192,94375,1,0,0:0:0:70:sawlead_059.ogg
109,192,94453,1,0,0:0:0:70:hat1.ogg
256,192,94531,1,0,0:0:0:70:hat2.ogg
475,192,94531,1,0,0:0:0:70:sawlead_060.ogg
329,192,94609,1,0,0:0:0:70:sawlead_061.ogg
36,192,94687,1,0,0:0:0:70:kick2.ogg
256,192,94687,1,0,0:0:0:70:acid_b1 - 061.ogg
182,192,94765,1,0,0:0:0:70:sawlead_062.ogg
36,192,94843,1,0,0:0:0:70:hat1.ogg
109,192,94843,1,0,0:0:0:70:hat2.ogg
329,192,94843,1,0,0:0:0:70:sawlead_063.ogg
36,192,95000,1,0,0:0:0:70:sawlead_064.ogg
182,192,95000,1,0,0:0:0:70:piano_sub_a2 - 017.ogg
329,192,95000,1,0,0:0:0:70:hat1.ogg
475,192,95000,1,0,0:0:0:70:kick2.ogg
109,192,95078,1,0,0:0:0:70:saw_cut - 074.ogg
256,192,95078,1,0,0:0:0:70:hat1.ogg
402,192,95078,1,0,0:0:0:70:sawlead_065.ogg
36,192,95156,1,0,0:0:0:70:hat2.ogg
182,192,95156,1,0,0:0:0:70:hat1.ogg
329,192,95156,1,0,0:0:0:70:bass6.ogg
475,192,95156,1,0,0:0:0:70:sawlead_066.ogg
256,192,95234,1,0,0:0:0:70:sawlead_067.ogg
36,192,95312,1,0,0:0:0:70:sawlead_068.ogg
182,192,95312,1,0,0:0:0:70:kick2.ogg
329,192,95312,1,0,0:0:0:70:hat1.ogg
475,192,95312,1,0,0:0:0:70:piano_sub_a2 - 019.ogg
36,192,95468,1,0,0:0:0:70:sawlead_069.ogg
109,192,95468,1,0,0:0:0:70:hat1.ogg
182,192,95468,1,0,0:0:0:70:hat2.ogg
256,192,95468,1,0,0:0:0:70:piano_sub_a2 - 022.ogg
402,192,95546,1,0,0:0:0:70:sawlead_070.ogg
475,192,95546,1,0,0:0:0:70:acid_b1 - 069.ogg
36,192,95625,1,0,0:0:0:70:kick2.ogg
109,192,95625,1,0,0:0:0:70:hat1.ogg
182,192,95625,1,0,0:0:0:70:sawlead_071.ogg
256,192,95625,1,0,0:0:0:70:saw_cut - 079.ogg
402,192,95703,1,0,0:0:0:70:hat1.ogg
475,192,95703,1,0,0:0:0:70:sawlead_072.ogg
36,192,95781,1,0,0:0:0:70:hat1.ogg
109,192,95781,1,0,0:0:0:70:hat2.ogg
182,192,95781,1,0,0:0:0:70:sawlead_073.ogg
256,192,95781,1,0,0:0:0:70:bass6.ogg
109,192,95937,1,0,0:0:0:70:sawlead_074.ogg
329,192,95937,1,0,0:0:0:70:kick2.ogg
402,192,95937,1,0,0:0:0:70:hat1.ogg
475,192,95937,1,0,0:0:0:70:clap1.ogg
182,192,96015,1,0,0:0:0:70:sawlead_075.ogg
256,192,96015,1,0,0:0:0:70:hat1.ogg
109,192,96093,1,0,0:0:0:70:hat2.ogg
329,192,96093,1,0,0:0:0:70:sawlead_076.ogg
402,192,96093,1,0,0:0:0:70:hat1.ogg
475,192,96093,1,0,0:0:0:70:bass6.ogg
182,192,96171,1,0,0:0:0:70:sawlead_077.ogg
36,192,96250,1,0,0:0:0:70:sawlead_078.ogg
329,192,96250,1,0,0:0:0:70:piano_sub_a2 - 025.ogg
402,192,96250,1,0,0:0:0:70:hat1.ogg
475,192,96250,1,0,0:0:0:70:kick2.ogg
109,192,96328,1,0,0:0:0:70:hat1.ogg
182,192,96406,1,0,0:0:0:70:sawlead_080.ogg
256,192,96406,1,0,0:0:0:70:hat2.ogg
36,192,96484,1,0,0:0:0:70:sawlead_081.ogg
109,192,96562,1,0,0:0:0:70:kick2.ogg
256,192,96562,1,0,0:0:0:70:piano_sub_a2 - 027.ogg
329,192,96562,1,0,0:0:0:70:sawlead_082.ogg
402,192,96562,1,0,0:0:0:70:clap1.ogg
182,192,96640,1,0,0:0:0:70:hat1.ogg
36,192,96718,1,0,0:0:0:70:hat1.ogg
256,192,96718,1,0,0:0:0:70:sawlead_084.ogg
475,192,96718,1,0,0:0:0:70:hat2.ogg
182,192,96796,1,0,0:0:0:70:sawlead_085.ogg
402,192,96796,1,0,0:0:0:70:acid_b1 - 079.ogg
36,192,96875,1,0,0:0:0:70:piano_sub_a2 - 029.ogg
109,192,96875,1,0,0:0:0:70:sawlead_086.ogg
256,192,96875,1,0,0:0:0:70:hat1.ogg
329,192,96875,1,0,0:0:0:70:kick2.ogg
182,192,96953,1,0,0:0:0:70:hat1.ogg
256,192,97031,1,0,0:0:0:70:hat2.ogg
36,192,97109,1,0,0:0:0:70:sawlead_088.ogg
182,192,97109,1,0,0:0:0:70:acid_b1 - 082.ogg
109,192,97187,1,0,0:0:0:70:clap1.ogg
256,192,97187,1,0,0:0:0:70:kick2.ogg
402,192,97187,1,0,0:0:0:70:hat1.ogg
36,192,97343,1,0,0:0:0:70:kick2.ogg
182,192,97343,1,0,0:0:0:70:hat1.ogg
256,192,97343,1,0,0:0:0:70:hat2.ogg
329,192,97343,1,0,0:0:0:70:sawlead_090.ogg
36,192,97500,1,0,0:0:0:70:cym1.ogg
109,192,97500,1,0,0:0:0:70:piano_sub_a3 - 001.ogg
182,192,97500,1,0,0:0:0:70:piano_sub_a3 - 002.ogg
329,192,97500,1,0,0:0:0:70:sawlead_091.ogg
402,192,97500,1,0,0:0:0:70:piano_sub_a3 - 003.ogg
475,192,97500,1,0,0:0:0:70:kick2.ogg
36,192,97656,1,0,0:0:0:70:sawlead_092.ogg
329,192,97656,1,0,0:0:0:70:rev_kick.ogg
475,192,97656,1,0,0:0:0:70:hat2.ogg
109,192,97708,1,0,0:0:0:70:sawlead_093.ogg
182,192,97760,1,0,0:0:0:70:sawlead_094.ogg
256,192,97812,1,0,0:0:0:70:sawlead_095.ogg
329,192,97864,1,0,0:0:0:70:sawlead_096.ogg
402,192,97916,1,0,0:0:0:70:sawlead_097.ogg
36,192,97968,1,0,0:0:0:70:cym3.ogg
182,192,97968,1,0,0:0:0:70:kick2.ogg
256,192,97968,1,0,0:0:0:70:piano_sub_a3 - 004.ogg
475,192,97968,1,0,0:0:0:70:sawlead_098.ogg
36,192,98437,1,0,0:0:0:70:sawlead_100.ogg
329,192,98437,1,0,0:0:0:70:hat1.ogg
475,192,98437,1,0,0:0:0:70:kick2.ogg
182,192,98515,1,0,0:0:0:70:sawlead_101.ogg
256,192,98593,1,0,0:0:0:70:kick2.ogg
329,192,98593,1,0,0:0:0:70:sawlead_102.ogg
475,192,98593,1,0,0:0:0:70:hat2.ogg
182,192,98671,1,0,0:0:0:70:sawlead_103.ogg
36,192,98750,1,0,0:0:0:70:piano_sub_a1 - 005.ogg
256,192,98750,1,0,0:0:0:70:kick2.ogg
402,192,98750,1,0,0:0:0:70:sawlead_104.ogg
182,192,98828,1,0,0:0:0:70:hat1.ogg
256,192,98906,1,0,0:0:0:70:hat2.ogg
329,192,98906,1,0,0:0:0:70:sawlead_105.ogg
475,192,98906,1,0,0:0:0:70:hat1.ogg
182,192,98984,1,0,0:0:0:70:sawlead_106.ogg
36,192,99062,1,0,0:0:0:70:sawlead_107.ogg
109,192,99062,1,0,0:0:0:70:clap1.ogg
329,192,99062,1,0,0:0:0:70:kick2.ogg
475,192,99062,1,0,0:0:0:70:acid_b1 - 014.ogg
256,192,99140,1,0,0:0:0:70:acid_b1 - 015.ogg
402,192,99140,1,0,0:0:0:70:sawlead_108.ogg
36,192,99218,1,0,0:0:0:70:sawlead_109.ogg
182,192,99218,1,0,0:0:0:70:hat2.ogg
329,192,99218,1,0,0:0:0:70:hat1.ogg
402,192,99296,1,0,0:0:0:70:acid_b1 - 017.ogg
36,192,99375,1,0,0:0:0:70:hat1.ogg
109,192,99375,1,0,0:0:0:70:kick2.ogg
256,192,99375,1,0,0:0:0:70:sawlead_110.ogg
329,192,99375,1,0,0:0:0:70:saw_cut - 115.ogg
182,192,99453,1,0,0:0:0:70:sawlead_111.ogg
256,192,99531,1,0,0:0:0:70:hat2.ogg
402,192,99531,1,0,0:0:0:70:sawlead_112.ogg
182,192,99609,1,0,0:0:0:70:sawlead_113.ogg
109,192,99687,1,0,0:0:0:70:sawlead_114.ogg
256,192,99687,1,0,0:0:0:70:saw_cut - 118.ogg
329,192,99687,1,0,0:0:0:70:kick2.ogg
402,192,99687,1,0,0:0:0:70:clap1.ogg
475,192,99687,1,0,0:0:0:70:piano_sub_a1 - 013.ogg
36,192,99765,1,0,0:0:0:70:sawlead_115.ogg
109,192,99843,1,0,0:0:0:70:sawlead_116.ogg
329,192,99843,1,0,0:0:0:70:hat1.ogg
475,192,99843,1,0,0:0:0:70:hat2.ogg
182,192,99921,1,0,0:0:0:70:sawlead_117.ogg
36,192,100000,1,0,0:0:0:70:sawlead_118.ogg
256,192,100000,1,0,0:0:0:70:kick2.ogg
402,192,100000,1,0,0:0:0:70:saw_cut - 121.ogg
182,192,100078,1,0,0:0:0:70:sawlead_119.ogg
475,192,100078,1,0,0:0:0:70:hat1.ogg
36,192,100156,1,0,0:0:0:70:sawlead_120.ogg
329,192,100156,1,0,0:0:0:70:hat2.ogg
182,192,100234,1,0,0:0:0:70:sawlead_121.ogg
109,192,100312,1,0,0:0:0:70:sawlead_122.ogg
256,192,100312,1,0,0:0:0:70:kick2.ogg
402,192,100312,1,0,0:0:0:70:clap1.ogg
475,192,100312,1,0,0:0:0:70:hat1.ogg
329,192,100390,1,0,0:0:0:70:hat1.ogg
182,192,100468,1,0,0:0:0:70:sawlead_123.ogg
109,192,100546,1,0,0:0:0:70:sawlead_124.ogg
36,192,100625,1,0,0:0:0:70:sawlead_125.ogg
256,192,100625,1,0,0:0:0:70:piano_sub_a1 - 018.ogg
402,192,100625,1,0,0:0:0:70:hat1.ogg
475,192,100625,1,0,0:0:0:70:kick2.ogg
109,192,100703,1,0,0:0:0:70:sawlead_126.ogg
329,192,100703,1,0,0:0:0:70:hat1.ogg
182,192,100781,1,0,0:0:0:70:sawlead_127.ogg
402,192,100781,1,0,0:0:0:70:hat2.ogg
475,192,100781,1,0,0:0:0:70:piano_sub_a1 - 019.ogg
329,192,100859,1,0,0:0:0:70:sawlead_128.ogg
36,192,100937,1,0,0:0:0:70:clap1.ogg
109,192,100937,1,0,0:0:0:70:hat1.ogg
256,192,100937,1,0,0:0:0:70:sawlead_129.ogg
402,192,100937,1,0,0:0:0:70:kick2.ogg
182,192,101015,1,0,0:0:0:70:saw_cut - 131.ogg
329,192,101015,1,0,0:0:0:70:sawlead_130.ogg
109,192,101093,1,0,0:0:0:70:piano_sub_a1 - 021.ogg
256,192,101093,1,0,0:0:0:70:hat1.ogg
475,192,101093,1,0,0:0:0:70:sawlead_131.ogg
329,192,101171,1,0,0:0:0:70:sawlead_132.ogg
36,192,101250,1,0,0:0:0:70:kick2.ogg
475,192,101250,1,0,0:0:0:70:sawlead_133.ogg
329,192,101328,1,0,0:0:0:70:sawlead_134.ogg
182,192,101406,1,0,0:0:0:70:sawlead_135.ogg
256,192,101406,1,0,0:0:0:70:hat1.ogg
402,192,101406,1,0,0:0:0:70:hat2.ogg
109,192,101484,1,0,0:0:0:70:sawlead_136.ogg
36,192,101562,1,0,0:0:0:70:sawlead_137.ogg
329,192,101562,1,0,0:0:0:70:clap1.ogg
475,192,101562,1,0,0:0:0:70:kick2.ogg
109,192,101640,1,0,0:0:0:70:sawlead_138.ogg
402,192,101640,1,0,0:0:0:70:hat1.ogg
36,192,101718,1,0,0:0:0:70:hat2.ogg
256,192,101718,1,0,0:0:0:70:sawlead_139.ogg
329,192,101718,1,0,0:0:0:70:hat1.ogg
402,192,101796,1,0,0:0:0:70:sawlead_140.ogg
36,192,101875,1,0,0:0:0:70:hat1.ogg
182,192,101875,1,0,0:0:0:70:piano_sub_a3 - 010.ogg
256,192,101875,1,0,0:0:0:70:kick2.ogg
475,192,101875,1,0,0:0:0:70:sawlead_141.ogg
329,192,101953,1,0,0:0:0:70:hat1.ogg
109,192,102031,1,0,0:0:0:70:sawlead_142.ogg
182,192,102031,1,0,0:0:0:70:hat2.ogg
402,192,102031,1,0,0:0:0:70:hat1.ogg
256,192,102109,1,0,0:0:0:70:sawlead_143.ogg
329,192,102187,1,0,0:0:0:70:kick2.ogg
402,192,102187,1,0,0:0:0:70:hat1.ogg
475,192,102187,1,0,0:0:0:70:clap1.ogg
109,192,102265,1,0,0:0:0:70:hat1.ogg
182,192,102265,1,0,0:0:0:70:sawlead_144.ogg
36,192,102343,1,0,0:0:0:70:kick2.ogg
256,192,102343,1,0,0:0:0:70:sawlead_145.ogg
329,192,102343,1,0,0:0:0:70:hat1.ogg
475,192,102343,1,0,0:0:0:70:hat2.ogg
182,192,102421,1,0,0:0:0:70:sawlead_146.ogg
256,192,102500,1,0,0:0:0:70:cym3.ogg
402,192,102500,1,0,0:0:0:70:kick2.ogg
475,192,102500,1,0,0:0:0:70:piano_sub_a4 - 001.ogg
36,192,102578,1,0,0:0:0:70:hat1.ogg
109,192,102656,1,0,0:0:0:70:hat2.ogg
182,192,102656,1,0,0:0:0:70:piano_sub_a4 - 002.ogg
329,192,102656,1,0,0:0:0:70:sawlead_148.ogg
402,192,102656,1,0,0:0:0:70:hat1.ogg
36,192,102734,1,0,0:0:0:70:sawlead_149.ogg
109,192,102812,1,0,0:0:0:70:clap1.ogg
182,192,102812,1,0,0:0:0:70:kick2.ogg
256,192,102812,1,0,0:0:0:70:hat1.ogg
475,192,102812,1,0,0:0:0:70:piano_sub_a4 - 003.ogg
36,192,102890,1,0,0:0:0:70:sawlead_150.ogg
182,192,102968,1,0,0:0:0:70:hat1.ogg
256,192,102968,1,0,0:0:0:70:hat2.ogg
329,192,102968,1,0,0:0:0:70:sawlead_151.ogg
402,192,102968,1,0,0:0:0:70:piano_sub_a4 - 004.ogg
36,192,103046,1,0,0:0:0:70:acid_b1 - 049.ogg
109,192,103125,1,0,0:0:0:70:cym1.ogg
182,192,103125,1,0,0:0:0:70:hat1.ogg
329,192,103125,1,0,0:0:0:70:kick2.ogg
475,192,103125,1,0,0:0:0:70:sawlead_152.ogg
256,192,103203,1,0,0:0:0:70:hat1.ogg
109,192,103281,1,0,0:0:0:70:hat2.ogg
182,192,103281,1,0,0:0:0:70:hat1.ogg
402,192,103281,1,0,0:0:0:70:sawlead_153.ogg
256,192,103359,1,0,0:0:0:70:kick2.ogg
329,192,103359,1,0,0:0:0:70:sawlead_154.ogg
475,192,103359,1,0,0:0:0:70:cym1.ogg
36,192,103437,1,0,0:0:0:70:hat1.ogg
402,192,103437,1,0,0:0:0:70:clap1.ogg
256,192,103515,1,0,0:0:0:70:sawlead_155.ogg
475,192,103515,1,0,0:0:0:70:hat1.ogg
109,192,103593,1,0,0:0:0:70:cym1.ogg
182,192,103593,1,0,0:0:0:70:hat1.ogg
329,192,103593,1,0,0:0:0:70:sawlead_156.ogg
402,192,103593,1,0,0:0:0:70:kick2.ogg
36,192,103750,1,0,0:0:0:70:sawlead_157.ogg
182,192,103750,1,0,0:0:0:70:acid_b1 - 053.ogg
256,192,103750,1,0,0:0:0:70:kick2.ogg
402,192,103750,1,0,0:0:0:70:cym3.ogg
329,192,103828,1,0,0:0:0:70:hat1.ogg
109,192,103906,1,0,0:0:0:70:piano_sub_a4 - 009.ogg
256,192,103906,1,0,0:0:0:70:hat2.ogg
475,192,103906,1,0,0:0:0:70:sawlead_158.ogg
182,192,103984,1,0,0:0:0:70:sawlead_159.ogg
36,192,104062,1,0,0:0:0:70:kick2.ogg
256,192,104062,1,0,0:0:0:70:hat1.ogg
329,192,104062,1,0,0:0:0:70:acid_b1 - 056.ogg
402,192,104062,1,0,0:0:0:70:clap1.ogg
109,192,104140,1,0,0:0:0:70:sawlead_160.ogg
182,192,104218,1,0,0:0:0:70:sawlead_161.ogg
256,192,104218,1,0,0:0:0:70:hat1.ogg
329,192,104218,1,0,0:0:0:70:acid_b1 - 058.ogg
475,192,104218,1,0,0:0:0:70:bass4.ogg
402,192,104296,1,0,0:0:0:70:acid_b1 - 059.ogg
36,192,104375,1,0,0:0:0:70:kick2.ogg
182,192,104375,1,0,0:0:0:70:acid_b1 - 060.ogg
329,192,104375,1,0,0:0:0:70:hat1.ogg
475,192,104375,1,0,0:0:0:70:sawlead_162.ogg
109,192,104453,1,0,0:0:0:70:saw_cut - 164.ogg
256,192,104453,1,0,0:0:0:70:hat1.ogg
36,192,104531,1,0,0:0:0:70:sawlead_163.ogg
182,192,104531,1,0,0:0:0:70:kick2.ogg
402,192,104609,1,0,0:0:0:70:sawlead_164.ogg
36,192,104687,1,0,0:0:0:70:clap1.ogg
182,192,104687,1,0,0:0:0:70:hat1.ogg
329,192,104687,1,0,0:0:0:70:saw_cut - 166.ogg
109,192,104765,1,0,0:0:0:70:sawlead_165.ogg
36,192,104843,1,0,0:0:0:70:kick2.ogg
182,192,104843,1,0,0:0:0:70:hat2.ogg
256,192,104843,1,0,0:0:0:70:bass4.ogg
329,192,104843,1,0,0:0:0:70:sawlead_166.ogg
109,192,105000,1,0,0:0:0:70:kick2.ogg
256,192,105000,1,0,0:0:0:70:hat1.ogg
402,192,105000,1,0,0:0:0:70:cym3.ogg
475,192,105000,1,0,0:0:0:70:sawlead_167.ogg
329,192,105078,1,0,0:0:0:70:hat1.ogg
36,192,105156,1,0,0:0:0:70:sawlead_168.ogg
109,192,105156,1,0,0:0:0:70:hat1.ogg
256,192,105156,1,0,0:0:0:70:kick2.ogg
182,192,105234,1,0,0:0:0:70:sawlead_169.ogg
109,192,105312,1,0,0:0:0:70:kick2.ogg
256,192,105312,1,0,0:0:0:70:hat1.ogg
402,192,105312,1,0,0:0:0:70:clap1.ogg
475,192,105312,1,0,0:0:0:70:acid_b1 - 066.ogg
329,192,105390,1,0,0:0:0:70:sawlead_170.ogg
36,192,105468,1,0,0:0:0:70:kick2.ogg
109,192,105468,1,0,0:0:0:70:sawlead_171.ogg
256,192,105468,1,0,0:0:0:70:hat1.ogg
182,192,105546,1,0,0:0:0:70:acid_b1 - 069.ogg
36,192,105625,1,0,0:0:0:70:sawlead_172.ogg
109,192,105625,1,0,0:0:0:70:kick1.ogg
256,192,105625,1,0,0:0:0:70:hat1.ogg
329,192,105625,1,0,0:0:0:70:cym3.ogg
475,192,105625,1,0,0:0:0:70:rev_cymbal.ogg
182,192,105703,1,0,0:0:0:70:kick1.ogg
402,192,105703,1,0,0:0:0:70:sawlead_173.ogg
109,192,105781,1,0,0:0:0:70:hat2.ogg
256,192,105781,1,0,0:0:0:70:kick1.ogg
329,192,105781,1,0,0:0:0:70:hat1.ogg
475,192,105781,1,0,0:0:0:70:bass6.ogg
182,192,105859,1,0,0:0:0:70:sawlead_174.ogg
402,192,105859,1,0,0:0:0:70:kick1.ogg
36,192,105937,1,0,0:0:0:70:sawlead_175.ogg
256,192,105937,1,0,0:0:0:70:hat1.ogg
329,192,105937,1,0,0:0:0:70:kick1.ogg
475,192,105937,1,0,0:0:0:70:clap1.ogg
109,192,106015,1,0,0:0:0:70:kick1.ogg
182,192,106015,1,0,0:0:0:70:sawlead_176.ogg
402,192,106015,1,0,0:0:0:70:hat1.ogg
36,192,106093,1,0,0:0:0:70:kick1.ogg
256,192,106093,1,0,0:0:0:70:hat1.ogg
329,192,106093,1,0,0:0:0:70:sawlead_177.ogg
475,192,106093,1,0,0:0:0:70:hat2.ogg
109,192,106171,1,0,0:0:0:70:kick1.ogg
402,192,106171,1,0,0:0:0:70:sawlead_178.ogg
36,192,106250,1,0,0:0:0:70:cym1.ogg
256,192,106250,1,0,0:0:0:70:kick2.ogg
329,192,106250,1,0,0:0:0:70:piano_sub_a4 - 025.ogg
475,192,106250,1,0,0:0:0:70:sawlead_179.ogg
109,192,106328,1,0,0:0:0:70:hat1.ogg
182,192,106406,1,0,0:0:0:70:sawlead_180.ogg
329,192,106406,1,0,0:0:0:70:hat1.ogg
475,192,106406,1,0,0:0:0:70:hat2.ogg
256,192,106484,1,0,0:0:0:70:sawlead_181.ogg
36,192,106562,1,0,0:0:0:70:cym1.ogg
182,192,106562,1,0,0:0:0:70:kick2.ogg
329,192,106562,1,0,0:0:0:70:sawlead_182.ogg
402,192,106562,1,0,0:0:0:70:saw_cut - 184.ogg
109,192,106614,1,0,0:0:0:70:sawlead_183.ogg
182,192,106666,1,0,0:0:0:70:sawlead_184.ogg
256,192,106718,1,0,0:0:0:70:sawlead_185.ogg
329,192,106770,1,0,0:0:0:70:sawlead_186.ogg
402,192,106822,1,0,0:0:0:70:sawlead_187.ogg
36,192,106875,1,0,0:0:0:70:saw_cut - 187.ogg
109,192,106875,1,0,0:0:0:70:cym1.ogg
182,192,106875,1,0,0:0:0:70:kick2.ogg
475,192,106875,1,0,0:0:0:70:sawlead_188.ogg
36,192,107109,1,0,0:0:0:70:acid_b1 - 082.ogg
109,192,107109,1,0,0:0:0:70:cym1.ogg
182,192,107109,1,0,0:0:0:70:kick2.ogg
475,192,107109,1,0,0:0:0:70:sawlead_189.ogg
36,192,107343,1,0,0:0:0:70:hat2.ogg
109,192,107343,1,0,0:0:0:70:cym1.ogg
182,192,107343,1,0,0:0:0:70:kick2.ogg
475,192,107343,1,0,0:0:0:70:sawlead_190.ogg
36,192,107500,1,0,0:0:0:70:piano_main_a1 - 003.ogg
109,192,107500,1,0,0:0:0:70:cym.ogg
256,192,107500,1,0,0:0:0:70:piano_sub_a5 - 002.ogg
329,192,107500,1,0,0:0:0:70:piano_sub_a5 - 001.ogg
475,192,107500,1,0,0:0:0:70:deepkick.ogg
182,192,108125,1,0,0:0:0:70:piano_main_a1 - 004.ogg
329,192,108750,1,0,0:0:0:70:piano_main_a1 - 005.ogg
109,192,109218,1,0,0:0:0:70:piano_main_a1 - 006.ogg
256,192,109687,1,0,0:0:0:70:piano_main_a1 - 007.ogg
402,192,110000,1,0,0:0:0:70:piano_main_a1 - 008.ogg
475,192,110156,1,0,0:0:0:70:piano_main_a1 - 009.ogg
402,192,110312,1,0,0:0:0:70:piano_main_a1 - 010.ogg
256,192,110468,1,0,0:0:0:70:piano_main_a1 - 011.ogg
109,192,110781,1,0,0:0:0:70:piano_main_a1 - 012.ogg
36,192,110937,1,0,0:0:0:70:piano_main_a1 - 013.ogg
36,192,111250,1,0,0:0:0:70:cym2.ogg
109,192,111250,1,0,0:0:0:70:piano_sub_a5 - 015.ogg
329,192,111250,1,0,0:0:0:70:piano_sub_a5 - 016.ogg
402,192,111250,1,0,0:0:0:70:piano_main_a1 - 014.ogg
475,192,111250,1,0,0:0:0:70:kick2.ogg
36,192,111718,1,0,0:0:0:70:piano_sub_a5 - 015.ogg
109,192,111718,1,0,0:0:0:70:piano_sub_a5 - 016.ogg
329,192,111718,1,0,0:0:0:70:piano_sub_a5 - 014.ogg
402,192,111718,1,0,0:0:0:70:kick2.ogg
475,192,111718,1,0,0:0:0:70:cym2.ogg
36,192,112187,1,0,0:0:0:70:clap2.ogg
109,192,112187,1,0,0:0:0:70:piano_sub_a5 - 016.ogg
329,192,112187,1,0,0:0:0:70:piano_sub_a5 - 014.ogg
402,192,112187,1,0,0:0:0:70:piano_sub_a5 - 015.ogg
475,192,112187,1,0,0:0:0:70:kick2.ogg
