osu file format v12

[General]
AudioFilename: vajuranda.mp3
AudioLeadIn: 1000
PreviewTime: 93167
Countdown: 0
SampleSet: Normal
StackLeniency: 0.7
Mode: 1
LetterboxInBreaks: 1

[Editor]
Bookmarks: 21483
DistanceSpacing: 1.2
BeatDivisor: 4
GridSize: 32

[Metadata]
Title:Vajuranda
TitleUnicode:Vajuranda
Artist:wa. vs celas
ArtistUnicode:wa. vs celas
Creator:Lundlerol
Version:Muzukashii
Source:BMS
Tags:bof2011 THE BMS OF FIGHTERS 2011 elemental breaks reku
BeatmapID:171043
BeatmapSetID:41426

[Difficulty]
HPDrainRate:4
CircleSize:5
OverallDifficulty:4
ApproachRate:5
SliderMultiplier:1.4
SliderTickRate:1

[Events]
//Background and Video events
0,0,"BG.jpg",0,0
//Break Periods
2,62104,70809
//Storyboard Layer 0 (Background)
//Storyboard Layer 1 (Fail)
//Storyboard Layer 2 (Pass)
//Storyboard Layer 3 (Foreground)
//Storyboard Sound Samples
//Background Colour Transformations
3,100,163,162,255

[TimingPoints]
1273,315.789473684211,4,1,1,50,1,0
20457,-100,4,1,1,90,0,0
94746,-100,4,1,1,90,0,1
114957,-100,4,1,1,90,0,0

[HitObjects]
256,192,1273,1,4,0:0:0:0:
256,192,1588,1,0,0:0:0:0:
256,192,1746,1,0,0:0:0:0:
256,192,1904,5,8,0:0:0:0:
256,192,2220,5,0,0:0:0:0:
256,192,2536,5,8,0:0:0:0:
256,192,2851,1,8,0:0:0:0:
256,192,3009,5,0,0:0:0:0:
256,192,3167,1,0,0:0:0:0:
256,192,3482,1,0,0:0:0:0:
256,192,3640,1,0,0:0:0:0:
256,192,3799,5,8,0:0:0:0:
256,192,4115,5,0,0:0:0:0:
256,192,4273,1,0,0:0:0:0:
256,192,4430,5,8,0:0:0:0:
256,192,4745,5,0,0:0:0:0:
256,192,5062,5,8,0:0:0:0:
256,192,5378,5,0,0:0:0:0:
256,192,5536,1,0,0:0:0:0:
256,192,5694,5,8,0:0:0:0:
256,192,6009,1,8,0:0:0:0:
256,192,6167,5,0,0:0:0:0:
256,192,6325,5,12,0:0:0:0:
256,192,6641,5,0,0:0:0:0:
256,192,6799,1,0,0:0:0:0:
256,192,6957,5,8,0:0:0:0:
256,192,7114,5,0,0:0:0:0:
256,192,7272,5,8,0:0:0:0:
256,192,7588,1,8,0:0:0:0:
256,192,7746,5,0,0:0:0:0:
256,192,7904,1,0,0:0:0:0:
256,192,8220,1,0,0:0:0:0:
256,192,8536,1,0,0:0:0:0:
256,192,8694,1,0,0:0:0:0:
256,192,8851,5,8,0:0:0:0:
256,192,9167,5,0,0:0:0:0:
256,192,9325,1,0,0:0:0:0:
256,192,9483,5,8,0:0:0:0:
256,192,9799,1,8,0:0:0:0:
256,192,10115,1,8,0:0:0:0:
256,192,10273,5,0,0:0:0:0:
256,192,10430,1,0,0:0:0:0:
256,192,10588,1,0,0:0:0:0:
256,192,10746,5,8,0:0:0:0:
256,192,10904,1,8,0:0:0:0:
256,192,11062,5,0,0:0:0:0:
256,192,11220,1,0,0:0:0:0:
256,192,11378,5,6,0:0:0:0:
256,192,11694,5,0,0:0:0:0:
256,192,11851,1,0,0:0:0:0:
256,192,12009,5,8,0:0:0:0:
256,192,12325,1,8,0:0:0:0:
256,192,12483,1,8,0:0:0:0:
256,192,12641,5,0,0:0:0:0:
256,192,12957,5,8,0:0:0:0:
256,192,13273,1,8,0:0:0:0:
256,192,13431,1,8,0:0:0:0:
256,192,13588,5,0,0:0:0:0:
256,192,13904,5,8,0:0:0:0:
256,192,14220,5,0,0:0:0:0:
256,192,14378,1,0,0:0:0:0:
256,192,14536,5,8,0:0:0:0:
256,192,14851,5,0,0:0:0:0:
256,192,15009,5,8,0:0:0:0:
256,192,15167,5,0,0:0:0:0:
256,192,15483,1,0,0:0:0:0:
256,192,15641,5,8,0:0:0:0:
256,192,15799,5,0,0:0:0:0:
256,192,15957,1,0,0:0:0:0:
256,192,16115,5,8,0:0:0:0:
256,192,16430,5,0,0:0:0:0:
256,192,16746,1,0,0:0:0:0:
256,192,16904,1,0,0:0:0:0:
256,192,17062,5,8,0:0:0:0:
256,192,17378,1,8,0:0:0:0:
256,192,17536,1,8,0:0:0:0:
256,192,17694,1,8,0:0:0:0:
256,192,17851,5,0,0:0:0:0:
256,192,18325,1,0,0:0:0:0:
256,192,18641,5,8,0:0:0:0:
256,192,18957,5,0,0:0:0:0:
256,192,19273,1,0,0:0:0:0:
256,192,19430,1,0,0:0:0:0:
256,192,19588,5,8,0:0:0:0:
256,192,19904,5,0,0:0:0:0:
256,192,20062,1,0,0:0:0:0:
256,192,20220,5,12,0:0:0:0:
256,192,20536,5,0,0:0:0:0:
256,192,20694,5,8,0:0:0:0:
256,192,20851,5,0,0:0:0:0:
256,192,21009,1,0,0:0:0:0:
256,192,21167,5,8,0:0:0:0:
256,192,21483,1,12,0:0:0:0:
256,192,21799,1,8,0:0:0:0:
256,192,22115,5,0,0:0:0:0:
256,192,22273,5,8,0:0:0:0:
256,192,22430,5,0,0:0:0:0:
256,192,22588,1,0,0:0:0:0:
256,192,22746,5,8,0:0:0:0:
256,192,23062,1,8,0:0:0:0:
256,192,23220,1,8,0:0:0:0:
256,192,23378,5,0,0:0:0:0:
256,192,23536,1,0,0:0:0:0:
256,192,23694,5,8,0:0:0:0:
256,192,24009,1,8,0:0:0:0:
256,192,24167,5,0,0:0:0:0:
256,192,24325,5,8,0:0:0:0:
256,192,24483,1,8,0:0:0:0:
256,192,24799,1,8,0:0:0:0:
256,192,25115,5,0,0:0:0:0:
256,192,25273,1,0,0:0:0:0:
256,192,25430,1,0,0:0:0:0:
256,192,25588,5,8,0:0:0:0:
256,192,25746,1,8,0:0:0:0:
256,192,25904,5,0,0:0:0:0:
256,192,26062,5,8,0:0:0:0:
256,192,26220,1,8,0:0:0:0:
256,192,26536,5,0,0:0:0:0:
256,192,26694,1,0,0:0:0:0:
256,192,26851,5,8,0:0:0:0:
256,192,27009,5,0,0:0:0:0:
256,192,27167,5,8,0:0:0:0:
256,192,27483,5,0,0:0:0:0:
256,192,27641,1,0,0:0:0:0:
256,192,27798,5,8,0:0:0:0:
256,192,27957,5,0,0:0:0:0:
256,192,28115,5,8,0:0:0:0:
256,192,28273,1,8,0:0:0:0:
256,192,28430,5,0,0:0:0:0:
256,192,28588,1,0,0:0:0:0:
256,192,28746,5,8,0:0:0:0:
256,192,29062,5,0,0:0:0:0:
256,192,29219,1,0,0:0:0:0:
256,192,29378,5,8,0:0:0:0:
256,192,29536,1,8,0:0:0:0:
256,192,29693,5,0,0:0:0:0:
256,192,29851,1,0,0:0:0:0:
256,192,30009,5,8,0:0:0:0:
256,192,30167,1,8,0:0:0:0:
256,192,30483,1,8,0:0:0:0:
256,192,30799,1,8,0:0:0:0:
256,192,30957,5,0,0:0:0:0:
256,192,31115,1,0,0:0:0:0:
256,192,31273,5,8,0:0:0:0:
256,192,31430,5,0,0:0:0:0:
256,192,31588,1,0,0:0:0:0:
256,192,31904,5,8,0:0:0:0:
256,192,32062,1,8,0:0:0:0:
256,192,32220,5,0,0:0:0:0:
256,192,32378,1,0,0:0:0:0:
256,192,32536,5,8,0:0:0:0:
256,192,32851,5,0,0:0:0:0:
256,192,33009,1,0,0:0:0:0:
256,192,33167,5,8,0:0:0:0:
256,192,33325,1,8,0:0:0:0:
256,192,33483,5,0,0:0:0:0:
256,192,33641,5,8,0:0:0:0:
256,192,33799,1,8,0:0:0:0:
256,192,34114,1,8,0:0:0:0:
256,192,34272,5,0,0:0:0:0:
256,192,34430,5,8,0:0:0:0:
256,192,34588,1,8,0:0:0:0:
256,192,34904,5,0,0:0:0:0:
256,192,35062,5,8,0:0:0:0:
256,192,35220,1,8,0:0:0:0:
256,192,35378,5,0,0:0:0:0:
256,192,35536,5,8,0:0:0:0:
256,192,35694,5,0,0:0:0:0:
256,192,35851,5,8,0:0:0:0:
256,192,36009,1,8,0:0:0:0:
256,192,36167,5,0,0:0:0:0:
256,192,36325,1,0,0:0:0:0:
256,192,36641,1,0,0:0:0:0:
256,192,36957,1,0,0:0:0:0:
256,192,37115,5,8,0:0:0:0:
256,192,37430,5,0,0:0:0:0:
256,192,37588,5,8,0:0:0:0:
256,192,37746,5,0,0:0:0:0:
256,192,37904,5,8,0:0:0:0:
256,192,38220,1,8,0:0:0:0:
256,192,38378,1,8,0:0:0:0:
256,192,38536,5,0,0:0:0:0:
256,192,38694,1,0,0:0:0:0:
256,192,38852,5,8,0:0:0:0:
256,192,39010,5,0,0:0:0:0:
256,192,39167,5,8,0:0:0:0:
256,192,39483,1,8,0:0:0:0:
256,192,39641,1,8,0:0:0:0:
256,192,39799,1,8,0:0:0:0:
256,192,39957,5,0,0:0:0:0:
256,192,40115,1,0,0:0:0:0:
256,192,40273,5,8,0:0:0:0:
256,192,40430,5,0,0:0:0:0:
256,192,40588,1,0,0:0:0:0:
256,192,40746,5,8,0:0:0:0:
256,192,41062,1,8,0:0:0:0:
256,192,41220,1,8,0:0:0:0:
256,192,41378,5,0,0:0:0:0:
256,192,41694,1,4,0:0:0:0:
256,192,42641,5,8,0:0:0:0:
256,192,43588,1,8,0:0:0:0:
256,192,43904,5,0,0:0:0:0:
256,192,44220,5,8,0:0:0:0:
256,192,45167,1,8,0:0:0:0:
256,192,45483,5,0,0:0:0:0:
256,192,45799,1,0,0:0:0:0:
256,192,46115,5,8,0:0:0:0:
256,192,46430,5,0,0:0:0:0:
256,192,46746,5,8,0:0:0:0:
256,192,47694,1,8,0:0:0:0:
256,192,48009,5,0,0:0:0:0:
256,192,48325,1,0,0:0:0:0:
256,192,48641,5,8,0:0:0:0:
256,192,48957,5,0,0:0:0:0:
256,192,49273,5,8,0:0:0:0:
256,192,49588,5,0,0:0:0:0:
256,192,49904,1,0,0:0:0:0:
256,192,50220,5,8,0:0:0:0:
256,192,50536,5,4,0:0:0:0:
256,192,50851,1,0,0:0:0:0:
256,192,51167,5,8,0:0:0:0:
256,192,51483,5,0,0:0:0:0:
256,192,51799,5,12,0:0:0:0:
256,192,52115,5,0,0:0:0:0:
256,192,52430,1,0,0:0:0:0:
256,192,52746,5,8,0:0:0:0:
256,192,53062,5,0,0:0:0:0:
256,192,53378,1,0,0:0:0:0:
256,192,53694,5,8,0:0:0:0:
256,192,54009,5,0,0:0:0:0:
256,192,54325,5,8,0:0:0:0:
256,192,54641,5,0,0:0:0:0:
256,192,54957,1,0,0:0:0:0:
256,192,55273,5,8,0:0:0:0:
256,192,55588,5,0,0:0:0:0:
256,192,55904,1,0,0:0:0:0:
256,192,56220,5,8,0:0:0:0:
256,192,56536,5,0,0:0:0:0:
256,192,56694,1,0,0:0:0:0:
256,192,56851,5,12,0:0:0:0:
256,192,57167,5,0,0:0:0:0:
256,192,57325,1,0,0:0:0:0:
256,192,57483,1,0,0:0:0:0:
256,192,57641,1,0,0:0:0:0:
256,192,57799,5,8,0:0:0:0:
256,192,58115,5,0,0:0:0:0:
256,192,58273,1,0,0:0:0:0:
256,192,58431,1,0,0:0:0:0:
256,192,58589,1,0,0:0:0:0:
256,192,58747,5,8,0:0:0:0:
256,192,58904,5,0,0:0:0:0:
256,192,59062,5,8,0:0:0:0:
256,192,59220,5,0,0:0:0:0:
256,192,59378,5,8,0:0:0:0:
256,192,59536,5,0,0:0:0:0:
256,192,59694,1,0,0:0:0:0:
256,192,59851,5,8,0:0:0:0:
256,192,60009,5,0,0:0:0:0:
256,192,60167,5,8,0:0:0:0:
256,192,60483,5,0,0:0:0:0:
256,192,60641,5,8,0:0:0:0:
256,192,60799,5,0,0:0:0:0:
256,192,60957,1,0,0:0:0:0:
256,192,61115,5,8,0:0:0:0:
256,192,61273,5,0,0:0:0:0:
256,192,61430,1,0,0:0:0:0:
256,192,61588,5,8,0:0:0:0:
256,192,61904,1,12,0:0:0:0:
256,192,72009,5,4,0:0:0:0:
256,192,72325,1,0,0:0:0:0:
256,192,72483,1,0,0:0:0:0:
256,192,72641,5,8,0:0:0:0:
256,192,72957,5,0,0:0:0:0:
256,192,73115,1,0,0:0:0:0:
256,192,73273,5,8,0:0:0:0:
256,192,73430,1,8,0:0:0:0:
256,192,73588,5,0,0:0:0:0:
256,192,73746,1,0,0:0:0:0:
256,192,73904,5,8,0:0:0:0:
256,192,74062,1,8,0:0:0:0:
256,192,74220,1,8,0:0:0:0:
256,192,74536,5,0,0:0:0:0:
256,192,74694,1,0,0:0:0:0:
256,192,74851,5,8,0:0:0:0:
256,192,75009,5,0,0:0:0:0:
256,192,75167,5,8,0:0:0:0:
256,192,75483,1,8,0:0:0:0:
256,192,75641,1,8,0:0:0:0:
256,192,75799,5,0,0:0:0:0:
256,192,75957,5,8,0:0:0:0:
256,192,76115,1,8,0:0:0:0:
256,192,76273,1,8,0:0:0:0:
256,192,76430,5,0,0:0:0:0:
256,192,76746,5,8,0:0:0:0:
256,192,77062,5,0,0:0:0:0:
256,192,77220,1,0,0:0:0:0:
256,192,77378,5,8,0:0:0:0:
256,192,77694,5,0,0:0:0:0:
256,192,77852,1,0,0:0:0:0:
256,192,78010,5,8,0:0:0:0:
256,192,78167,5,0,0:0:0:0:
256,192,78326,1,0,0:0:0:0:
256,192,78484,1,0,0:0:0:0:
256,192,78641,5,8,0:0:0:0:
256,192,78799,5,0,0:0:0:0:
256,192,78957,5,8,0:0:0:0:
256,192,79115,1,8,0:0:0:0:
256,192,79273,1,8,0:0:0:0:
256,192,79589,5,0,0:0:0:0:
256,192,79746,1,0,0:0:0:0:
256,192,79904,5,8,0:0:0:0:
256,192,80062,5,0,0:0:0:0:
256,192,80220,1,0,0:0:0:0:
256,192,80378,1,0,0:0:0:0:
256,192,80536,5,8,0:0:0:0:
256,192,80851,5,0,0:0:0:0:
256,192,81009,1,0,0:0:0:0:
256,192,81167,5,8,0:0:0:0:
256,192,81483,1,8,0:0:0:0:
256,192,81641,5,0,0:0:0:0:
256,192,81799,1,0,0:0:0:0:
256,192,82115,1,0,0:0:0:0:
256,192,82273,1,0,0:0:0:0:
256,192,82430,5,8,0:0:0:0:
256,192,82588,5,0,0:0:0:0:
256,192,82746,1,0,0:0:0:0:
256,192,82903,5,8,0:0:0:0:
256,192,83062,1,8,0:0:0:0:
256,192,83220,5,0,0:0:0:0:
256,192,83377,5,8,0:0:0:0:
256,192,83694,1,8,0:0:0:0:
256,192,83851,1,8,0:0:0:0:
256,192,84009,5,0,0:0:0:0:
256,192,84325,5,8,0:0:0:0:
256,192,84483,1,8,0:0:0:0:
256,192,84641,5,0,0:0:0:0:
256,192,84799,1,0,0:0:0:0:
256,192,84957,5,8,0:0:0:0:
256,192,85115,5,0,0:0:0:0:
256,192,85273,5,8,0:0:0:0:
256,192,85431,1,8,0:0:0:0:
256,192,85589,1,8,0:0:0:0:
256,192,85904,1,8,0:0:0:0:
256,192,86062,5,0,0:0:0:0:
256,192,86220,1,0,0:0:0:0:
256,192,86378,5,8,0:0:0:0:
256,192,86536,5,0,0:0:0:0:
256,192,86694,1,0,0:0:0:0:
256,192,86851,5,8,0:0:0:0:
256,192,87167,5,0,0:0:0:0:
256,192,87325,5,8,0:0:0:0:
256,192,87483,1,8,0:0:0:0:
256,192,87799,5,0,0:0:0:0:
256,192,87957,5,8,0:0:0:0:
256,192,88115,1,8,0:0:0:0:
256,192,88273,5,0,0:0:0:0:
256,192,88430,5,8,0:0:0:0:
256,192,88588,5,0,0:0:0:0:
256,192,88746,5,8,0:0:0:0:
256,192,88904,1,8,0:0:0:0:
256,192,89062,5,0,0:0:0:0:
256,192,89220,5,8,0:0:0:0:
256,192,89378,5,0,0:0:0:0:
256,192,89694,1,0,0:0:0:0:
256,192,89851,1,0,0:0:0:0:
256,192,90009,5,8,0:0:0:0:
256,192,90166,5,0,0:0:0:0:
256,192,90325,5,8,0:0:0:0:
256,192,90641,5,0,0:0:0:0:
256,192,90798,5,8,0:0:0:0:
256,192,90956,5,0,0:0:0:0:
256,192,91115,1,0,0:0:0:0:
256,192,91272,5,8,0:0:0:0:
256,192,91588,1,8,0:0:0:0:
256,192,91746,1,8,0:0:0:0:
256,192,91904,5,0,0:0:0:0:
352,224,92062,5,8,0:0:0:0:
256,192,92220,2,0,L|352:192,6,70
256,192,93483,12,0,94430,0:0:0:0:
256,192,94746,5,4,0:0:0:0:
256,192,95062,5,8,0:0:0:0:
256,192,95220,1,8,0:0:0:0:
256,192,95378,5,0,0:0:0:0:
256,192,95536,1,0,0:0:0:0:
256,192,95694,5,8,0:0:0:0:
256,192,95851,5,0,0:0:0:0:
256,192,96009,5,8,0:0:0:0:
256,192,96325,1,8,0:0:0:0:
256,192,96483,1,8,0:0:0:0:
256,192,96641,1,8,0:0:0:0:
256,192,96799,5,0,0:0:0:0:
256,192,96957,5,8,0:0:0:0:
256,192,97115,5,0,0:0:0:0:
256,192,97273,1,0,0:0:0:0:
256,192,97588,5,8,0:0:0:0:
256,192,97746,5,0,0:0:0:0:
256,192,97904,1,0,0:0:0:0:
256,192,98062,1,0,0:0:0:0:
256,192,98220,5,8,0:0:0:0:
256,192,98378,1,8,0:0:0:0:
256,192,98536,5,0,0:0:0:0:
256,192,98694,1,0,0:0:0:0:
256,192,98851,5,8,0:0:0:0:
256,192,99167,5,0,0:0:0:0:
256,192,99325,1,0,0:0:0:0:
256,192,99483,5,8,0:0:0:0:
256,192,99641,5,0,0:0:0:0:
256,192,99799,1,0,0:0:0:0:
256,192,100115,1,0,0:0:0:0:
256,192,100273,5,8,0:0:0:0:
256,192,100588,5,0,0:0:0:0:
256,192,100746,5,8,0:0:0:0:
256,192,100904,1,8,0:0:0:0:
256,192,101062,5,0,0:0:0:0:
256,192,101220,1,0,0:0:0:0:
256,192,101378,5,8,0:0:0:0:
256,192,101536,1,8,0:0:0:0:
256,192,101694,5,0,0:0:0:0:
256,192,101851,1,0,0:0:0:0:
256,192,102009,5,8,0:0:0:0:
256,192,102325,5,0,0:0:0:0:
256,192,102641,5,8,0:0:0:0:
256,192,102957,5,0,0:0:0:0:
256,192,103115,1,0,0:0:0:0:
256,192,103273,5,8,0:0:0:0:
256,192,103588,5,0,0:0:0:0:
256,192,103746,1,0,0:0:0:0:
256,192,103904,5,8,0:0:0:0:
256,192,104062,1,8,0:0:0:0:
256,192,104220,5,0,0:0:0:0:
256,192,104378,1,0,0:0:0:0:
256,192,104536,5,8,0:0:0:0:
256,192,104851,1,12,0:0:0:0:
256,192,105167,1,8,0:0:0:0:
256,192,105483,5,0,0:0:0:0:
256,192,105641,1,0,0:0:0:0:
256,192,105799,5,8,0:0:0:0:
256,192,106115,5,0,0:0:0:0:
256,192,106430,5,8,0:0:0:0:
256,192,106588,1,8,0:0:0:0:
256,192,106746,5,0,0:0:0:0:
256,192,106904,1,0,0:0:0:0:
256,192,107062,5,8,0:0:0:0:
256,192,107220,1,8,0:0:0:0:
256,192,107378,5,0,0:0:0:0:
256,192,107694,5,8,0:0:0:0:
256,192,108009,5,0,0:0:0:0:
256,192,108167,5,8,0:0:0:0:
256,192,108483,5,0,0:0:0:0:
256,192,108641,1,0,0:0:0:0:
256,192,108799,5,8,0:0:0:0:
256,192,108957,1,8,0:0:0:0:
256,192,109115,1,8,0:0:0:0:
256,192,109273,5,0,0:0:0:0:
256,192,109430,1,0,0:0:0:0:
256,192,109588,5,8,0:0:0:0:
256,192,109746,5,0,0:0:0:0:
256,192,109904,1,0,0:0:0:0:
256,192,110220,1,8,0:0:0:0:
256,192,110378,5,0,0:0:0:0:
256,192,110694,5,8,0:0:0:0:
256,192,111009,1,8,0:0:0:0:
256,192,111167,5,0,0:0:0:0:
256,192,111325,1,0,0:0:0:0:
256,192,111483,5,8,0:0:0:0:
256,192,111641,1,8,0:0:0:0:
256,192,111799,5,0,0:0:0:0:
256,192,111957,1,0,0:0:0:0:
256,192,112115,5,8,0:0:0:0:
256,192,112430,5,0,0:0:0:0:
256,192,112746,5,8,0:0:0:0:
256,192,112904,1,8,0:0:0:0:
256,192,113062,5,0,0:0:0:0:
256,192,113220,1,0,0:0:0:0:
256,192,113378,5,8,0:0:0:0:
256,192,113536,5,0,0:0:0:0:
256,192,113693,1,0,0:0:0:0:
256,192,113851,1,0,0:0:0:0:
256,192,114009,5,8,0:0:0:0:
256,192,114167,5,0,0:0:0:0:
256,192,114325,1,0,0:0:0:0:
256,192,114483,5,8,0:0:0:0:
256,192,114641,5,0,0:0:0:0:
256,192,114957,5,8,0:0:0:0:
256,192,116220,1,8,0:0:0:0:
256,192,116378,1,8,0:0:0:0:
256,192,116536,5,0,0:0:0:0:
256,192,116694,5,8,0:0:0:0:
256,192,116851,5,0,0:0:0:0:
256,192,117009,1,0,0:0:0:0:
256,192,117167,5,8,0:0:0:0:
256,192,117483,5,4,0:0:0:0:
