osu file format v12

[General]
AudioFilename: vajuranda.mp3
AudioLeadIn: 1000
PreviewTime: 93167
Countdown: 0
SampleSet: Normal
StackLeniency: 0.7
Mode: 1
LetterboxInBreaks: 1

[Editor]
Bookmarks: 21483
DistanceSpacing: 1.2
BeatDivisor: 4
GridSize: 32

[Metadata]
Title:Vajuranda
TitleUnicode:Vajuranda
Artist:wa. vs celas
ArtistUnicode:wa. vs celas
Creator:Lundlerol
Version:Futsuu
Source:BMS
Tags:bof2011 THE BMS OF FIGHTERS 2011 elemental breaks reku
BeatmapID:171137
BeatmapSetID:41426

[Difficulty]
HPDrainRate:3
CircleSize:2
OverallDifficulty:3
ApproachRate:5
SliderMultiplier:1.4
SliderTickRate:1

[Events]
//Background and Video events
0,0,"BG.jpg",0,0
//Break Periods
2,62104,70809
//Storyboard Layer 0 (Background)
//Storyboard Layer 1 (Fail)
//Storyboard Layer 2 (Pass)
//Storyboard Layer 3 (Foreground)
//Storyboard Sound Samples
//Background Colour Transformations
3,100,163,162,255

[TimingPoints]
1273,315.789473684211,4,1,1,50,1,0
20457,-100,4,1,1,90,0,0
94746,-100,4,1,1,90,0,1
114957,-100,4,1,1,90,0,0

[HitObjects]
256,192,1273,1,0,0:0:0:0:
256,192,2220,5,8,0:0:0:0:
256,192,3167,5,0,0:0:0:0:
256,192,3482,1,0,0:0:0:0:
256,192,3799,5,8,0:0:0:0:
256,192,4746,1,8,0:0:0:0:
256,192,5694,1,8,0:0:0:0:
256,192,6009,5,0,0:0:0:0:
256,192,6325,1,4,0:0:0:0:
256,192,7273,5,8,0:0:0:0:
256,192,8220,5,0,0:0:0:0:
256,192,8536,1,0,0:0:0:0:
256,192,8851,5,8,0:0:0:0:
256,192,9799,1,8,0:0:0:0:
256,192,10746,1,8,0:0:0:0:
256,192,11378,5,4,0:0:0:0:
256,192,12325,2,0,L|384:192,4,105
256,192,13904,1,0,0:0:0:0:
256,192,14536,5,8,0:0:0:0:
256,192,14851,5,0,0:0:0:0:
256,192,15009,1,0,0:0:0:0:
256,192,15167,1,0,0:0:0:0:
256,192,15641,1,0,0:0:0:0:
256,192,15799,1,0,0:0:0:0:
256,192,15957,1,0,0:0:0:0:
256,192,16115,1,0,0:0:0:0:
256,192,16430,1,0,0:0:0:0:
256,192,17062,5,8,0:0:0:0:
256,192,17378,5,0,0:0:0:0:
256,192,17536,1,0,0:0:0:0:
256,192,17694,1,0,0:0:0:0:
256,192,17851,1,0,0:0:0:0:
256,192,18325,1,0,0:0:0:0:
256,192,18641,5,8,0:0:0:0:
256,192,18957,5,0,0:0:0:0:
256,192,19588,5,8,0:0:0:0:
256,192,20220,1,8,0:0:0:0:
256,192,20536,6,0,L|352:192,4,70
256,192,21483,5,12,0:0:0:0:
256,192,21799,1,8,0:0:0:0:
256,192,22430,1,8,0:0:0:0:
256,192,22746,5,0,0:0:0:0:
256,192,23062,5,8,0:0:0:0:
256,192,23694,5,0,0:0:0:0:
256,192,24009,1,0,0:0:0:0:
256,192,24325,5,8,0:0:0:0:
256,192,24957,1,8,0:0:0:0:
256,192,25273,5,0,0:0:0:0:
256,192,25588,1,0,0:0:0:0:
256,192,25904,1,0,0:0:0:0:
256,192,26220,5,8,0:0:0:0:
256,192,26536,5,0,0:0:0:0:
256,192,26851,5,8,0:0:0:0:
256,192,27483,1,8,0:0:0:0:
256,192,27799,1,8,0:0:0:0:
256,192,28115,5,0,0:0:0:0:
256,192,28430,5,8,0:0:0:0:
256,192,29062,5,0,0:0:0:0:
256,192,29378,5,8,0:0:0:0:
256,192,29693,5,0,0:0:0:0:
256,192,30009,5,8,0:0:0:0:
256,192,30641,1,8,0:0:0:0:
256,192,30957,5,0,0:0:0:0:
256,192,31273,1,0,0:0:0:0:
256,192,31588,1,0,0:0:0:0:
256,192,31904,5,8,0:0:0:0:
256,192,32536,1,8,0:0:0:0:
256,192,33167,1,8,0:0:0:0:
256,192,33483,1,8,0:0:0:0:
256,192,33641,1,8,0:0:0:0:
256,192,33799,1,8,0:0:0:0:
256,192,34115,5,0,0:0:0:0:
256,192,34430,5,8,0:0:0:0:
256,192,35062,1,8,0:0:0:0:
256,192,35378,6,0,L|352:192,6,70
256,192,36641,5,8,0:0:0:0:
256,192,37273,5,0,0:0:0:0:
256,192,37588,1,0,0:0:0:0:
256,192,37904,5,8,0:0:0:0:
256,192,38536,1,8,0:0:0:0:
256,192,38852,1,8,0:0:0:0:
256,192,39167,5,0,0:0:0:0:
256,192,39483,5,8,0:0:0:0:
256,192,40115,1,8,0:0:0:0:
256,192,40430,1,8,0:0:0:0:
256,192,40588,1,8,0:0:0:0:
256,192,40746,1,8,0:0:0:0:
256,192,41062,1,8,0:0:0:0:
256,192,41220,1,8,0:0:0:0:
256,192,41378,1,8,0:0:0:0:
256,192,41694,5,4,0:0:0:0:
256,192,42641,1,0,0:0:0:0:
256,192,43588,1,0,0:0:0:0:
256,192,44220,1,0,0:0:0:0:
256,192,45167,1,0,0:0:0:0:
256,192,46115,1,0,0:0:0:0:
256,192,46746,5,8,0:0:0:0:
256,192,47694,1,8,0:0:0:0:
256,192,48641,1,8,0:0:0:0:
256,192,49273,1,8,0:0:0:0:
256,192,50220,1,8,0:0:0:0:
256,192,51167,1,8,0:0:0:0:
256,192,51799,1,12,0:0:0:0:
256,192,52430,5,0,0:0:0:0:
256,192,52746,5,8,0:0:0:0:
256,192,53694,1,8,0:0:0:0:
256,192,54009,5,0,0:0:0:0:
256,192,54325,5,8,0:0:0:0:
256,192,55273,1,8,0:0:0:0:
256,192,56220,1,8,0:0:0:0:
256,192,56851,5,4,0:0:0:0:
256,192,57799,1,0,0:0:0:0:
256,192,58747,1,0,0:0:0:0:
256,192,59378,2,0,L|352:192,6,70
256,192,60641,5,8,0:0:0:0:
256,192,60957,5,0,0:0:0:0:
256,192,61273,5,8,0:0:0:0:
256,192,61430,1,8,0:0:0:0:
256,192,61588,1,8,0:0:0:0:
256,192,61904,5,4,0:0:0:0:
256,192,72009,21,4,0:0:0:0:
256,192,72325,5,8,0:0:0:0:
256,192,72957,1,8,0:0:0:0:
256,192,73588,5,0,0:0:0:0:
256,192,73904,5,8,0:0:0:0:
256,192,74062,1,8,0:0:0:0:
256,192,74220,1,8,0:0:0:0:
256,192,74851,1,8,0:0:0:0:
256,192,75167,1,8,0:0:0:0:
256,192,75483,5,0,0:0:0:0:
256,192,75641,1,0,0:0:0:0:
256,192,75799,1,0,0:0:0:0:
256,192,76115,5,8,0:0:0:0:
256,192,76746,1,8,0:0:0:0:
256,192,77378,1,8,0:0:0:0:
256,192,78010,1,8,0:0:0:0:
256,192,78641,5,0,0:0:0:0:
256,192,78957,5,8,0:0:0:0:
256,192,79115,1,8,0:0:0:0:
256,192,79273,1,8,0:0:0:0:
256,192,79589,5,0,0:0:0:0:
256,192,79904,1,0,0:0:0:0:
256,192,80220,1,0,0:0:0:0:
256,192,80536,1,0,0:0:0:0:
256,192,80851,2,0,L|352:192,2,70
256,192,81483,2,0,L|352:192,2,70
256,192,82115,1,4,0:0:0:0:
256,192,82746,1,0,0:0:0:0:
256,192,83062,5,8,0:0:0:0:
256,192,83378,1,8,0:0:0:0:
256,192,83536,1,8,0:0:0:0:
256,192,83694,1,8,0:0:0:0:
256,192,84009,5,0,0:0:0:0:
256,192,84325,5,8,0:0:0:0:
256,192,84957,1,8,0:0:0:0:
256,192,85273,5,0,0:0:0:0:
256,192,85431,1,0,0:0:0:0:
256,192,85588,1,0,0:0:0:0:
256,192,85904,1,0,0:0:0:0:
256,192,86220,5,8,0:0:0:0:
256,192,86536,1,8,0:0:0:0:
256,192,86694,1,8,0:0:0:0:
256,192,86851,1,8,0:0:0:0:
256,192,87483,1,8,0:0:0:0:
256,192,87799,5,0,0:0:0:0:
256,192,87957,1,0,0:0:0:0:
256,192,88115,1,0,0:0:0:0:
256,192,88430,1,0,0:0:0:0:
256,192,88746,5,8,0:0:0:0:
256,192,89062,1,8,0:0:0:0:
256,192,89220,1,8,0:0:0:0:
256,192,89378,1,8,0:0:0:0:
256,192,90009,1,8,0:0:0:0:
256,192,90325,5,0,0:0:0:0:
256,192,90641,5,8,0:0:0:0:
256,192,90956,5,0,0:0:0:0:
256,192,91115,1,0,0:0:0:0:
256,192,91272,1,0,0:0:0:0:
256,192,91588,5,8,0:0:0:0:
256,192,91746,1,8,0:0:0:0:
256,192,91904,1,8,0:0:0:0:
256,192,92220,2,0,L|352:192,6,70
256,192,93483,12,0,94430,0:0:0:0:
256,192,94746,5,4,0:0:0:0:
256,192,95062,5,8,0:0:0:0:
256,192,95378,5,0,0:0:0:0:
256,192,95536,1,0,0:0:0:0:
256,192,95694,5,8,0:0:0:0:
256,192,96325,1,8,0:0:0:0:
256,192,96641,1,8,0:0:0:0:
256,192,96799,1,8,0:0:0:0:
256,192,96957,1,8,0:0:0:0:
256,192,97273,5,0,0:0:0:0:
256,192,97588,5,8,0:0:0:0:
256,192,97904,5,0,0:0:0:0:
256,192,98220,5,8,0:0:0:0:
256,192,98851,1,8,0:0:0:0:
256,192,99167,1,8,0:0:0:0:
256,192,99325,1,8,0:0:0:0:
256,192,99483,1,8,0:0:0:0:
256,192,99799,5,0,0:0:0:0:
256,192,100115,5,8,0:0:0:0:
256,192,100430,5,0,0:0:0:0:
256,192,100746,5,8,0:0:0:0:
256,192,101062,1,8,0:0:0:0:
256,192,101378,1,8,0:0:0:0:
256,192,102009,1,8,0:0:0:0:
256,192,102325,5,0,0:0:0:0:
256,192,102641,5,8,0:0:0:0:
256,192,102957,5,0,0:0:0:0:
256,192,103115,1,0,0:0:0:0:
256,192,103273,1,0,0:0:0:0:
256,192,103588,1,0,0:0:0:0:
256,192,103904,5,8,0:0:0:0:
256,192,104220,1,8,0:0:0:0:
256,192,104378,1,8,0:0:0:0:
256,192,104536,1,8,0:0:0:0:
256,192,104851,5,4,0:0:0:0:
256,192,105483,1,0,0:0:0:0:
256,192,106115,1,0,0:0:0:0:
256,192,106430,5,8,0:0:0:0:
256,192,106746,1,8,0:0:0:0:
256,192,106904,1,8,0:0:0:0:
256,192,107062,1,8,0:0:0:0:
256,192,107378,5,0,0:0:0:0:
256,192,107694,5,8,0:0:0:0:
256,192,108009,5,0,0:0:0:0:
256,192,108325,5,8,0:0:0:0:
256,192,108641,5,0,0:0:0:0:
256,192,108957,1,0,0:0:0:0:
256,192,109273,5,8,0:0:0:0:
256,192,109430,1,8,0:0:0:0:
256,192,109588,1,8,0:0:0:0:
256,192,109904,1,8,0:0:0:0:
256,192,110220,5,0,0:0:0:0:
256,192,110378,1,0,0:0:0:0:
256,192,110694,1,0,0:0:0:0:
256,192,111009,1,0,0:0:0:0:
256,192,111167,1,0,0:0:0:0:
256,192,111483,5,8,0:0:0:0:
256,192,111641,1,8,0:0:0:0:
256,192,111799,1,8,0:0:0:0:
256,192,112115,5,0,0:0:0:0:
256,192,112430,1,0,0:0:0:0:
256,192,112746,1,0,0:0:0:0:
256,192,112904,1,0,0:0:0:0:
256,192,113062,1,0,0:0:0:0:
256,192,113378,5,8,0:0:0:0:
256,192,113694,5,0,0:0:0:0:
256,192,113851,1,0,0:0:0:0:
256,192,114009,1,0,0:0:0:0:
256,192,114325,5,8,0:0:0:0:
256,192,114483,1,8,0:0:0:0:
256,192,114641,1,8,0:0:0:0:
256,192,114957,1,8,0:0:0:0:
256,192,116220,6,0,L|352:192,6,70
256,192,117483,1,4,0:0:0:0:
