osu file format v14

[General]
AudioFilename: BMSAkasagarbhaBGA.mp3
AudioLeadIn: 0
PreviewTime: 26262
Countdown: 0
SampleSet: Soft
StackLeniency: 0.7
Mode: 0
LetterboxInBreaks: 0
WidescreenStoryboard: 1

[Editor]
DistanceSpacing: 1
BeatDivisor: 4
GridSize: 4
TimelineZoom: 1.3

[Metadata]
Title:Akasagarbha
TitleUnicode:Akasagarbha
Artist:wa. vs ETIA.
ArtistUnicode:wa. vs ETIA.
Creator:zhengyuanhang
Version:Standard
Source:BMS
Tags:bga deadblue238 Mutual Faith New Genuine Magicial Girl Atsuro
BeatmapID:575335
BeatmapSetID:250377

[Difficulty]
HPDrainRate:3
CircleSize:3.5
OverallDifficulty:4
ApproachRate:6
SliderMultiplier:1.1
SliderTickRate:1

[Events]
//Background and Video events
0,0,"BG.jpg",0,0
Video,0,"[BMS]Akasagarbha[BGA].flv"
//Break Periods
2,66462,75212
//Storyboard Layer 0 (Background)
//Storyboard Layer 1 (Fail)
//Storyboard Layer 2 (Pass)
//Storyboard Layer 3 (Foreground)
//Storyboard Sound Samples

[TimingPoints]
1262,312.5,4,2,0,25,1,0
1262,-100,4,2,0,25,0,0
9387,-100,4,2,0,30,0,0
9699,-100,4,2,0,35,0,0
10012,-100,4,2,0,40,0,0
10324,-100,4,2,0,45,0,0
10637,-100,4,2,0,50,0,0
10949,-100,4,2,0,55,0,0
11262,-100,4,2,0,60,0,0
11340,-100,4,2,1,35,0,0
21262,-100,4,2,1,50,0,0
36496,-100,4,2,2,50,0,0
36652,-100,4,2,1,50,0,0
37746,-100,4,2,2,50,0,0
37902,-100,4,2,1,50,0,0
38996,-100,4,2,2,50,0,0
39152,-100,4,2,1,50,0,0
45012,-100,4,2,0,50,0,0
45637,-100,4,2,0,5,0,0
45793,-100,4,1,0,50,0,0
46262,-100,4,2,1,50,0,0
48762,-100,4,2,0,35,0,0
51262,-100,4,2,1,50,0,0
53762,-100,4,2,0,35,0,0
55637,-100,4,2,1,50,0,0
58762,-100,4,2,0,35,0,0
60637,-100,4,2,1,50,0,0
65012,-100,4,2,1,55,0,0
65324,-100,4,2,1,60,0,0
65637,-100,4,2,1,65,0,0
65949,-100,4,2,1,70,0,0
66262,-100,4,2,1,50,0,0
80012,-100,4,1,0,50,0,0
81262,-100,4,2,1,50,0,0
83762,-100,4,1,0,50,0,0
84074,-100,4,1,0,55,0,0
84387,-100,4,1,0,60,0,0
84699,-100,4,1,0,65,0,0
85012,-100,4,2,0,70,0,0
85793,-100,4,1,0,50,0,0
86262,-100,4,2,1,60,0,0
101262,-100,4,1,0,65,0,0
102512,-100,4,1,0,70,0,0
103762,-100,4,1,0,75,0,0
105637,-100,4,1,0,80,0,0
106262,-100,4,1,0,22,0,0
106887,-100,4,1,0,28,0,0
107512,-100,4,1,0,34,0,0
108137,-100,4,1,0,40,0,0
108762,-100,4,1,0,65,0,0
109387,-100,4,1,0,90,0,0
110012,-100,4,1,0,100,0,0
110480,-100,4,1,0,70,0,0
110949,-100,4,1,0,40,0,0

[Colours]
Combo1 : 128,0,0
Combo2 : 0,128,255
Combo3 : 0,255,255
Combo4 : 255,0,0
Combo5 : 255,255,255
Combo6 : 128,255,0
Combo7 : 128,0,255
Combo8 : 0,255,0

[HitObjects]
108,108,1262,5,0,0:0:0:0:
108,108,2512,6,0,L|220:96,1,110
264,124,2980,1,0,0:0:0:0:
312,152,3137,2,0,P|368:168|424:140,1,110
472,56,3762,1,0,0:0:0:0:
416,268,4387,102,0,L|288:292,2,110
472,56,5637,1,0,0:0:0:0:
364,32,5949,1,0,0:0:0:0:
268,84,6262,6,0,L|200:92,2,55,0|0|0,0:0|0:0|0:0,0:0:0:0:
316,112,6730,1,0,0:0:0:0:
108,292,7512,102,0,L|40:300,2,55,0|0|0,0:0|0:0|0:0,0:0:0:0:
156,320,7980,1,0,0:0:0:0:
256,188,8449,5,0,0:0:0:0:
340,260,8762,1,0,0:0:0:0:
444,232,9074,2,0,L|468:180,1,55
256,192,9387,12,4,11262,0:0:0:0:
120,96,11730,102,0,L|236:76,1,110,4|0,0:0|0:0,0:0:0:0:
276,108,12199,2,0,L|340:116,1,55,0|0,0:0|0:0,0:0:0:0:
380,144,12512,6,0,P|408:212|384:256,1,110,0|0,0:0|0:0,0:0:0:0:
312,312,13137,2,0,P|284:244|308:200,1,110
380,144,13762,102,0,P|336:116|268:116,2,110
300,220,14699,1,0,0:0:0:0:
236,312,15012,2,0,L|124:320,1,110,0|0,0:0|0:0,0:0:0:0:
164,216,15637,2,0,L|52:208,1,110,0|0,0:0|0:0,0:0:0:0:
32,100,16262,6,0,B|64:56|64:56|124:40,2,110,0|0|0,0:0|0:0|0:0,0:0:0:0:
88,196,17199,1,0,0:0:0:0:
196,172,17512,2,0,B|256:160|256:160|320:172,2,110,0|0|0,0:0|0:0|0:0,0:0:0:0:
160,276,18449,1,0,0:0:0:0:
248,344,18762,102,0,P|304:348|372:336,1,110,0|0,0:0|0:0,0:0:0:0:
400,240,19387,2,0,P|344:236|276:248,1,110
180,256,20012,2,0,P|152:200|172:144,2,110
281,297,20949,37,0,0:0:0:0:
388,328,21262,1,4,0:0:0:0:
168,340,21887,101,0,0:0:0:0:
388,328,22512,2,0,P|412:240|356:176,2,165
284,296,23762,70,0,L|212:304,2,55
324,264,24230,1,0,0:0:0:0:
428,232,24543,2,0,P|444:168|420:128,1,110
392,88,25012,69,4,0:0:0:0:
256,180,25480,69,4,0:0:0:0:
120,88,25949,53,0,0:0:0:0:
44,168,26262,86,0,P|48:236|96:276,2,110,4|8|0,0:0|0:0|0:0,0:0:0:0:
152,188,27199,1,8,0:0:0:0:
256,156,27512,2,0,B|312:140|312:140|372:156,2,110,0|8|0,0:0|0:0|0:0,0:0:0:0:
312,248,28449,1,8,0:0:0:0:
232,324,28762,22,0,P|152:336|116:324,2,110,0|8|0,0:0|0:0|0:0,0:0:0:0:
176,228,29699,1,8,0:0:0:0:
236,136,30012,2,0,P|292:124|352:136,1,110,0|8,0:0|0:0,0:0:0:0:
372,240,30637,2,0,P|316:252|256:240,1,110,0|8,0:0|0:0,0:0:0:0:
212,224,31105,1,0,0:0:0:0:
156,232,31262,86,0,B|100:244|100:244|68:292,2,110,0|8|0,0:0|0:0|0:0,0:0:0:0:
212,224,32043,1,0,0:0:0:0:
264,244,32199,2,0,L|320:248,1,55,8|0,0:0|0:0,0:0:0:0:
372,236,32512,22,0,P|392:180|364:120,1,110,0|8,0:0|0:0,0:0:0:0:
328,104,32980,2,0,L|216:96,1,110
164,112,33449,1,8,0:0:0:0:
124,216,33762,86,0,P|180:200|236:220,2,110,0|8|0,0:0|0:0|0:0,0:0:0:0:
176,316,34699,1,8,0:0:0:0:
280,352,35012,2,0,P|336:364|400:344,1,110,0|8,0:0|0:0,0:0:0:0:
332,256,35637,22,0,L|352:204,1,55
320,160,35949,2,0,L|300:108,1,55,8|0,0:0|0:0,0:0:0:0:
256,76,36262,86,0,P|184:44|96:88,2,165,4|0|8,0:0|0:0|0:0,0:0:0:0:
180,156,37512,2,0,L|180:328,2,165,0|0|8,0:0|0:0|0:0,0:0:0:0:
256,76,38762,2,0,P|328:108|416:64,2,165,0|0|8,0:0|0:0|0:0,0:0:0:0:
204,56,39855,1,0,0:0:0:0:
152,68,40012,6,0,L|40:76,1,110,0|8,0:0|0:0,0:0:0:0:
20,184,40637,2,0,L|132:176,1,110,0|8,0:0|0:0,0:0:0:0:
180,200,41105,1,0,0:0:0:0:
232,180,41262,102,0,P|288:168|348:184,1,110,0|8,0:0|0:0,0:0:0:0:
380,280,41887,2,0,P|324:292|264:276,1,110,0|8,0:0|0:0,0:0:0:0:
168,244,42512,2,0,P|184:192|168:140,2,110,0|8|0,0:0|0:0|0:0,0:0:0:0:
72,192,43449,1,8,0:0:0:0:
108,88,43762,6,0,P|168:60|224:84,1,110,0|8,0:0|0:0,0:0:0:0:
244,112,44230,2,0,P|304:140|360:116,1,110
452,120,44855,1,0,0:0:0:0:
480,168,45012,38,0,P|492:248|372:320,1,220,4|0,0:0|0:0,0:0:0:0:
380,212,45949,1,0,0:0:0:0:
280,172,46262,38,0,B|224:152|224:152|168:172,2,110,4|8|0,0:0|0:0|0:0,0:0:0:0:
224,268,47199,1,8,0:0:0:0:
328,308,47512,2,0,P|392:320|440:304,1,110,0|8,0:0|0:0,0:0:0:0:
468,204,48137,2,0,P|404:192|356:208,1,110,0|8,0:0|0:0,0:0:0:0:
268,264,48762,5,0,0:0:0:0:
220,292,48918,2,0,L|156:300,2,55
208,184,49543,2,0,L|160:152,2,55
316,156,50168,2,0,L|352:104,2,55
328,264,50793,2,0,L|392:272,2,55
276,288,51262,38,0,P|216:300|164:288,1,110,0|8,0:0|0:0,0:0:0:0:
92,212,51887,2,0,P|152:200|204:212,1,110,0|8,0:0|0:0,0:0:0:0:
308,224,52512,2,0,B|360:200|360:200|380:136,1,110,0|8,0:0|0:0,0:0:0:0:
288,84,53137,2,0,B|236:108|236:108|216:172,1,110,0|8,0:0|0:0,0:0:0:0:
244,264,53762,69,0,0:0:0:0:
208,304,53918,2,0,L|140:312,2,55
172,200,54543,2,0,L|109:172,2,55
256,132,55168,2,0,L|215:77,2,55,0|0|0,0:0|0:0|0:0,0:0:0:0:
308,156,55637,38,0,P|368:172|420:152,1,110
460,128,56105,1,0,0:0:0:0:
504,164,56262,70,0,P|508:224|460:264,2,110,4|8|0,0:0|0:0|0:0,0:0:0:0:
396,180,57199,1,8,0:0:0:0:
308,244,57512,2,0,L|196:244,1,110,0|8,0:0|0:0,0:0:0:0:
140,152,58137,2,0,L|252:152,1,110,0|8,0:0|0:0,0:0:0:0:
348,100,58762,21,0,0:0:0:0:
400,84,58918,2,0,L|460:68,2,55
424,192,59543,2,0,L|484:192,2,55,0|0|0,0:0|0:0|0:0,0:0:0:0:
400,300,60168,2,0,L|460:316,2,55,0|0|0,0:0|0:0|0:0,0:0:0:0:
348,320,60637,86,0,P|292:328|236:316,1,110
192,296,61105,1,0,0:0:0:0:
140,312,61262,86,0,B|96:272|96:272|104:216,1,110,4|8,0:0|0:0,0:0:0:0:
200,172,61887,2,0,B|244:212|244:212|236:268,1,110,0|8,0:0|0:0,0:0:0:0:
140,312,62512,2,0,P|88:288|68:240,2,110,0|8|0,0:0|0:0|0:0,0:0:0:0:
168,204,63449,1,8,0:0:0:0:
256,272,63762,21,0,0:0:0:0:
256,192,63918,12,4,66262,0:0:0:0:
184,140,76262,86,0,P|152:196|188:288,2,165,0|4|0,0:0|0:0|0:0,0:0:0:0:
268,216,77512,2,0,P|328:224|384:216,1,110
424,116,78137,2,0,P|364:108|308:116,1,110
216,160,78762,22,0,B|168:180|168:180|152:244,1,110,4|0,0:0|0:0,0:0:0:0:
220,324,79387,2,0,B|268:304|268:304|284:240,1,110
360,172,80012,86,0,L|436:144,2,73.3333333333333
300,132,80637,2,0,L|224:104,2,73.3333333333333,0|0|0,0:0|0:0|0:0,0:0:0:0:
360,172,81262,21,0,0:0:0:0:
316,272,81574,2,0,P|256:288|192:264,1,110,4|0,0:0|0:0,0:0:0:0:
172,236,82043,2,0,L|148:124,1,110,4|0,0:0|0:0,0:0:0:0:
184,84,82512,86,0,B|236:68|236:68|296:88,2,110
148,128,83293,1,0,0:0:0:0:
92,220,83605,2,0,L|84:288,1,55
256,192,83918,12,4,85012,0:0:0:0:
240,140,85793,22,0,L|256:192,1,55
320,284,86262,70,0,L|432:288,2,110,4|0|0,0:0|0:0|0:0,0:0:0:0:
216,324,87199,1,0,0:0:0:0:
232,216,87512,38,0,P|216:172|236:112,2,110
320,284,88449,2,0,L|380:272,1,55
428,288,88762,70,0,P|448:232|424:176,2,110
320,284,89699,1,0,0:0:0:0:
216,248,90012,38,0,L|104:260,1,110
40,172,90637,2,0,L|152:160,1,110
260,148,91262,86,0,P|280:92|256:40,2,110
216,248,92199,1,0,0:0:0:0:
288,332,92512,2,0,P|336:356|408:340,2,110
352,244,93449,1,0,0:0:0:0:
364,136,93762,22,0,P|340:80|280:48,2,110
252,156,94699,1,0,0:0:0:0:
160,216,95012,38,0,P|104:232|36:212,1,110
104,124,95637,2,0,L|144:52,2,82.5
132,176,96262,22,0,P|152:236|120:288,1,110
160,324,96730,2,0,P|212:304|276:332,1,110,4|0,0:0|0:0,0:0:0:0:
312,340,97199,1,0,0:0:0:0:
420,312,97512,6,0,B|468:288|468:288|484:228,2,110,0|0|0,0:0|0:0|0:0,0:0:0:0:
368,216,98449,1,0,0:0:0:0:
320,116,98762,2,0,P|268:96|216:116,1,110
180,216,99387,2,0,P|232:236|284:216,1,110
356,140,100012,102,0,P|392:192|376:248,1,110
320,324,100637,2,0,L|224:336,2,82.5,0|0|0,0:0|0:0|0:0,0:0:0:0:
376,332,101262,6,0,P|436:300|448:204,1,165
432,160,101887,2,0,L|412:80,2,82.5
380,180,102512,102,0,P|312:124|236:160,1,165
228,200,103137,2,0,L|220:256,1,55
300,328,103605,69,0,0:0:0:0:
352,308,103762,2,0,P|408:320|460:308,1,110
496,204,104387,2,0,P|440:192|388:204,1,110
344,236,104855,1,0,0:0:0:0:
296,264,105012,54,0,P|240:276|188:264,1,110
112,184,105637,2,0,L|96:96,2,82.5
148,228,106262,102,0,P|200:240|268:220,1,110
296,328,106887,2,0,P|244:316|176:336,1,110,0|0,0:0|0:0,0:0:0:0:
80,328,107512,2,0,P|56:244|80:168,2,165
188,336,108762,6,0,L|248:328,2,55
132,328,109230,1,0,0:0:0:0:
84,228,109543,2,0,P|68:168|84:112,1,110
112,80,110012,101,0,0:0:0:0:
256,160,110480,5,0,0:0:0:0:
400,80,110949,37,0,0:0:0:0:
