osu file format v14

[General]
AudioFilename: BMSAkasagarbhaBGA.mp3
AudioLeadIn: 0
PreviewTime: 26262
Countdown: 0
SampleSet: Soft
StackLeniency: 0.7
Mode: 0
LetterboxInBreaks: 0
WidescreenStoryboard: 0

[Editor]
DistanceSpacing: 1
BeatDivisor: 4
GridSize: 4
TimelineZoom: 1.3

[Metadata]
Title:Akasagarbha
TitleUnicode:Akasagarbha
Artist:wa. vs ETIA.
ArtistUnicode:wa. vs ETIA.
Creator:zhengyuanhang
Version:Hyper
Source:BMS
Tags:bga deadblue238 Mutual Faith New Genuine Magicial Girl Atsuro
BeatmapID:575333
BeatmapSetID:250377

[Difficulty]
HPDrainRate:5
CircleSize:4
OverallDifficulty:6
ApproachRate:8
SliderMultiplier:1.5
SliderTickRate:1

[Events]
//Background and Video events
0,0,"BG.jpg",0,0
Video,0,"[BMS]Akasagarbha[BGA].flv"
//Break Periods
//Storyboard Layer 0 (Background)
//Storyboard Layer 1 (Fail)
//Storyboard Layer 2 (Pass)
//Storyboard Layer 3 (Foreground)
//Storyboard Sound Samples

[TimingPoints]
1262,312.5,4,2,0,25,1,0
1262,-200,4,2,0,25,0,0
9387,-200,4,2,0,30,0,0
9699,-200,4,2,0,35,0,0
10012,-200,4,2,0,40,0,0
10324,-200,4,2,0,45,0,0
10637,-200,4,2,0,50,0,0
10949,-200,4,2,0,55,0,0
11262,-200,4,2,0,60,0,0
11340,-100,4,2,1,35,0,0
21262,-100,4,2,1,50,0,0
25949,-100,4,1,0,50,0,0
26262,-100,4,2,1,50,0,0
35637,-100,4,1,0,50,0,0
36262,-100,4,2,1,50,0,0
45012,-200,4,2,0,50,0,0
45637,-200,4,2,0,5,0,0
45793,-100,4,1,0,50,0,0
46262,-100,4,2,1,50,0,0
48762,-100,4,2,0,35,0,0
51262,-100,4,2,1,50,0,0
53762,-100,4,2,0,35,0,0
55637,-100,4,1,0,50,0,0
56262,-100,4,2,1,50,0,0
58762,-100,4,2,0,35,0,0
60637,-100,4,2,1,50,0,0
63762,-100,4,1,0,50,0,0
65012,-66.6666666666667,4,1,0,55,0,0
65324,-66.6666666666667,4,1,0,60,0,0
65637,-66.6666666666667,4,1,0,65,0,0
65949,-66.6666666666667,4,1,0,70,0,0
66262,-100,4,2,1,50,0,0
66887,-200,4,2,0,25,0,0
75637,-200,4,2,0,30,0,0
75949,-200,4,2,0,40,0,0
76262,-100,4,2,1,50,0,0
80012,-100,4,1,0,50,0,0
81262,-100,4,2,1,50,0,0
82824,-100,4,1,0,50,0,0
83137,-100,4,2,1,50,0,0
83762,-66.6666666666667,4,1,0,50,0,0
84074,-66.6666666666667,4,1,0,55,0,0
84387,-66.6666666666667,4,1,0,60,0,0
84699,-66.6666666666667,4,1,0,65,0,0
85012,-100,4,2,0,70,0,0
85793,-100,4,1,0,50,0,0
86262,-100,4,2,1,60,0,0
96418,-100,4,1,0,60,0,0
96730,-100,4,2,1,60,0,0
101262,-100,4,1,0,65,0,0
102512,-100,4,1,0,70,0,0
103762,-100,4,1,0,75,0,0
105637,-100,4,1,0,80,0,0
106262,-100,4,1,0,22,0,0
106887,-100,4,1,0,28,0,0
107512,-100,4,1,0,34,0,0
108137,-100,4,1,0,40,0,0
108762,-100,4,1,0,65,0,0
109387,-100,4,1,0,90,0,0
110012,-100,4,1,0,100,0,0
110480,-100,4,1,0,70,0,0
110949,-100,4,1,0,40,0,0

[Colours]
Combo1 : 128,0,0
Combo2 : 0,128,255
Combo3 : 0,255,255
Combo4 : 255,0,0
Combo5 : 255,255,255
Combo6 : 128,255,0
Combo7 : 128,0,255
Combo8 : 0,255,0

[HitObjects]
100,244,1262,5,0,0:0:0:0:
100,244,2512,6,0,L|144:248,1,37.5,0|0,0:0|0:0,0:0:0:0:
264,304,2824,2,0,L|220:300,1,37.5,0|0,0:0|0:0,0:0:0:0:
144,324,3137,101,0,0:0:0:0:
136,332,3449,1,0,0:0:0:0:
128,340,3762,1,0,0:0:0:0:
44,216,4387,6,0,L|76:192,1,37.5
248,148,4699,2,0,L|216:172,1,37.5
156,248,5012,2,0,P|176:284|160:328,1,75
169,315,5637,101,0,0:0:0:0:
176,324,5949,1,0,0:0:0:0:
183,333,6262,6,0,L|232:340,2,37.5,0|0|0,0:0|0:0|0:0,0:0:0:0:
108,348,6730,1,0,0:0:0:0:
80,164,7512,102,0,L|31:157,2,37.5,0|0|0,0:0|0:0|0:0,0:0:0:0:
155,149,7980,1,0,0:0:0:0:
256,96,8449,5,0,0:0:0:0:
264,104,8762,1,0,0:0:0:0:
272,112,9074,2,0,L|312:116,1,37.5
256,192,9308,12,4,11262,0:0:0:0:
104,92,11730,102,0,P|184:80|256:112,1,150,4|0,0:0|0:0,0:0:0:0:
296,248,12199,2,0,L|272:176,1,75,0|0,0:0|0:0,0:0:0:0:
246,104,12512,5,0,0:0:0:0:
320,124,12668,1,0,0:0:0:0:
392,100,12824,2,0,L|468:96,1,75,0|0,0:0|0:0,0:0:0:0:
484,272,13137,102,0,P|496:224|488:184,1,75
384,112,13449,2,0,P|372:160|380:200,1,75,0|0,0:0|0:0,0:0:0:0:
420,244,13762,6,0,P|352:256|300:188,2,150,0|0|0,0:0|0:0|0:0,0:0:0:0:
376,184,14543,1,0,0:0:0:0:
428,132,14699,2,0,P|440:92|432:52,1,75,0|0,0:0|0:0,0:0:0:0:
368,28,15012,102,0,L|216:28,2,150,0|0|0,0:0|0:0|0:0,0:0:0:0:
452,152,15949,1,0,0:0:0:0:
404,296,16262,6,0,L|320:288,1,75
188,224,16574,2,0,L|272:232,1,75,0|0,0:0|0:0,0:0:0:0:
262,231,17043,1,0,0:0:0:0:
332,200,17199,2,0,P|344:156|328:116,1,75,0|0,0:0|0:0,0:0:0:0:
184,76,17512,102,0,L|264:84,1,75
124,180,17824,2,0,L|204:172,1,75,0|0,0:0|0:0,0:0:0:0:
198,172,18293,1,0,0:0:0:0:
268,196,18449,2,0,P|288:240|284:272,1,75,0|0,0:0|0:0,0:0:0:0:
236,324,18762,6,0,L|160:336,1,75
16,276,19074,2,0,L|92:264,1,75,0|0,0:0|0:0,0:0:0:0:
248,160,19387,2,0,L|172:172,1,75
28,112,19699,2,0,L|104:100,1,75,0|0,0:0|0:0,0:0:0:0:
168,68,20012,2,0,P|244:40|308:72,2,150,0|0|0,0:0|0:0|0:0,0:0:0:0:
160,76,20949,21,0,0:0:0:0:
152,84,21262,2,0,L|112:232,1,150,4|0,0:0|0:0,0:0:0:0:
228,324,21887,102,0,L|268:176,1,150,0|0,0:0|0:0,0:0:0:0:
376,76,22512,2,0,P|440:116|440:184,1,150
368,316,22980,2,0,P|304:276|304:208,1,150
328,136,23449,2,0,P|288:132|248:160,1,75
232,216,23762,69,0,0:0:0:0:
168,252,23918,1,0,0:0:0:0:
92,244,24074,1,0,0:0:0:0:
40,192,24230,1,0,0:0:0:0:
32,184,24543,38,0,P|16:144|52:36,1,150
112,76,25012,22,0,L|268:60,1,150,4|0,0:0|0:0,0:0:0:0:
440,164,25480,70,0,L|284:180,1,150,4|0,0:0|0:0,0:0:0:0:
144,292,25949,54,0,L|156:320,6,18.75
160,328,26262,86,0,P|240:352|312:332,1,150,4|8,0:0|0:0,0:0:0:0:
372,208,26730,2,0,P|292:184|220:204,1,150,0|0,0:0|0:0,0:0:0:0:
136,236,27199,2,0,L|104:248,3,25,8|0|0|0,0:0|0:0|0:0|0:0,0:0:0:0:
40,232,27512,22,0,B|16:160|16:160|48:92,1,150,0|8,0:0|0:0,0:0:0:0:
204,48,27980,2,0,B|228:120|228:120|196:188,1,150,0|0,0:0|0:0,0:0:0:0:
136,236,28449,2,0,P|128:280|144:312,1,75,8|0,0:0|0:0,0:0:0:0:
212,332,28762,86,0,P|288:308|364:340,1,150,0|8,0:0|0:0,0:0:0:0:
460,176,29230,2,0,P|384:200|308:168,1,150
272,120,29699,1,8,0:0:0:0:
204,148,29855,1,0,0:0:0:0:
136,120,30012,22,0,L|56:112,1,75
172,224,30324,2,0,L|252:232,1,75,8|0,0:0|0:0,0:0:0:0:
368,140,30637,2,0,L|288:132,1,75
404,244,30949,1,8,0:0:0:0:
444,308,31105,1,0,0:0:0:0:
404,244,31262,86,0,P|328:228|268:264,2,150,0|8|0,0:0|0:0|0:0,0:0:0:0:
444,308,32043,1,0,0:0:0:0:
476,240,32199,2,0,L|488:160,1,75,8|0,0:0|0:0,0:0:0:0:
448,100,32512,22,0,P|376:76|328:88,1,112.5
304,92,32824,1,8,0:0:0:0:
236,124,32980,2,0,L|156:120,1,75
24,208,33293,2,0,L|104:212,1,75,0|8,0:0|0:0,0:0:0:0:
160,256,33605,1,0,0:0:0:0:
232,236,33762,86,0,P|308:220|356:232,1,112.5
376,244,34074,1,8,0:0:0:0:
424,300,34230,1,0,0:0:0:0:
376,244,34387,22,0,B|396:208|396:208|384:168,1,75,0|0,0:0|0:0,0:0:0:0:
284,80,34699,2,0,B|264:116|264:116|276:156,1,75,8|0,0:0|0:0,0:0:0:0:
252,304,35012,86,0,B|272:268|272:268|260:228,1,75,0|0,0:0|0:0,0:0:0:0:
160,140,35324,2,0,B|140:176|140:176|152:216,1,75,8|0,0:0|0:0,0:0:0:0:
252,304,35637,21,0,0:0:0:0:
320,272,35793,2,0,L|360:280,2,37.5,0|0|0,0:0|0:0|0:0,0:0:0:0:
260,228,36105,1,0,0:0:0:0:
252,304,36262,86,0,P|176:320|96:292,1,150,4|8,0:0|0:0,0:0:0:0:
52,168,36730,2,0,P|128:152|208:180,1,150,0|0,0:0|0:0,0:0:0:0:
296,240,37199,2,0,L|308:268,3,25,8|0|0|0,0:0|0:0|0:0|0:0,0:0:0:0:
340,332,37512,6,0,B|416:340|416:340|472:284,1,150,0|8,0:0|0:0,0:0:0:0:
500,160,37980,2,0,B|424:152|424:152|368:208,1,150
304,272,38449,2,0,P|264:288|220:280,1,75,8|0,0:0|0:0,0:0:0:0:
164,252,38762,102,0,P|132:176|148:112,1,150,0|8,0:0|0:0,0:0:0:0:
292,56,39230,2,0,P|324:132|308:196,1,150
272,260,39699,1,8,0:0:0:0:
300,328,39855,1,0,0:0:0:0:
368,356,40012,6,0,P|416:360|448:352,1,75
328,276,40324,2,0,P|280:272|248:280,1,75,8|0,0:0|0:0,0:0:0:0:
144,352,40637,2,0,P|192:356|224:348,1,75
104,272,40949,1,8,0:0:0:0:
140,204,41105,1,0,0:0:0:0:
104,272,41262,102,0,P|68:232|68:184,1,75
140,84,41574,2,0,P|176:124|176:172,1,75,8|0,0:0|0:0,0:0:0:0:
248,300,41887,2,0,P|212:260|212:212,1,75
284,112,42199,2,0,P|320:152|320:200,1,75,8|0,0:0|0:0,0:0:0:0:
304,244,42512,6,0,B|372:276|372:276|456:248,1,150,0|8,0:0|0:0,0:0:0:0:
476,128,42980,2,0,B|408:96|408:96|324:124,1,150
280,168,43449,2,0,P|232:176|196:160,1,75,8|0,0:0|0:0,0:0:0:0:
152,120,43762,102,0,P|136:188|168:232,1,112.5
176,252,44074,1,8,0:0:0:0:
236,296,44230,2,0,P|276:308|316:300,1,75
456,200,44543,2,0,P|416:188|376:196,1,75,0|8,0:0|0:0,0:0:0:0:
316,224,44855,1,0,0:0:0:0:
248,192,45012,102,0,B|208:172|208:172|152:176|124:120,1,150,4|0,0:0|0:0,0:0:0:0:
220,64,45871,70,0,L|260:60,1,37.5
324,32,46105,1,0,0:0:0:0:
392,64,46262,38,0,P|412:100|404:140,1,75,4|0,0:0|0:0,0:0:0:0:
316,212,46574,2,0,P|296:176|304:136,1,75,8|0,0:0|0:0,0:0:0:0:
180,36,46887,2,0,P|200:72|192:112,1,75
104,184,47199,2,0,P|84:148|92:108,1,75,8|0,0:0|0:0,0:0:0:0:
180,36,47512,6,0,L|256:44,1,75
400,120,47824,2,0,L|324:112,1,75,8|0,0:0|0:0,0:0:0:0:
144,128,48137,2,0,L|220:136,1,75
364,212,48449,2,0,L|288:204,1,75,8|0,0:0|0:0,0:0:0:0:
240,260,48762,101,0,0:0:0:0:
180,308,48918,2,0,L|104:320,2,75
324,348,49543,2,0,L|400:336,2,75,0|0|0,0:0|0:0|0:0,0:0:0:0:
232,180,50168,2,0,L|156:192,2,75,0|0|0,0:0|0:0|0:0,0:0:0:0:
376,220,50793,2,0,L|452:208,2,75,0|0|0,0:0|0:0|0:0,0:0:0:0:
308,252,51262,6,0,P|268:260|220:244,1,75
68,184,51574,2,0,P|108:176|156:192,1,75,8|0,0:0|0:0,0:0:0:0:
320,128,51887,2,0,P|280:136|232:120,1,75
80,60,52199,2,0,P|120:52|168:68,1,75,8|0,0:0|0:0,0:0:0:0:
252,100,52512,38,0,L|328:132,1,75
432,256,52824,2,0,L|356:224,1,75,8|0,0:0|0:0,0:0:0:0:
184,196,53137,2,0,L|260:228,1,75
364,352,53449,2,0,L|288:320,1,75,8|0,0:0|0:0,0:0:0:0:
220,312,53762,69,0,0:0:0:0:
144,328,53918,2,0,P|96:304|80:276,2,75
232,208,54543,2,0,P|202:163|202:130,2,75,0|0|0,0:0|0:0|0:0,0:0:0:0:
380,224,55168,2,0,P|376:170|393:142,2,75,0|0|0,0:0|0:0|0:0,0:0:0:0:
432,276,55637,37,0,0:0:0:0:
380,224,55793,2,0,L|328:236,2,37.5,0|0|0,0:0|0:0|0:0,0:0:0:0:
432,276,56105,1,0,0:0:0:0:
496,240,56262,70,0,P|504:204|492:164,1,75,4|0,0:0|0:0,0:0:0:0:
392,92,56574,2,0,P|384:128|396:168,1,75,8|0,0:0|0:0,0:0:0:0:
336,312,56887,2,0,P|344:276|332:236,1,75
232,164,57199,2,0,P|224:200|236:240,1,75,8|0,0:0|0:0,0:0:0:0:
336,312,57512,22,0,L|252:324,1,75
88,276,57824,2,0,L|172:264,1,75,8|0,0:0|0:0,0:0:0:0:
344,168,58137,2,0,L|260:180,1,75
96,132,58449,2,0,L|180:120,1,75,8|0,0:0|0:0,0:0:0:0:
224,68,58762,85,0,0:0:0:0:
296,40,58918,2,0,L|376:32,2,75
328,188,59543,2,0,L|401:221,2,75,0|0|0,0:0|0:0|0:0,0:0:0:0:
232,304,60168,2,0,L|278:369,2,75,0|0|0,0:0|0:0|0:0,0:0:0:0:
160,284,60637,22,0,P|140:248|148:208,1,75
216,88,60949,2,0,P|236:124|228:164,1,75
212,228,61262,86,0,P|252:236|300:224,1,75,4|0,0:0|0:0,0:0:0:0:
452,152,61574,2,0,P|412:144|364:156,1,75,8|0,0:0|0:0,0:0:0:0:
188,116,61887,2,0,P|228:124|276:112,1,75
428,40,62199,2,0,P|388:32|340:44,1,75,8|0,0:0|0:0,0:0:0:0:
188,116,62512,86,0,B|176:160|176:160|188:200,1,75
264,320,62824,2,0,B|276:276|276:276|264:236,1,75,8|0,0:0|0:0,0:0:0:0:
324,80,63137,2,0,B|312:124|312:124|324:164,1,75
400,284,63449,2,0,B|412:240|412:240|400:200,1,75,8|0,0:0|0:0,0:0:0:0:
324,80,63762,22,0,L|280:72,15,37.5,0|0|0|0|0|0|0|0|0|0|0|0|0|0|0|0,0:0|0:0|0:0|0:0|0:0|0:0|0:0|0:0|0:0|0:0|0:0|0:0|0:0|0:0|0:0|0:0,0:0:0:0:
220,28,65012,2,0,L|184:36,30,28.1250010728836
236,44,66262,69,4,0:0:0:0:
172,180,66887,1,0,0:0:0:0:
236,44,67512,38,0,L|316:48,1,75
364,100,67980,2,0,L|416:96,1,37.5
464,56,68293,1,0,0:0:0:0:
464,56,68449,2,0,L|468:76,3,12.5,0|0|0|0,0:0|0:0|0:0|0:0,0:0:0:0:
496,140,68762,70,0,P|504:180|488:228,1,75
436,256,69230,2,0,L|360:260,1,75
296,224,69699,1,0,0:0:0:0:
224,240,69855,2,0,L|208:248,2,12.5,0|0|0,0:0|0:0|0:0,0:0:0:0:
224,240,70012,2,0,P|232:200|216:160,1,75
180,104,70480,37,0,0:0:0:0:
176,100,70558,1,0,0:0:0:0:
172,96,70637,2,0,L|140:92,3,18.75,0|0|0|0,0:0|0:0|0:0|0:0,0:0:0:0:
96,140,70949,2,0,L|64:136,3,18.75,0|0|0|0,0:0|0:0|0:0|0:0,0:0:0:0:
20,184,71262,70,0,B|16:224|16:224|40:268,1,75
100,288,71730,2,0,P|140:280|176:288,1,75
244,316,72199,2,0,L|264:324,3,12.5,0|0|0|0,0:0|0:0|0:0|0:0,0:0:0:0:
332,332,72512,38,0,L|376:340,5,25,0|0|0|0|0|0,0:0|0:0|0:0|0:0|0:0|0:0,0:0:0:0:
332,332,73137,70,0,L|316:280,1,37.5
228,192,73449,2,0,L|244:244,1,37.5
224,300,73762,38,0,P|184:320|148:312,1,75
172,244,74230,2,0,L|152:208,1,37.5
152,64,74543,2,0,L|172:100,1,37.5
232,140,74855,1,0,0:0:0:0:
292,184,75012,70,0,L|336:188,1,37.5
392,232,75324,2,0,L|408:272,2,25,0|0|0,0:0|0:0|0:0,0:0:0:0:
424,152,75637,38,0,L|432:128,3,18.75,0|0|0|0,0:0|0:0|0:0|0:0,0:0:0:0:
376,68,75949,2,0,L|368:44,3,18.75,0|0|0|0,0:0|0:0|0:0|0:0,0:0:0:0:
328,152,76262,85,0,0:0:0:0:
256,128,76418,2,0,L|212:124,3,37.5,0|0|0|0,0:0|0:0|0:0|0:0,0:0:0:0:
180,132,76730,2,0,P|156:180|164:204,1,75,4|0,0:0|0:0,0:0:0:0:
232,280,77043,21,0,0:0:0:0:
232,280,77121,1,0,0:0:0:0:
232,280,77199,2,0,L|272:284,3,37.5,0|0|0|0,0:0|0:0|0:0|0:0,0:0:0:0:
304,296,77512,86,0,P|352:308|388:300,1,75
476,216,77824,2,0,P|428:204|392:212,1,75
244,148,78137,2,0,P|292:160|328:152,1,75
416,68,78449,2,0,P|368:56|332:64,1,75
244,148,78762,22,0,L|168:120,1,75,4|0,0:0|0:0,0:0:0:0:
16,136,79074,2,0,L|92:164,1,75
248,268,79387,2,0,L|172:240,1,75
20,256,79699,2,0,L|96:284,1,75
248,268,80012,86,0,L|352:276,2,100,0|0|0,0:0|0:0|0:0,0:0:0:0:
264,116,80637,2,0,L|160:108,2,100,0|0|0,0:0|0:0|0:0,0:0:0:0:
352,68,81262,22,0,P|368:112|352:152,1,75
308,192,81574,2,0,P|356:216|432:168,1,150,4|0,0:0|0:0,0:0:0:0:
488,120,82043,2,0,P|508:160|496:204,1,75,4|0,0:0|0:0,0:0:0:0:
464,252,82355,1,0,0:0:0:0:
412,304,82512,86,0,L|368:312,3,37.5,0|0|0|0,0:0|0:0|0:0|0:0,0:0:0:0:
300,288,82824,2,0,L|272:284,6,18.75
300,288,83137,22,0,P|312:244|300:204,1,75
232,84,83605,1,0,0:0:0:0:
160,56,83762,86,0,L|120:64,30,28.1250010728836
160,56,85012,1,4,0:0:0:0:
256,192,85793,21,0,0:0:0:0:
256,192,85871,1,0,0:0:0:0:
256,192,85949,1,0,0:0:0:0:
256,192,86262,70,0,L|372:208,1,112.5,4|0,0:0|0:0,0:0:0:0:
412,312,86730,2,0,L|296:296,1,112.5
256,192,87199,1,0,0:0:0:0:
192,228,87355,1,0,0:0:0:0:
120,212,87512,38,0,P|104:160|128:104,2,112.5
192,228,88137,1,0,0:0:0:0:
192,228,88449,2,0,L|232:300,1,75
292,332,88762,70,0,P|348:344|404:328,1,112.5
436,224,89230,2,0,P|380:212|324:228,1,112.5
292,332,89699,1,0,0:0:0:0:
220,344,89855,1,0,0:0:0:0:
152,316,90012,38,0,L|144:260|136:204,2,112.5
212,136,90637,2,0,L|228:248,2,112.5
272,92,91262,86,0,P|320:104|400:80,1,112.5
440,188,91730,2,0,P|392:176|312:200,1,112.5
272,92,92199,1,0,0:0:0:0:
232,156,92355,1,0,0:0:0:0:
260,224,92512,22,0,P|284:268|264:340,2,112.5,0|0|0,0:0|0:0|0:0,0:0:0:0:
120,208,93137,2,0,P|96:164|116:92,2,112.5
260,224,93762,38,0,L|300:232,4,37.5,0|0|0|0|0,0:0|0:0|0:0|0:0|0:0,0:0:0:0:
208,140,94230,2,0,L|168:148,4,37.5,0|0|0|0|0,0:0|0:0|0:0|0:0|0:0,0:0:0:0:
276,64,94699,70,0,L|316:72,3,37.5,0|0|0|0,0:0|0:0|0:0|0:0,0:0:0:0:
380,136,95012,2,0,L|340:144,3,37.5,0|0|0|0,0:0|0:0|0:0|0:0,0:0:0:0:
236,192,95324,2,0,L|276:200,3,37.5,0|0|0|0,0:0|0:0|0:0|0:0,0:0:0:0:
340,264,95637,37,0,0:0:0:0:
340,264,95871,1,0,0:0:0:0:
340,264,96105,1,0,0:0:0:0:
288,320,96262,21,0,0:0:0:0:
216,304,96418,2,0,L|172:300,5,25,0|0|0|0|0|0,0:0|0:0|0:0|0:0|0:0|0:0,0:0:0:0:
168,300,96730,2,0,P|128:264|140:172,1,150,4|0,0:0|0:0,0:0:0:0:
240,116,97199,6,0,L|280:104,4,37.5,0|0|0|0|0,0:0|0:0|0:0|0:0|0:0,0:0:0:0:
328,192,97668,2,0,L|368:204,4,37.5,0|0|0|0|0,0:0|0:0|0:0|0:0|0:0,0:0:0:0:
268,280,98137,102,0,L|308:268,3,37.5
200,224,98449,2,0,L|160:212,3,37.5
84,292,98762,2,0,L|124:280,3,37.5
16,236,99074,1,0,0:0:0:0:
40,148,99230,5,0,0:0:0:0:
48,140,99308,1,0,0:0:0:0:
56,132,99387,2,0,L|100:124,3,37.5,0|0|0|0,0:0|0:0|0:0|0:0,0:0:0:0:
148,184,99699,2,0,L|192:192,3,37.5,0|0|0|0,0:0|0:0|0:0|0:0,0:0:0:0:
232,120,100012,2,0,L|276:112,3,37.5
324,172,100324,2,0,L|368:180,3,37.5,0|0|0|0,0:0|0:0|0:0|0:0,0:0:0:0:
408,108,100637,2,0,P|444:152|432:220,2,112.5,0|0|0,0:0|0:0|0:0,0:0:0:0:
336,80,101262,102,0,L|224:64,2,112.5,0|0|0,0:0|0:0|0:0,0:0:0:0:
408,108,101887,101,0,0:0:0:0:
380,216,102121,1,0,0:0:0:0:
488,184,102355,1,0,0:0:0:0:
448,248,102512,22,0,P|452:296|412:344,2,112.5,0|0|0,0:0|0:0|0:0,0:0:0:0:
380,216,103137,53,0,0:0:0:0:
316,252,103293,1,0,0:0:0:0:
488,184,103605,69,0,0:0:0:0:
448,248,103762,1,0,0:0:0:0:
380,216,103918,1,0,0:0:0:0:
316,252,104074,1,0,0:0:0:0:
248,220,104230,1,0,0:0:0:0:
184,256,104387,38,0,L|124:248,7,37.5,0|0|0|0|0|0|0|0,0:0|0:0|0:0|0:0|0:0|0:0|0:0|0:0,0:0:0:0:
80,280,105012,53,0,0:0:0:0:
60,132,105324,2,0,L|64:108,5,25,0|0|0|0|0|0,0:0|0:0|0:0|0:0|0:0|0:0,0:0:0:0:
68,84,105637,21,0,0:0:0:0:
180,64,105871,1,0,0:0:0:0:
292,44,106105,1,0,0:0:0:0:
300,52,106262,70,0,P|364:76|448:48,1,150
248,172,106887,2,0,P|184:148|100:176,1,150
136,316,107512,2,0,P|216:344|352:312,2,225
64,184,108762,5,0,0:0:0:0:
96,116,108918,1,0,0:0:0:0:
164,88,109074,1,0,0:0:0:0:
240,92,109230,1,0,0:0:0:0:
248,100,109543,22,0,P|324:124|396:100,1,150
456,68,110012,69,0,0:0:0:0:
464,76,110480,5,0,0:0:0:0:
472,84,110949,37,0,0:0:0:0:
