osu file format v14

[General]
AudioFilename: BMSAkasagarbhaBGA.mp3
AudioLeadIn: 0
PreviewTime: 26262
Countdown: 0
SampleSet: Soft
StackLeniency: 0.7
Mode: 0
LetterboxInBreaks: 0
WidescreenStoryboard: 0

[Editor]
DistanceSpacing: 1
BeatDivisor: 4
GridSize: 4
TimelineZoom: 1.3

[Metadata]
Title:Akasagarbha
TitleUnicode:Akasagarbha
Artist:wa. vs ETIA.
ArtistUnicode:wa. vs ETIA.
Creator:zhengyuanhang
Version:Extra
Source:BMS
Tags:bga deadblue238 Mutual Faith New Genuine Magicial Girl Atsuro
BeatmapID:575331
BeatmapSetID:250377

[Difficulty]
HPDrainRate:7.5
CircleSize:4.2
OverallDifficulty:8.5
ApproachRate:9.2
SliderMultiplier:1.8
SliderTickRate:1

[Events]
//Background and Video events
0,0,"BG.jpg",0,0
Video,0,"[BMS]Akasagarbha[BGA].flv"
//Break Periods
//Storyboard Layer 0 (Background)
//Storyboard Layer 1 (Fail)
//Storyboard Layer 2 (Pass)
//Storyboard Layer 3 (Foreground)
//Storyboard Sound Samples

[TimingPoints]
1262,312.5,4,2,0,25,1,0
1262,-200,4,2,0,25,0,0
9387,-200,4,2,0,30,0,0
9699,-200,4,2,0,35,0,0
10012,-200,4,2,0,40,0,0
10324,-200,4,2,0,45,0,0
10637,-200,4,2,0,50,0,0
10949,-200,4,2,0,55,0,0
11262,-200,4,2,0,60,0,0
11340,-100,4,2,1,35,0,0
21262,-100,4,2,1,50,0,0
25949,-100,4,1,0,50,0,0
26262,-100,4,2,1,50,0,0
35637,-100,4,1,0,50,0,0
36262,-100,4,2,1,50,0,0
45012,-200,4,2,0,50,0,0
45637,-200,4,2,0,5,0,0
45793,-100,4,1,0,50,0,0
46262,-100,4,2,1,50,0,0
48762,-100,4,2,0,35,0,0
51262,-100,4,2,1,50,0,0
53762,-100,4,2,0,35,0,0
55637,-100,4,1,0,50,0,0
56262,-100,4,2,1,50,0,0
58762,-100,4,2,0,35,0,0
60637,-100,4,2,1,50,0,0
63762,-100,4,1,0,50,0,0
65012,-100,4,1,0,55,0,0
65324,-80,4,1,0,60,0,0
65637,-66.6666666666667,4,1,0,65,0,0
65949,-57.1428571428571,4,1,0,70,0,0
66262,-100,4,2,1,50,0,0
66887,-200,4,2,0,25,0,0
75637,-200,4,2,0,30,0,0
75949,-200,4,2,0,40,0,0
76262,-100,4,2,1,50,0,0
80012,-100,4,1,0,50,0,0
81262,-100,4,2,1,50,0,0
82824,-100,4,1,0,50,0,0
83137,-100,4,2,1,50,0,0
83762,-66.6666666666667,4,1,0,50,0,0
84074,-66.6666666666667,4,1,0,55,0,0
84387,-66.6666666666667,4,1,0,60,0,0
84699,-66.6666666666667,4,1,0,65,0,0
85012,-100,4,2,0,70,0,0
85793,-100,4,1,0,50,0,0
86262,-100,4,2,1,60,0,0
101262,-100,4,1,0,65,0,0
102512,-100,4,1,0,70,0,0
103762,-100,4,1,0,75,0,0
105637,-100,4,1,0,80,0,0
106262,-100,4,1,0,22,0,0
106887,-100,4,1,0,28,0,0
107512,-100,4,1,0,34,0,0
108137,-100,4,1,0,40,0,0
108762,-100,4,1,0,65,0,0
109387,-66.6666666666667,4,1,0,90,0,0
110012,-100,4,1,0,100,0,0
110480,-100,4,1,0,70,0,0
110949,-100,4,1,0,40,0,0

[Colours]
Combo1 : 128,0,0
Combo2 : 0,128,255
Combo3 : 0,255,255
Combo4 : 255,0,0
Combo5 : 255,255,255
Combo6 : 128,255,0
Combo7 : 128,0,255
Combo8 : 0,255,0

[HitObjects]
96,236,1262,5,0,0:0:0:0:
96,236,2512,6,0,L|148:228,1,45,0|0,0:0|0:0,0:0:0:0:
288,264,2824,2,0,L|236:272,1,45,0|0,0:0|0:0,0:0:0:0:
160,320,3137,101,0,0:0:0:0:
152,328,3449,1,0,0:0:0:0:
144,336,3762,2,0,P|88:344|48:328,1,90
20,252,4387,6,0,L|12:204,1,45
48,64,4699,2,0,L|56:112,1,45
104,180,5012,2,0,P|148:196|204:184,1,90
268,144,5637,101,0,0:0:0:0:
276,136,5949,1,0,0:0:0:0:
284,128,6262,5,0,0:0:0:0:
372,108,6418,1,0,0:0:0:0:
376,112,6730,1,0,0:0:0:0:
228,256,7512,101,0,0:0:0:0:
140,272,7668,1,0,0:0:0:0:
140,272,7980,2,0,P|89:257|65:225,1,90
84,48,8449,2,0,L|72:96,1,45,0|0,0:0|0:0,0:0:0:0:
120,148,8762,5,0,0:0:0:0:
128,156,9074,2,0,L|184:164,1,45
256,192,9308,12,4,11262,0:0:0:0:
368,64,11730,102,0,P|428:120|392:228,1,180,4|0,0:0|0:0,0:0:0:0:
260,168,12199,2,0,P|316:168|352:140,1,90,0|0,0:0|0:0,0:0:0:0:
368,64,12512,5,0,0:0:0:0:
432,128,12668,1,0,0:0:0:0:
368,192,12824,1,0,0:0:0:0:
304,128,12980,1,0,0:0:0:0:
432,128,13137,102,0,P|456:176|456:216,1,90
384,340,13449,2,0,P|360:292|360:252,1,90,0|0,0:0|0:0,0:0:0:0:
432,128,13762,6,0,L|336:120,2,90,0|0|0,0:0|0:0|0:0,0:0:0:0:
476,208,14230,1,0,0:0:0:0:
424,284,14387,2,0,P|372:272|324:288,1,90
144,232,14699,2,0,P|196:244|244:228,1,90,0|0,0:0|0:0,0:0:0:0:
332,40,15012,102,0,P|360:116|304:196,1,180
232,236,15480,1,0,0:0:0:0:
144,216,15637,2,0,L|48:228,1,90
248,312,15949,2,0,L|344:300,1,90,0|0,0:0|0:0,0:0:0:0:
420,264,16262,5,0,0:0:0:0:
451,182,16418,1,0,0:0:0:0:
411,105,16574,1,0,0:0:0:0:
326,85,16730,2,0,P|236:104|156:68,1,180
72,104,17199,1,0,0:0:0:0:
32,264,17355,1,0,0:0:0:0:
91,198,17511,101,0,0:0:0:0:
178,187,17667,1,0,0:0:0:0:
252,236,17824,1,0,0:0:0:0:
275,321,17980,2,0,P|356:328|328:256,1,180
252,236,18449,2,0,P|192:208|176:176,1,90,0|0,0:0|0:0,0:0:0:0:
168,100,18762,5,0,0:0:0:0:
241,50,18918,1,0,0:0:0:0:
330,51,19074,1,0,0:0:0:0:
402,102,19230,1,0,0:0:0:0:
433,185,19387,1,0,0:0:0:0:
411,271,19543,1,0,0:0:0:0:
345,329,19699,1,0,0:0:0:0:
257,340,19855,1,0,0:0:0:0:
180,300,20012,1,0,0:0:0:0:
180,300,20637,21,0,0:0:0:0:
152,216,20949,1,0,0:0:0:0:
124,132,21262,1,4,0:0:0:0:
132,124,21887,101,0,0:0:0:0:
140,116,22512,2,0,P|224:80|312:104,1,180
244,328,22980,2,0,P|208:244|232:156,1,180
376,224,23449,2,0,P|324:244|280:236,1,90
208,208,23762,69,0,0:0:0:0:
420,152,23918,1,0,0:0:0:0:
296,264,24074,1,0,0:0:0:0:
232,32,24230,1,0,0:0:0:0:
224,40,24543,38,0,P|160:108|76:104,1,180
132,32,25012,22,0,B|148:120|148:120|212:192,1,180,4|0,0:0|0:0,0:0:0:0:
472,256,25480,70,0,B|456:168|456:168|392:96,1,180,4|0,0:0|0:0,0:0:0:0:
300,57,25949,54,0,L|297:33,1,22.5
270,65,26027,2,0,L|259:43,1,22.5
245,82,26105,2,0,L|228:65,1,22.5
228,108,26183,2,0,L|206:97,1,22.5
220,136,26262,86,0,P|168:156|48:136,1,180,4|8,0:0|0:0,0:0:0:0:
168,268,26730,2,0,P|220:248|340:268,1,180
440,320,27199,2,0,L|452:288,3,30,8|0|0|0,0:0|0:0|0:0|0:0,0:0:0:0:
464,168,27512,22,0,B|391:116|391:116|295:124,1,180,0|8,0:0|0:0,0:0:0:0:
176,248,27980,2,0,B|249:300|249:300|345:292,1,180
464,168,28449,2,0,P|416:152|368:168,1,90,8|0,0:0|0:0,0:0:0:0:
304,212,28762,86,0,P|268:176|288:56,1,180,0|8,0:0|0:0,0:0:0:0:
340,128,29230,2,0,L|156:156,1,180
88,104,29699,1,8,0:0:0:0:
48,276,29855,1,0,0:0:0:0:
132,248,30012,22,0,P|180:240|220:252,1,90
412,200,30324,2,0,P|364:208|324:196,1,90,8|0,0:0|0:0,0:0:0:0:
144,116,30637,2,0,P|192:108|232:120,1,90,0|0,0:0|0:0,0:0:0:0:
424,68,30949,1,8,0:0:0:0:
476,140,31105,1,0,0:0:0:0:
424,68,31262,86,0,P|352:48|276:124,2,180,0|8|0,0:0|0:0|0:0,0:0:0:0:
364,132,32043,1,0,0:0:0:0:
404,212,32199,2,0,L|388:308,1,90,8|0,0:0|0:0,0:0:0:0:
312,348,32512,22,0,P|264:308|180:320,1,135
156,332,32824,1,8,0:0:0:0:
72,300,32980,2,0,P|52:256|64:200,1,90
176,96,33293,2,0,P|196:140|184:196,1,90,0|8,0:0|0:0,0:0:0:0:
128,244,33605,1,0,0:0:0:0:
156,332,33762,86,0,P|248:352|296:340,1,135
328,328,34074,1,8,0:0:0:0:
404,276,34230,1,0,0:0:0:0:
440,192,34387,22,0,P|456:144|440:100,1,90
316,44,34699,2,0,P|300:92|316:136,1,90,8|0,0:0|0:0,0:0:0:0:
204,296,35012,86,0,P|220:248|204:204,1,90
80,148,35324,2,0,P|64:196|80:240,1,90,8|0,0:0|0:0,0:0:0:0:
204,296,35637,21,0,0:0:0:0:
436,196,35793,1,0,0:0:0:0:
436,196,35871,1,0,0:0:0:0:
436,196,35949,1,0,0:0:0:0:
308,344,36105,1,0,0:0:0:0:
180,208,36262,86,0,P|128:184|12:212,1,180,4|8,0:0|0:0,0:0:0:0:
160,76,36730,2,0,P|212:100|328:72,1,180
416,8,37199,2,0,L|436:32,3,30
428,132,37512,6,0,P|371:192|399:276,1,180,0|8,0:0|0:0,0:0:0:0:
467,216,37980,2,0,L|283:176,1,180
223,120,38449,2,0,P|199:164|207:208,1,90,8|0,0:0|0:0,0:0:0:0:
268,264,38762,102,0,B|352:304|352:304|456:292,1,180,0|8,0:0|0:0,0:0:0:0:
484,132,39230,2,0,B|400:92|400:92|296:104,1,180
260,176,39699,1,8,0:0:0:0:
288,260,39855,1,0,0:0:0:0:
232,332,40012,6,0,L|136:348,1,90
352,356,40324,2,0,L|256:340,1,90,8|0,0:0|0:0,0:0:0:0:
472,332,40637,2,0,L|376:348,1,90
288,260,40949,1,8,0:0:0:0:
352,356,41105,1,0,0:0:0:0:
208,220,41262,102,0,P|180:176|188:136,1,90
260,28,41574,2,0,P|288:72|280:112,1,90,8|0,0:0|0:0,0:0:0:0:
400,304,41887,2,0,P|372:260|380:220,1,90
452,112,42199,2,0,P|480:156|472:196,1,90,8|0,0:0|0:0,0:0:0:0:
400,304,42512,6,0,P|340:332|232:308,1,180,0|8,0:0|0:0,0:0:0:0:
160,152,42980,2,0,P|220:124|328:148,1,180
400,304,43449,2,0,L|364:220,1,90,8|0,0:0|0:0,0:0:0:0:
288,172,43762,102,0,P|188:144|160:152,1,135
120,168,44074,1,8,0:0:0:0:
44,220,44230,2,0,P|28:264|44:316,1,90
124,336,44543,2,0,P|180:320|216:328,1,90,0|8,0:0|0:0,0:0:0:0:
288,368,44855,1,0,0:0:0:0:
380,364,45012,102,0,B|412:340|412:340|408:308|408:308|436:284|436:284|460:212,1,180,4|0,0:0|0:0,0:0:0:0:
388,100,45871,69,0,0:0:0:0:
388,100,45949,1,0,0:0:0:0:
304,132,46105,1,0,0:0:0:0:
224,88,46262,38,0,L|132:72,1,90,4|0,0:0|0:0,0:0:0:0:
32,152,46574,2,0,L|124:168,1,90,8|0,0:0|0:0,0:0:0:0:
284,264,46887,2,0,L|192:248,1,90
92,328,47199,2,0,L|184:344,1,90,8|0,0:0|0:0,0:0:0:0:
316,320,47512,6,0,P|344:284|336:232,1,90
244,160,47824,2,0,P|216:196|224:248,1,90,8|0,0:0|0:0,0:0:0:0:
416,208,48137,2,0,P|444:172|436:120,1,90
344,48,48449,2,0,P|316:84|324:136,1,90,8|0,0:0|0:0,0:0:0:0:
356,264,48762,101,0,0:0:0:0:
424,320,48918,1,0,0:0:0:0:
440,232,49074,1,0,0:0:0:0:
424,320,49230,1,0,0:0:0:0:
320,64,49543,5,0,0:0:0:0:
304,152,49699,1,0,0:0:0:0:
320,64,49855,1,0,0:0:0:0:
164,328,50168,101,0,0:0:0:0:
180,240,50324,1,0,0:0:0:0:
164,328,50480,1,0,0:0:0:0:
60,72,50793,5,0,0:0:0:0:
44,160,50949,1,0,0:0:0:0:
60,72,51105,1,0,0:0:0:0:
44,160,51262,38,0,P|96:144|140:156,1,90
268,232,51574,2,0,P|216:248|172:236,1,90,8|0,0:0|0:0,0:0:0:0:
268,128,51887,2,0,P|320:112|364:124,1,90
492,200,52199,2,0,P|440:216|396:204,1,90,8|0,0:0|0:0,0:0:0:0:
360,36,52512,70,0,L|344:132,1,90
232,276,52824,2,0,L|248:180,1,90,8|0,0:0|0:0,0:0:0:0:
176,48,53137,2,0,L|160:144,1,90
48,288,53449,2,0,L|64:192,1,90,8|0,0:0|0:0,0:0:0:0:
88,56,53762,37,0,0:0:0:0:
176,48,53918,1,0,0:0:0:0:
264,40,54074,1,0,0:0:0:0:
352,32,54230,1,0,0:0:0:0:
228,192,54543,69,0,0:0:0:0:
316,192,54699,1,0,0:0:0:0:
404,192,54855,1,0,0:0:0:0:
176,336,55168,37,0,0:0:0:0:
264,344,55324,1,0,0:0:0:0:
352,352,55480,1,0,0:0:0:0:
440,360,55637,69,0,0:0:0:0:
316,192,55793,1,0,0:0:0:0:
316,192,55871,1,0,0:0:0:0:
316,192,55949,1,0,0:0:0:0:
264,344,56105,1,0,0:0:0:0:
476,280,56262,22,0,B|492:236|492:236|476:192,1,90,4|0,0:0|0:0,0:0:0:0:
368,80,56574,2,0,B|352:124|352:124|368:168,1,90,8|0,0:0|0:0,0:0:0:0:
264,344,56887,2,0,B|280:300|280:300|264:256,1,90
156,144,57199,2,0,B|140:188|140:188|156:232,1,90,8|0,0:0|0:0,0:0:0:0:
264,344,57512,86,0,L|364:336,1,90
504,256,57824,2,0,L|404:264,1,90,8|0,0:0|0:0,0:0:0:0:
192,220,58137,2,0,L|292:212,1,90
432,132,58449,2,0,L|332:140,1,90,8|0,0:0|0:0,0:0:0:0:
260,96,58762,21,0,0:0:0:0:
180,56,58918,1,0,0:0:0:0:
92,72,59074,1,0,0:0:0:0:
180,56,59230,1,0,0:0:0:0:
328,156,59543,85,0,0:0:0:0:
416,140,59699,1,0,0:0:0:0:
328,156,59855,1,0,0:0:0:0:
240,312,60168,21,0,0:0:0:0:
152,328,60324,1,0,0:0:0:0:
240,312,60480,1,0,0:0:0:0:
328,328,60637,86,0,L|436:336,1,90
256,220,60949,2,0,L|364:212,1,90
424,164,61262,86,0,P|440:112|424:76,1,90,4|0,0:0|0:0,0:0:0:0:
296,24,61574,2,0,P|280:76|296:112,1,90,8|0,0:0|0:0,0:0:0:0:
188,244,61887,2,0,P|204:192|188:156,1,90
60,104,62199,2,0,P|44:156|60:192,1,90,8|0,0:0|0:0,0:0:0:0:
188,244,62512,22,0,B|232:264|232:264|272:256,1,90
456,200,62824,2,0,B|412:180|412:180|372:188,1,90,8|0,0:0|0:0,0:0:0:0:
176,104,63137,2,0,B|220:124|220:124|260:116,1,90
444,60,63449,2,0,B|400:40|400:40|360:48,1,90,8|0,0:0|0:0,0:0:0:0:
176,104,63762,85,0,0:0:0:0:
153,100,63840,1,0,0:0:0:0:
131,101,63918,1,0,0:0:0:0:
109,106,63996,1,0,0:0:0:0:
88,115,64074,1,0,0:0:0:0:
70,128,64152,1,0,0:0:0:0:
54,144,64230,1,0,0:0:0:0:
41,162,64308,1,0,0:0:0:0:
32,183,64387,1,0,0:0:0:0:
27,205,64465,1,0,0:0:0:0:
26,227,64543,1,0,0:0:0:0:
29,250,64621,1,0,0:0:0:0:
37,271,64699,1,0,0:0:0:0:
48,290,64777,1,0,0:0:0:0:
62,307,64855,1,0,0:0:0:0:
80,322,64933,1,0,0:0:0:0:
99,332,65012,22,0,L|132:344,7,22.5,0|0|0|0|0|0|0|0,0:0|0:0|0:0|0:0|0:0|0:0|0:0|0:0,0:0:0:0:
152,272,65324,2,0,L|192:264,7,28.125,0|0|0|0|0|0|0|0,0:0|0:0|0:0|0:0|0:0|0:0|0:0|0:0,0:0:0:0:
156,192,65637,2,0,L|184:168,7,33.7500012874604,0|0|0|0|0|0|0|0,0:0|0:0|0:0|0:0|0:0|0:0|0:0|0:0,0:0:0:0:
112,124,65949,2,0,L|124:84,7,39.3750003755093,0|0|0|0|0|0|0|0,0:0|0:0|0:0|0:0|0:0|0:0|0:0|0:0,0:0:0:0:
36,100,66262,69,4,0:0:0:0:
44,92,66887,1,0,0:0:0:0:
52,84,67512,38,0,P|96:72|120:80,1,67.5
176,144,67902,1,0,0:0:0:0:
176,144,68032,2,0,L|192:148,2,15,0|0|0,0:0|0:0|0:0,0:0:0:0:
224,68,68293,1,0,0:0:0:0:
312,72,68449,2,0,L|336:60,3,15,0|0|0|0,0:0|0:0|0:0|0:0,0:0:0:0:
304,104,68683,1,0,0:0:0:0:
316,136,68762,70,0,P|344:192|336:220,1,90
252,196,69230,2,0,L|208:208,1,45
120,204,69543,1,0,0:0:0:0:
40,168,69699,1,0,0:0:0:0:
40,168,69855,2,0,L|44:148,2,15,0|0|0,0:0|0:0|0:0,0:0:0:0:
52,196,70012,2,0,P|64:236|48:280,1,90
116,340,70480,37,0,0:0:0:0:
136,331,70558,1,0,0:0:0:0:
158,325,70636,1,0,0:0:0:0:
180,324,70714,1,0,0:0:0:0:
202,328,70792,1,0,0:0:0:0:
223,336,70870,1,0,0:0:0:0:
244,345,70948,1,0,0:0:0:0:
266,351,71026,1,0,0:0:0:0:
288,351,71105,1,0,0:0:0:0:
310,347,71183,1,0,0:0:0:0:
332,339,71262,70,0,P|372:320|400:272,1,90
312,256,71730,2,0,L|300:208,1,45
328,124,72043,1,0,0:0:0:0:
328,124,72199,2,0,L|352:112,3,15,0|0|0|0,0:0|0:0|0:0|0:0,0:0:0:0:
256,84,72512,37,0,0:0:0:0:
200,63,72616,1,0,0:0:0:0:
141,74,72720,1,0,0:0:0:0:
96,113,72824,1,0,0:0:0:0:
77,169,72928,1,0,0:0:0:0:
88,227,73032,1,0,0:0:0:0:
127,271,73137,70,0,L|176:280,1,45
340,356,73449,2,0,L|291:347,1,45
236,280,73762,38,0,P|220:232|240:192,1,90
308,144,74230,2,0,L|356:140,1,45
480,184,74543,2,0,L|432:188,1,45
356,232,74855,1,0,0:0:0:0:
300,304,75012,69,0,0:0:0:0:
356,232,75168,1,0,0:0:0:0:
300,304,75324,2,0,L|308:344,2,30
288,276,75637,37,0,0:0:0:0:
269,263,75715,1,0,0:0:0:0:
249,254,75793,1,0,0:0:0:0:
227,248,75871,1,0,0:0:0:0:
204,248,75949,1,0,0:0:0:0:
182,251,76027,1,0,0:0:0:0:
161,259,76105,1,0,0:0:0:0:
142,270,76183,1,0,0:0:0:0:
125,285,76262,85,0,0:0:0:0:
72,360,76418,1,0,0:0:0:0:
45,324,76496,1,0,0:0:0:0:
38,280,76574,1,0,0:0:0:0:
52,238,76652,1,0,0:0:0:0:
84,207,76730,2,0,P|112:160|100:116,1,90,4|0,0:0|0:0,0:0:0:0:
60,48,77043,2,0,L|104:32,5,45,0|0|0|0|0|0,0:0|0:0|0:0|0:0|0:0|0:0,0:0:0:0:
148,44,77512,21,0,0:0:0:0:
167,33,77590,1,0,0:0:0:0:
189,28,77668,1,0,0:0:0:0:
212,30,77746,1,0,0:0:0:0:
233,37,77824,1,0,0:0:0:0:
251,50,77902,1,0,0:0:0:0:
265,67,77980,1,0,0:0:0:0:
274,88,78058,1,0,0:0:0:0:
277,110,78137,85,0,0:0:0:0:
273,132,78215,1,0,0:0:0:0:
264,153,78293,1,0,0:0:0:0:
249,170,78371,1,0,0:0:0:0:
230,182,78449,1,0,0:0:0:0:
209,189,78527,1,0,0:0:0:0:
187,190,78605,1,0,0:0:0:0:
165,184,78683,1,0,0:0:0:0:
146,173,78762,21,4,0:0:0:0:
126,162,78840,1,0,0:0:0:0:
104,157,78918,1,0,0:0:0:0:
81,159,78996,1,0,0:0:0:0:
60,166,79074,1,0,0:0:0:0:
42,179,79152,1,0,0:0:0:0:
28,196,79230,1,0,0:0:0:0:
19,217,79308,1,0,0:0:0:0:
16,239,79387,85,0,0:0:0:0:
20,261,79465,1,0,0:0:0:0:
29,282,79543,1,0,0:0:0:0:
44,299,79621,1,0,0:0:0:0:
63,311,79699,1,0,0:0:0:0:
84,318,79777,1,0,0:0:0:0:
106,319,79855,1,0,0:0:0:0:
128,313,79933,1,0,0:0:0:0:
147,302,80012,21,0,0:0:0:0:
215,42,80220,1,0,0:0:0:0:
405,231,80428,1,0,0:0:0:0:
106,152,80637,1,0,0:0:0:0:
365,82,80846,1,0,0:0:0:0:
296,341,81054,1,0,0:0:0:0:
256,192,81262,85,0,0:0:0:0:
242,173,81340,1,0,0:0:0:0:
225,159,81418,1,0,0:0:0:0:
205,149,81496,1,0,0:0:0:0:
183,144,81574,1,0,0:0:0:0:
161,144,81652,1,0,0:0:0:0:
139,149,81730,1,0,0:0:0:0:
119,159,81808,1,0,0:0:0:0:
102,174,81887,21,0,0:0:0:0:
89,192,81965,1,0,0:0:0:0:
81,213,82043,1,0,0:0:0:0:
78,235,82121,1,0,0:0:0:0:
80,258,82199,1,0,0:0:0:0:
87,279,82277,1,0,0:0:0:0:
99,298,82355,1,0,0:0:0:0:
115,314,82433,1,0,0:0:0:0:
134,325,82512,85,0,0:0:0:0:
156,331,82590,1,0,0:0:0:0:
178,333,82668,1,0,0:0:0:0:
200,329,82746,1,0,0:0:0:0:
221,320,82824,2,0,L|248:312,7,22.5,0|0|0|0|0|0|0|0,0:0|0:0|0:0|0:0|0:0|0:0|0:0|0:0,0:0:0:0:
280,256,83137,21,0,0:0:0:0:
298,215,83215,1,0,0:0:0:0:
335,191,83293,1,0,0:0:0:0:
379,191,83371,1,0,0:0:0:0:
416,216,83449,1,0,0:0:0:0:
434,256,83527,1,0,0:0:0:0:
427,300,83605,1,0,0:0:0:0:
397,333,83683,1,0,0:0:0:0:
354,344,83762,86,0,L|312:348,31,33.7500012874604
354,344,85012,1,4,0:0:0:0:
256,192,85793,21,0,0:0:0:0:
256,192,85871,1,0,0:0:0:0:
256,192,85949,1,0,0:0:0:0:
256,192,86262,69,4,0:0:0:0:
324,40,86418,1,0,0:0:0:0:
324,40,86496,1,0,0:0:0:0:
336,272,86652,1,0,0:0:0:0:
336,272,86730,1,0,0:0:0:0:
416,136,86887,1,0,0:0:0:0:
416,136,86965,1,0,0:0:0:0:
256,192,87121,1,0,0:0:0:0:
256,192,87199,1,0,0:0:0:0:
324,40,87355,1,0,0:0:0:0:
336,272,87512,37,0,0:0:0:0:
196,112,87668,1,0,0:0:0:0:
196,112,87746,1,0,0:0:0:0:
416,136,87902,1,0,0:0:0:0:
416,136,87980,1,0,0:0:0:0:
252,284,88137,2,0,P|300:268|348:276,1,90
416,136,88449,2,0,P|368:152|320:144,1,90
196,112,88762,69,0,0:0:0:0:
324,40,88918,1,0,0:0:0:0:
324,40,88996,1,0,0:0:0:0:
248,240,89152,1,0,0:0:0:0:
248,240,89230,1,0,0:0:0:0:
196,112,89387,1,0,0:0:0:0:
196,112,89465,1,0,0:0:0:0:
416,136,89621,1,0,0:0:0:0:
416,136,89699,1,0,0:0:0:0:
324,40,89855,1,0,0:0:0:0:
312,232,90012,37,0,0:0:0:0:
176,140,90168,1,0,0:0:0:0:
176,140,90246,1,0,0:0:0:0:
324,68,90402,1,0,0:0:0:0:
324,68,90480,1,0,0:0:0:0:
284,208,90637,69,0,0:0:0:0:
468,156,90793,1,0,0:0:0:0:
468,156,90871,1,0,0:0:0:0:
420,340,91027,1,0,0:0:0:0:
420,340,91105,1,0,0:0:0:0:
396,112,91262,37,0,0:0:0:0:
420,340,91418,1,0,0:0:0:0:
420,340,91496,1,0,0:0:0:0:
312,232,91652,1,0,0:0:0:0:
312,232,91730,1,0,0:0:0:0:
496,248,91887,1,0,0:0:0:0:
496,248,91965,1,0,0:0:0:0:
320,316,92121,1,0,0:0:0:0:
320,316,92199,1,0,0:0:0:0:
384,164,92355,1,0,0:0:0:0:
204,240,92512,85,0,0:0:0:0:
360,300,92668,1,0,0:0:0:0:
360,300,92746,1,0,0:0:0:0:
336,136,92902,1,0,0:0:0:0:
336,136,92980,1,0,0:0:0:0:
88,328,93137,21,0,0:0:0:0:
132,132,93293,1,0,0:0:0:0:
132,132,93371,1,0,0:0:0:0:
278,272,93527,1,0,0:0:0:0:
278,272,93605,1,0,0:0:0:0:
316,168,93762,37,0,0:0:0:0:
312,164,93840,1,0,0:0:0:0:
308,160,93918,1,0,0:0:0:0:
304,156,93996,1,0,0:0:0:0:
300,152,94074,1,0,0:0:0:0:
172,200,94230,69,0,0:0:0:0:
168,204,94308,1,0,0:0:0:0:
164,208,94386,1,0,0:0:0:0:
160,212,94464,1,0,0:0:0:0:
156,216,94542,1,0,0:0:0:0:
284,264,94699,37,0,0:0:0:0:
288,268,94777,1,0,0:0:0:0:
292,272,94855,1,0,0:0:0:0:
296,276,94933,1,0,0:0:0:0:
300,280,95012,69,0,0:0:0:0:
334,308,95090,1,0,0:0:0:0:
378,314,95168,1,0,0:0:0:0:
418,295,95246,1,0,0:0:0:0:
441,257,95324,1,0,0:0:0:0:
441,213,95402,1,0,0:0:0:0:
416,176,95480,1,0,0:0:0:0:
376,158,95558,1,0,0:0:0:0:
332,164,95637,37,0,0:0:0:0:
100,304,95871,1,0,0:0:0:0:
152,40,96105,1,0,0:0:0:0:
192,136,96262,21,0,0:0:0:0:
320,44,96418,2,0,L|352:48,5,30,0|0|0|0|0|0,0:0|0:0|0:0|0:0|0:0|0:0,0:0:0:0:
376,60,96730,2,0,P|408:116|356:212,1,180,4|0,0:0|0:0,0:0:0:0:
228,244,97199,5,0,0:0:0:0:
224,248,97277,1,0,0:0:0:0:
220,252,97355,1,0,0:0:0:0:
216,256,97433,1,0,0:0:0:0:
212,260,97512,1,0,0:0:0:0:
84,220,97668,101,0,0:0:0:0:
80,216,97746,1,0,0:0:0:0:
76,212,97824,1,0,0:0:0:0:
72,208,97902,1,0,0:0:0:0:
68,204,97981,1,0,0:0:0:0:
148,96,98137,5,0,0:0:0:0:
162,78,98215,1,0,0:0:0:0:
181,67,98293,1,0,0:0:0:0:
203,64,98371,1,0,0:0:0:0:
225,68,98449,1,0,0:0:0:0:
243,81,98527,1,0,0:0:0:0:
256,99,98605,1,0,0:0:0:0:
262,121,98683,1,0,0:0:0:0:
259,143,98762,1,0,0:0:0:0:
248,163,98840,1,0,0:0:0:0:
231,177,98918,1,0,0:0:0:0:
210,184,98996,1,0,0:0:0:0:
187,183,99074,1,0,0:0:0:0:
100,156,99230,101,0,0:0:0:0:
100,156,99308,1,0,0:0:0:0:
100,156,99387,2,0,L|88:208,1,45
200,336,99543,2,0,L|212:284,1,45
408,152,99699,2,0,L|344:172,1,45
288,340,99855,2,0,L|352:320,1,45
476,320,100012,2,0,L|436:280,1,45
264,220,100168,2,0,L|304:260,1,45
368,80,100324,2,0,L|356:140,1,45
192,216,100480,2,0,L|204:156,1,45
172,72,100637,5,0,0:0:0:0:
112,344,100871,1,0,0:0:0:0:
380,272,101105,1,0,0:0:0:0:
200,164,101262,101,0,0:0:0:0:
224,304,101418,1,0,0:0:0:0:
224,304,101496,1,0,0:0:0:0:
88,256,101652,1,0,0:0:0:0:
88,256,101730,1,0,0:0:0:0:
240,292,101887,101,0,0:0:0:0:
204,81,102043,1,0,0:0:0:0:
204,81,102121,1,0,0:0:0:0:
408,153,102277,1,0,0:0:0:0:
408,153,102355,1,0,0:0:0:0:
276,200,102512,21,0,0:0:0:0:
300,340,102668,1,0,0:0:0:0:
300,340,102746,1,0,0:0:0:0:
164,292,102902,1,0,0:0:0:0:
164,292,102980,1,0,0:0:0:0:
312,268,103137,53,0,0:0:0:0:
144,128,103293,1,0,0:0:0:0:
144,129,103605,69,0,0:0:0:0:
288,296,103762,1,0,0:0:0:0:
52,252,103918,1,0,0:0:0:0:
216,72,104074,1,0,0:0:0:0:
264,320,104230,1,0,0:0:0:0:
100,128,104387,37,0,0:0:0:0:
127,163,104465,1,0,0:0:0:0:
164,188,104543,1,0,0:0:0:0:
207,198,104621,1,0,0:0:0:0:
252,194,104699,37,0,0:0:0:0:
292,174,104777,1,0,0:0:0:0:
324,142,104855,1,0,0:0:0:0:
343,102,104933,1,0,0:0:0:0:
347,57,105012,5,0,0:0:0:0:
352,60,105324,2,0,L|388:64,5,30,0|0|0|0|0|0,0:0|0:0|0:0|0:0|0:0|0:0,0:0:0:0:
444,72,105637,21,0,0:0:0:0:
68,72,105871,1,0,0:0:0:0:
256,260,106105,1,0,0:0:0:0:
338,280,106262,69,0,0:0:0:0:
349,278,106340,1,0,0:0:0:0:
360,277,106418,1,0,0:0:0:0:
371,275,106496,1,0,0:0:0:0:
382,274,106574,1,0,0:0:0:0:
393,272,106652,1,0,0:0:0:0:
404,271,106730,1,0,0:0:0:0:
416,270,106808,1,0,0:0:0:0:
427,268,106887,5,0,0:0:0:0:
448,260,106965,1,0,0:0:0:0:
465,246,107043,1,0,0:0:0:0:
479,228,107121,1,0,0:0:0:0:
488,208,107199,1,0,0:0:0:0:
491,185,107277,1,0,0:0:0:0:
487,163,107355,1,0,0:0:0:0:
479,143,107433,1,0,0:0:0:0:
465,125,107512,21,0,0:0:0:0:
444,151,107590,1,0,0:0:0:0:
412,162,107668,1,0,0:0:0:0:
379,157,107746,1,0,0:0:0:0:
353,137,107824,1,0,0:0:0:0:
340,106,107902,1,0,0:0:0:0:
344,73,107980,1,0,0:0:0:0:
364,46,108058,1,0,0:0:0:0:
395,32,108137,69,0,0:0:0:0:
383,76,108215,1,0,0:0:0:0:
358,112,108293,1,0,0:0:0:0:
321,138,108371,1,0,0:0:0:0:
277,148,108449,1,0,0:0:0:0:
233,142,108527,1,0,0:0:0:0:
193,121,108605,1,0,0:0:0:0:
164,87,108683,1,0,0:0:0:0:
148,45,108762,5,0,0:0:0:0:
202,56,108840,1,0,0:0:0:0:
237,100,108918,1,0,0:0:0:0:
234,155,108996,1,0,0:0:0:0:
197,195,109074,1,0,0:0:0:0:
159,235,109152,1,0,0:0:0:0:
157,290,109230,1,0,0:0:0:0:
191,333,109308,1,0,0:0:0:0:
245,344,109387,22,0,L|328:324,1,67.5000025749208
420,216,109543,2,0,L|337:236,1,67.5000025749208
160,236,109699,2,0,L|243:216,1,67.5000025749208
335,108,109855,2,0,L|252:128,1,67.5000025749208
76,128,110012,69,0,0:0:0:0:
68,136,110480,5,0,0:0:0:0:
60,144,110949,37,0,0:0:0:0:
