osu file format v14

[General]
AudioFilename: BMSAkasagarbhaBGA.mp3
AudioLeadIn: 0
PreviewTime: 26262
Countdown: 0
SampleSet: Soft
StackLeniency: 0.7
Mode: 0
LetterboxInBreaks: 0
WidescreenStoryboard: 1

[Editor]
DistanceSpacing: 1
BeatDivisor: 4
GridSize: 4
TimelineZoom: 1.3

[Metadata]
Title:Akasagarbha
TitleUnicode:Akasagarbha
Artist:wa. vs ETIA.
ArtistUnicode:wa. vs ETIA.
Creator:zhengyuanhang
Version:Beginner
Source:BMS
Tags:bga deadblue238 Mutual Faith New Genuine Magicial Girl Atsuro
BeatmapID:618959
BeatmapSetID:250377

[Difficulty]
HPDrainRate:1
CircleSize:2.5
OverallDifficulty:2
ApproachRate:3.5
SliderMultiplier:0.8
SliderTickRate:1

[Events]
//Background and Video events
0,0,"BG.jpg",0,0
Video,0,"[BMS]Akasagarbha[BGA].flv"
//Break Periods
2,66462,74882
//Storyboard Layer 0 (Background)
//Storyboard Layer 1 (Fail)
//Storyboard Layer 2 (Pass)
//Storyboard Layer 3 (Foreground)
//Storyboard Sound Samples

[TimingPoints]
1262,312.5,4,2,0,25,1,0
1262,-100,4,2,0,25,0,0
9387,-100,4,2,0,30,0,0
9699,-100,4,2,0,35,0,0
10012,-100,4,2,0,40,0,0
10324,-100,4,2,0,45,0,0
10637,-100,4,2,0,50,0,0
10949,-100,4,2,0,55,0,0
11262,-100,4,2,0,60,0,0
11340,-100,4,2,1,35,0,0
21262,-100,4,2,1,50,0,0
32746,-100,4,2,2,50,0,0
32902,-100,4,2,1,50,0,0
36496,-100,4,2,2,50,0,0
36652,-100,4,2,1,50,0,0
37746,-100,4,2,2,50,0,0
37902,-100,4,2,1,50,0,0
38996,-100,4,2,2,50,0,0
39152,-100,4,2,1,50,0,0
42746,-100,4,2,2,50,0,0
42902,-100,4,2,1,50,0,0
45012,-100,4,2,0,50,0,0
45793,-100,4,1,0,50,0,0
46262,-100,4,2,1,50,0,0
48762,-100,4,2,0,35,0,0
51262,-100,4,2,1,50,0,0
53762,-100,4,2,0,35,0,0
56262,-100,4,2,1,50,0,0
58762,-100,4,2,0,35,0,0
61262,-100,4,2,1,50,0,0
65012,-100,4,2,1,55,0,0
65324,-100,4,2,1,60,0,0
65637,-100,4,2,1,65,0,0
65949,-100,4,2,1,70,0,0
66262,-100,4,2,1,50,0,0
80012,-100,4,1,0,50,0,0
81262,-100,4,2,1,50,0,0
83762,-100,4,1,0,50,0,0
84074,-100,4,1,0,55,0,0
84387,-100,4,1,0,60,0,0
84699,-100,4,1,0,65,0,0
85012,-100,4,2,0,70,0,0
86262,-100,4,2,1,60,0,0
101262,-100,4,1,0,65,0,0
102512,-100,4,1,0,70,0,0
103762,-100,4,1,0,75,0,0
105637,-100,4,1,0,80,0,0
106262,-100,4,1,0,22,0,0
106887,-100,4,1,0,28,0,0
107512,-100,4,1,0,34,0,0
108137,-100,4,1,0,40,0,0
108762,-100,4,1,0,65,0,0
109387,-100,4,1,0,90,0,0
110012,-100,4,1,0,100,0,0
110480,-100,4,1,0,70,0,0
110949,-100,4,1,0,40,0,0

[Colours]
Combo1 : 128,0,0
Combo2 : 0,128,255
Combo3 : 0,255,255
Combo4 : 255,0,0
Combo5 : 255,255,255
Combo6 : 128,255,0
Combo7 : 128,0,255
Combo8 : 0,255,0

[HitObjects]
320,340,1262,5,0,0:0:0:0:
68,144,2512,6,0,P|148:124|232:148,2,160,0|0|0,0:0|0:0|0:0,0:0:0:0:
140,288,4387,2,0,P|220:308|304:284,1,160,0|0,0:0|0:0,0:0:0:0:
424,200,5637,2,0,L|428:120,1,80
372,60,6262,101,0,0:0:0:0:
140,280,7512,1,0,0:0:0:0:
376,236,8449,1,0,0:0:0:0:
452,256,8762,2,0,P|440:192|300:216,1,240
276,288,10012,38,0,B|200:252|232:168|232:168|152:116|152:116|128:36,1,320,0|4,0:0|0:0,0:0:0:0:
32,112,11730,70,0,P|20:176|32:232,1,120,4|0,0:0|0:0,0:0:0:0:
96,276,12512,2,0,L|176:284,2,80
32,228,13449,1,0,0:0:0:0:
88,172,13762,5,0,0:0:0:0:
200,60,14387,2,0,P|260:88|352:56,1,160
448,184,15637,1,0,0:0:0:0:
352,312,16262,102,0,L|272:324,2,80
276,172,17512,2,0,L|196:160,2,80,0|0|0,0:0|0:0|0:0,0:0:0:0:
416,96,18762,2,0,P|444:180|408:248,2,160,0|0|0,0:0|0:0|0:0,0:0:0:0:
256,72,20637,37,0,0:0:0:0:
180,100,20949,1,0,0:0:0:0:
104,128,21262,2,0,P|80:200|112:284,1,160,4|0,0:0|0:0,0:0:0:0:
256,328,22512,54,0,P|316:312|376:332,2,120
180,300,23762,2,0,P|120:316|60:296,1,120,0|0,0:0|0:0,0:0:0:0:
16,236,24543,1,0,0:0:0:0:
92,144,25012,54,0,L|216:136,2,120,4|4|0,0:0|0:0|0:0,0:0:0:0:
56,216,26262,22,0,L|44:296,2,80,4|8|0,0:0|0:0|0:0,0:0:0:0:
92,144,27199,1,8,0:0:0:0:
164,176,27512,2,0,P|208:192|248:184,2,80,0|8|0,0:0|0:0|0:0,0:0:0:0:
212,112,28449,1,8,0:0:0:0:
284,80,28762,86,0,P|332:72|368:84,1,80,0|8,0:0|0:0,0:0:0:0:
388,156,29387,2,0,P|340:164|304:152,1,80,0|8,0:0|0:0,0:0:0:0:
284,80,30012,2,0,L|192:72,2,80,0|8|0,0:0|0:0|0:0,0:0:0:0:
362,63,30949,2,0,L|394:35,2,40,8|0|0,0:0|0:0|0:0,0:0:0:0:
340,140,31574,22,0,L|324:228,2,80,8|0|8,0:0|0:0|0:0,0:0:0:0:
284,80,32512,2,0,P|224:64|160:88,2,120,0|0|8,0:0|0:0|0:0,0:0:0:0:
340,140,33762,86,0,P|380:152|432:140,2,80,0|8|0,0:0|0:0|0:0,0:0:0:0:
384,72,34699,1,8,0:0:0:0:
340,140,35012,2,0,L|328:224,1,80,0|8,0:0|0:0,0:0:0:0:
292,292,35637,1,0,0:0:0:0:
212,304,35949,1,8,0:0:0:0:
136,280,36262,6,0,P|160:224|140:172,2,120,4|0|8,0:0|0:0|0:0,0:0:0:0:
80,224,37512,2,0,P|60:168|84:116,2,120,0|0|8,0:0|0:0|0:0,0:0:0:0:
136,280,38762,2,0,L|272:288,2,120,0|0|8,0:0|0:0|0:0,0:0:0:0:
76,228,40012,102,0,L|68:136,2,80,0|8|0,0:0|0:0|0:0,0:0:0:0:
136,280,40949,2,0,L|168:308,2,40,8|0|0,0:0|0:0|0:0,0:0:0:0:
152,200,41574,2,0,P|196:192|244:204,1,80,8|0,0:0|0:0,0:0:0:0:
300,240,42199,1,8,0:0:0:0:
380,228,42512,6,0,P|428:192|432:124,2,120,0|0|8,0:0|0:0|0:0,0:0:0:0:
300,240,43762,2,0,L|208:224,2,80,0|8|0,0:0|0:0|0:0,0:0:0:0:
345,305,44699,1,8,0:0:0:0:
424,296,45012,37,4,0:0:0:0:
280,104,45949,1,0,0:0:0:0:
204,132,46262,38,0,L|108:140,2,80,4|8|0,0:0|0:0|0:0,0:0:0:0:
280,104,47199,1,8,0:0:0:0:
356,128,47512,2,0,L|396:208,1,80,0|8,0:0|0:0,0:0:0:0:
324,244,48137,2,0,L|284:324,1,80,0|8,0:0|0:0,0:0:0:0:
212,340,48762,6,0,P|160:276|172:192,2,160
332,232,50637,1,0,0:0:0:0:
364,76,51262,38,0,P|404:68|448:72,1,80,0|8,0:0|0:0,0:0:0:0:
464,148,51887,2,0,P|424:156|380:152,1,80,0|8,0:0|0:0,0:0:0:0:
308,136,52512,2,0,L|244:200,2,80,0|8|0,0:0|0:0|0:0,0:0:0:0:
364,76,53449,1,8,0:0:0:0:
440,104,53762,70,0,P|468:172|452:264,1,160
300,300,55012,2,0,P|272:232|288:140,1,160
440,104,56262,22,0,L|452:184,2,80,4|8|0,0:0|0:0|0:0,0:0:0:0:
364,80,57199,1,8,0:0:0:0:
288,108,57512,2,0,L|204:116,1,80,0|8,0:0|0:0,0:0:0:0:
152,56,58137,2,0,L|68:48,1,80,0|8,0:0|0:0,0:0:0:0:
24,112,58762,86,0,B|8:192|8:192|32:268,2,160
167,183,60637,1,0,0:0:0:0:
296,280,61262,86,0,P|332:300|380:300,1,80,4|8,0:0|0:0,0:0:0:0:
412,232,61887,2,0,P|376:212|328:212,1,80,0|8,0:0|0:0,0:0:0:0:
264,176,62512,2,0,L|252:96,2,80,0|8|0,0:0|0:0|0:0,0:0:0:0:
224,244,63449,1,8,0:0:0:0:
256,192,63762,12,4,66262,0:0:0:0:
52,56,76262,21,0,0:0:0:0:
152,120,76730,2,0,L|280:128,1,120,4|0,0:0|0:0,0:0:0:0:
348,152,77512,86,0,P|392:228|368:308,1,160
224,340,78762,2,0,P|180:264|204:184,1,160,0|0,0:0|0:0,0:0:0:0:
348,152,80012,21,0,0:0:0:0:
200,92,80637,1,0,0:0:0:0:
224,252,81262,85,0,0:0:0:0:
296,288,81574,2,0,P|356:296|420:284,1,120,4|4,0:0|0:0,0:0:0:0:
432,208,82355,2,0,P|372:200|308:212,2,120
256,192,83605,12,4,85012,0:0:0:0:
128,304,86262,102,0,L|44:288,2,80,4|0|0,0:0|0:0|0:0,0:0:0:0:
204,284,87199,1,0,0:0:0:0:
280,308,87512,2,0,P|320:316|364:308,1,80
380,232,88137,2,0,P|340:224|296:232,1,80
228,196,88762,38,0,L|148:188,2,80
264,124,89699,1,0,0:0:0:0:
340,100,90012,2,0,L|404:48,2,80
324,180,90949,1,0,0:0:0:0:
264,232,91262,86,0,L|172:240,2,80,0|0|0,0:0|0:0|0:0,0:0:0:0:
324,180,92199,1,0,0:0:0:0:
392,224,92512,2,0,L|396:308,2,80
460,180,93449,1,0,0:0:0:0:
388,144,93762,70,0,P|376:96|388:60,2,80
392,224,94699,1,0,0:0:0:0:
316,244,95012,2,0,L|224:264,1,80
176,308,95637,2,0,L|84:288,1,80
52,224,96262,22,0,B|20:172|20:172|36:116,2,120,0|4|0,0:0|0:0|0:0,0:0:0:0:
108,164,97512,2,0,L|187:168,2,80
52,224,98449,1,0,0:0:0:0:
104,284,98762,6,0,L|180:320,2,80
52,224,99699,1,0,0:0:0:0:
84,152,100012,2,0,P|122:138|176:148,1,80
164,220,100637,2,0,P|202:233|256:224,1,80
320,248,101262,101,0,0:0:0:0:
237,109,101887,1,0,0:0:0:0:
222,270,102512,1,0,0:0:0:0:
329,148,103137,1,0,0:0:0:0:
171,184,103762,70,0,L|88:176,2,80,0|0|0,0:0|0:0|0:0,0:0:0:0:
240,228,104699,1,0,0:0:0:0:
316,204,105012,2,0,L|400:200,1,80
468,164,105637,1,0,0:0:0:0:
352,52,106262,38,0,L|184:44,1,160
112,184,107512,2,0,L|238:190,2,120
92,260,108762,2,0,P|32:192|136:112,1,240
200,116,110012,6,0,L|326:122,2,120
