osu file format v9

[General]
AudioFilename: BMSAkasagarbhaBGA.mp3
AudioLeadIn: 1000
PreviewTime: 26261
Countdown: 0
SampleSet: Soft
StackLeniency: 0.7
Mode: 0
LetterboxInBreaks: 0

[Editor]
Bookmarks: 36339,45011,51261,56261,61261
DistanceSpacing: 0.6
BeatDivisor: 6
GridSize: 4

[Metadata]
Title:Akasagarbha
Artist:wa. vs ETIA.
Creator:DaxMasterix
Version:Shiirn's Extra
Source:BMS
Tags:bga deadblue238 Mutual Faith New Genuine Magicial Girl Shiirn

[Difficulty]
HPDrainRate:8
CircleSize:4
OverallDifficulty:8
ApproachRate:9
SliderMultiplier:1.78
SliderTickRate:2

[Events]
//Background and Video events
Video,0,"[BMS]Akasagarbha[BGA].flv"
0,0,"BG.jpg"
//Break Periods
//Storyboard Layer 0 (Background)
//Storyboard Layer 1 (Fail)
//Storyboard Layer 2 (Pass)
//Storyboard Layer 3 (Foreground)
//Storyboard Sound Samples
//Background Colour Transformations
3,100,163,162,255

[TimingPoints]
1262,625,4,2,0,60,1,0
6262,-66.6666666666667,4,2,0,60,0,0
11262,312.5,4,2,0,60,1,0
11262,-66.6666666666667,4,2,0,60,0,0
21261,-100,4,1,0,100,0,0
21886,-100,4,2,0,60,0,0
25011,-100,4,1,0,60,0,0
26261,-66.6666666666667,4,1,0,60,0,0
46261,-100,4,1,0,60,0,0
65011,-50,4,1,0,60,0,0
66261,-100,4,2,0,60,0,0
83917,-100,4,1,0,50,0,0
86261,-66.6666666666667,4,1,0,60,0,0
87354,-133.333333333333,4,1,0,60,0,0
101261,-100,4,1,0,60,0,0
106339,-66.6666666666667,4,1,0,15,0,0
106886,-66.6666666666667,4,1,0,20,0,0
107433,-66.6666666666667,4,1,0,30,0,0
107980,-66.6666666666667,4,1,0,40,0,0
108526,-66.6666666666667,4,1,0,50,0,0
109073,-66.6666666666667,4,1,0,60,0,0
109620,-66.6666666666667,4,1,0,60,0,0
110011,-66.6666666666667,4,1,0,70,0,0
110948,-66.6666666666667,4,2,0,100,0,0

[Colours]
Combo1 : 255,32,32
Combo2 : 0,88,176
Combo3 : 0,240,240
Combo4 : 125,0,0
Combo5 : 136,255,17
Combo6 : 153,51,255
Combo7 : 41,0,83
Combo8 : 198,198,0

[HitObjects]
256,192,1262,21,0
224,152,2512,1,0
284,149,2668,1,0
305,205,2824,1,0
258,243,2980,1,0
208,209,3137,2,0,B|164:220|140:264,2,89
404,344,4387,101,0
344,347,4543,1,0
323,291,4699,1,0
370,253,4855,1,0
419,286,5012,1,0
136,140,5637,5,0
256,68,5949,1,0
375,140,6262,1,0
375,140,6418,2,0,B|307:144|256:192,1,133.5
136,243,7512,1,0
136,243,7668,2,0,B|204:239|256:192,1,133.5
256,192,8449,1,0
60,80,8762,101,0
452,304,9074,1,0
452,304,9230,1,0
290,231,10012,5,0
224,232,10168,1,0
208,176,10324,1,0
256,140,10480,1,0
304,176,10637,1,0
202,277,10793,1,0
256,88,10949,1,0
325,271,11105,1,0
159,163,11262,102,0,B|92:124|36:172,1,133.49999602139,4|0
48,276,11573,1,8
48,276,11729,2,0,B|156:352|304:312,1,266.99999204278,4|0
368,224,12198,1,8
448,308,12354,1,0
504,232,12511,5,0
500,152,12667,1,0
460,84,12823,1,8
388,48,12979,1,0
308,48,13136,2,0,B|264:100,2,66.7499980106951
164,96,13448,2,0,B|208:44,2,66.7499980106951,8|0|0
80,60,13761,101,0
0,164,13917,1,0
128,180,14073,1,8
80,60,14229,2,0,B|44:192|80:324,1,266.99999204278
160,384,14698,1,8
256,352,14854,1,0
319,287,15011,6,0,B|345:313|380:307|380:307|416:302|442:328,1,133.49999602139,0|0
192,287,15323,2,0,B|166:313|131:307|131:307|95:302|69:328,1,133.49999602139,8|0
378,183,15636,2,0,B|352:209|316:204|316:204|281:198|256:224,1,133.49999602139,0|0
133,183,15948,2,0,B|159:209|195:204|195:204|230:198|256:224,1,133.49999602139,8|0
328,104,16261,101,0
256,32,16417,1,0
184,104,16573,1,8
256,176,16729,1,0
484,120,17042,1,0
412,192,17198,1,8
484,264,17354,1,0
328,312,17511,5,0
256,384,17667,1,0
184,312,17823,1,8
256,240,17979,1,0
240,336,18136,101,0
141,360,18292,1,0
116,261,18448,1,8
215,237,18604,1,0
215,237,18761,6,0,B|164:196|184:116,1,133.49999602139
240,40,19073,2,0,B|291:81|271:161,1,133.49999602139,8|0
296,240,19386,2,0,B|275:320|326:361,1,133.49999602139
382,286,19698,2,0,B|402:205|351:164,1,133.49999602139,8|0
256,192,20011,101,4
240,208,20636,1,0
224,224,20948,1,0
208,240,21261,5,4
192,240,21886,85,2
176,240,22511,1,2
160,240,22979,1,2
144,240,23448,1,2
128,240,23761,37,2
256,384,23917,1,2
384,240,24073,1,2
256,304,24229,1,2
468,180,24542,101,2
44,180,24698,1,2
384,288,25011,21,4
416,320,25479,69,4
448,352,25948,54,0,B|464:368,7,22.25
415,352,26261,6,0,B|352:384|285:360,1,133.49999602139,6|0
344,252,26573,2,0,B|392:208|380:128,1,133.49999602139,8|2
168,132,26886,2,0,B|120:176|132:256,1,133.49999602139,0|2
256,176,27198,2,0,B|256:220,3,44.4999986737967,8|0|0|2
316,104,27511,102,0,B|272:56|192:68,1,133.49999602139,2|0
196,280,27824,2,0,B|240:328|320:316,1,133.49999602139,8|2
407,259,28136,2,0,B|396:216|424:164|473:164,1,133.49999602139
104,124,28448,2,0,B|116:168|88:220|38:219,1,133.49999602139,10|0
72,344,28761,5,2
192,348,28917,1,0
192,348,28995,1,0
192,348,29073,2,0,B|160:288|204:220,1,133.49999602139,8|2
309,162,29386,2,0,B|352:96|320:36,1,133.49999602139
320,36,29620,1,0
320,36,29698,1,10
192,36,29854,1,2
80,96,30011,101,2
108,111,30089,1,0
136,126,30167,1,0
80,192,30323,5,8
48,192,30401,1,0
16,192,30479,1,0
80,288,30636,101,2
108,273,30714,1,0
136,258,30792,1,0
256,192,30948,1,10
272,208,31026,1,0
288,224,31104,1,0
304,240,31182,1,0
320,256,31261,6,0,B|388:240|452:268,1,133.49999602139,2|0
463,137,31573,2,0,B|479:205|452:268,1,133.49999602139,8|0
360,360,31886,1,0
236,328,32042,2,0,B|200:264|120:240,2,133.49999602139,2|10|2
236,328,32511,102,2,B|272:200|416:144,1,266.99999204278,2|10
388,288,32979,2,2,B|376:208|288:128|192:132,1,266.99999204278,2|2
88,108,33448,2,0,B|80:72|96:44,2,66.749998010695,8|0|0
44,236,33761,6,0,B|128:192|240:232,1,200.249994032085,2|0
256,200,34073,2,0,B|256:132|292:72,1,133.49999602139,10|2
384,64,34386,1,0
476,208,34542,1,0
320,296,34698,1,8
148,336,34854,1,0
148,336,34932,1,0
148,336,35011,102,0,B|64:340|32:284,1,133.49999602139
32,99,35323,2,0,B|64:44|148:48,1,133.49999602139,8|0
104,192,35636,2,0,B|308:192,1,200.249994032085,2|0
368,224,35948,2,0,B|308:192|292:120,1,133.49999602139,2|2
480,104,36261,101,6
480,276,36417,1,0
340,332,36573,1,8
172,332,36729,1,2
256,192,36886,1,0
256,192,36964,1,0
256,192,37042,1,0
256,344,37198,2,0,B|256:284,3,44.4999986737967,10|0|0|0
172,252,37511,38,0,B|40:228,1,133.49999602139,2|0
76,116,37823,2,0,B|144:128|184:56,1,133.49999602139,8|2
328,56,38136,1,0
328,56,38214,1,0
328,56,38292,2,8,B|368:128|436:116,1,133.49999602139,8|10
468,228,38604,1,0
416,304,38761,69,2
400,288,38839,1,0
384,272,38917,1,0
314,314,39073,37,8
320,336,39151,1,0
325,357,39229,1,2
187,357,39386,69,0
192,336,39464,1,0
198,314,39542,1,0
128,272,39698,37,10
112,288,39776,1,0
96,304,39854,1,0
32,240,40011,70,0,B|12:176|36:108,1,133.49999602139,0|0
128,56,40323,1,8
200,124,40479,1,0
240,28,40636,2,0,B|204:93|244:161|337:147,1,200.249994032085,2|0
356,132,40948,1,10
348,47,41104,1,10
432,80,41261,38,0,B|484:36,2,66.749998010695,2|0|0
500,148,41573,2,0,B|432:156,2,66.749998010695,8|0|0
500,236,41886,2,0,B|433:228,2,66.749998010695,2|0|0
432,304,42198,2,0,B|482:347,2,66.749998010695,8|0|0
320,308,42511,69,2
320,308,42589,1,0
320,308,42667,2,0,B|252:300|192:336,1,133.49999602139,0|8
64,308,42979,1,2
64,308,43057,1,0
64,308,43136,2,0,B|28:248|36:180,1,133.49999602139,0|8
64,88,43448,1,10
160,160,43604,1,0
196,68,43761,38,2,B|132:184|172:328,1,266.99999204278,2|10
316,68,44229,2,2,B|380:184|340:328,1,266.99999204278,2|10
256,384,44698,1,10
256,288,44854,1,0
256,192,45011,1,6
256,192,45870,5,8
256,192,45949,1,8
256,192,46104,1,0
392,128,46261,38,0,B|476:152,1,89,4|0
392,256,46573,2,0,B|476:232,1,89,8|0
308,104,46886,2,0,B|392:128,1,89
308,280,47198,2,0,B|392:256,1,89,8|0
120,128,47511,70,0,B|36:152,1,89
120,256,47823,2,0,B|36:232,1,89,8|0
204,104,48136,2,0,B|120:128,1,89
204,280,48448,2,0,B|120:256,1,89,8|0
56,296,48761,37,0
128,348,48917,1,0
212,316,49073,1,8
256,240,49229,70,0,B|256:148,1,89
300,316,49542,37,8
384,348,49698,1,8
456,296,49854,1,0
420,192,50011,69,0
456,88,50167,37,0
384,36,50323,1,8
300,68,50479,1,0
216,116,50636,2,0,B|132:88,1,89,0|8
296,268,50948,2,0,B|380:296,1,89,8|0
256,336,51261,6,0,B|160:336,1,89
32,272,51573,2,0,B|124:272,1,89,8|0
256,208,51886,2,0,B|160:208,1,89
32,144,52198,2,0,B|124:144,1,89,8|0
260,88,52511,2,0,B|164:88,1,89
36,24,52823,2,0,B|128:24,1,89,8|0
260,88,53136,2,0,B|164:88,1,89,0|8
32,144,53448,2,0,B|124:144,1,89,8|0
128,232,53761,85,0
108,320,53917,1,0
192,352,54073,1,8
256,292,54230,22,0,B|256:203,1,89
320,352,54543,85,0
404,320,54699,1,8
384,232,54856,1,0
256,203,55012,21,0
192,96,55168,1,0
256,44,55323,1,8
320,96,55480,1,0
256,44,55637,2,0,B|256:196,1,133.5,0|8
256,203,55949,1,8
256,316,56104,1,0
256,316,56182,1,0
256,316,56262,6,0,B|212:300|168:316,1,89,4|0
179,235,56573,2,0,B|164:192|180:148,1,89,8|0
256,192,56886,5,0
256,192,57042,1,0
104,148,57198,2,0,B|88:192|104:236,1,89,8|0
256,192,57511,101,0
256,192,57667,1,0
392,235,57823,2,0,B|408:192|392:148,1,89,8|0
256,192,58136,5,0
256,192,58292,1,0
76,148,58448,2,0,B|60:191|76:235,1,89,8|0
124,304,58761,101,0
204,268,58917,1,0
256,340,59073,1,8
308,268,59229,1,0
388,304,59387,1,0
256,340,59542,2,0,B|256:248,1,89,8|8
256,156,59854,1,0
320,104,60011,6,0,B|400:140,1,89
188,104,60323,2,0,B|108:140,1,89,8|0
384,52,60636,2,0,B|464:88,1,89
128,52,60948,2,0,B|48:88,1,89,8|0
28,192,61261,38,0,B|96:248|72:356,1,178,4|8
256,312,61729,1,0
439,354,61886,2,0,B|416:248|484:192,1,178,0|8
372,88,62354,1,0
384,173,62511,6,0,B|396:128|372:88,1,89
256,92,62823,2,0,B|256:188,1,89,8|0
127,173,63136,2,0,B|116:128|140:88,1,89
256,264,63448,2,0,B|256:352,1,89,8|0
392,336,63761,101,0
392,336,63839,1,0
392,336,63917,1,0
392,336,63995,1,0
392,336,64073,1,8
392,336,64151,1,0
392,336,64229,1,0
392,336,64307,1,0
392,336,64386,1,0
392,336,64464,1,0
392,336,64542,1,0
392,336,64620,1,0
392,336,64698,1,8
392,336,64776,1,0
392,336,64854,1,0
392,336,64932,1,0
392,336,65011,6,0,B|432:304,31,44.5
432,352,66261,101,4
256,244,66886,1,2
79,351,67511,6,0,B|48:332|36:280|67:232,1,133.5
132,288,67901,2,0,B|168:264|168:208,1,89
176,196,68096,1,0
176,184,68136,2,0,B|192:144|244:124,1,89
327,140,68449,2,0,B|352:100,5,29.6666666666667
327,140,68761,102,0,B|328:284|468:348,1,267
476,232,69542,1,0
452,112,69698,1,0
368,56,69854,1,0
368,56,69906,1,0
368,56,69958,1,0
367,55,70011,2,0,B|272:36|191:60,1,178
84,136,70479,5,0
84,136,70557,1,0
84,136,70636,2,0,B|52:180,3,44.5
80,204,70948,2,0,B|112:248,3,44.5
96,272,71261,37,0
256,208,71729,1,0
416,272,72042,1,0
444,168,72199,2,0,B|488:192,3,29.6666666666667
444,168,72511,6,0,B|392:140,1,59.3333333333333
364,124,72719,1,0
352,192,72823,2,0,B|300:164,1,59.3333333333333
272,148,73031,1,0
181,174,73136,2,0,B|260:216,1,89
192,248,73448,2,0,B|104:201,1,89
32,204,73761,53,0
480,180,74229,1,0
376,344,74542,1,0
176,320,74854,1,0
144,144,75167,101,0
304,176,75323,2,0,B|296:140|264:132,2,59.3333333333333
208,208,75636,2,0,B|216:244|248:252,2,59.3333333333333
352,272,75948,1,0
352,272,76026,1,0
352,272,76104,1,0
352,272,76182,1,0
352,272,76261,6,0,B|404:284,3,44.5,4|0|0|0
452,248,76573,1,0
452,248,76651,1,0
452,248,76729,2,0,B|484:164|392:92,1,178,4|0
356,116,77120,1,0
356,116,77198,2,0,B|264:120,1,89,2|0
188,56,77511,37,4
160,60,77589,1,0
136,72,77667,1,0
116,88,77745,1,0
100,108,77823,2,0,B|88:128|92:152,2,44.5,8|0|2
184,148,78136,5,4
212,152,78214,1,0
236,164,78292,1,0
256,180,78370,1,0
272,200,78448,2,0,B|284:220|280:244,2,44.5,8|0|2
192,248,78761,53,4
196,276,78839,1,0
208,300,78917,1,0
224,320,78995,1,0
244,336,79073,2,0,B|264:348|288:344,3,44.5,8|0|2|0
312,340,79386,101,0
340,336,79464,1,0
364,324,79542,1,0
384,308,79620,1,0
400,288,79698,2,0,B|412:268|408:244,3,44.5,8|2|2|0
448,224,80011,5,4
256,40,80219,1,4
64,224,80427,1,4
256,124,80636,1,4
256,356,80844,1,4
256,212,81052,1,4
256,356,81261,22,0,B|264:308,3,44.5,2|0|2|0
256,288,81573,2,0,B|248:240,3,44.5,2|2|2|2
316,216,81886,1,0
316,216,81964,1,0
316,216,82042,1,0
316,216,82120,1,0
400,204,82198,2,0,B|388:160,3,44.5,2|2|2|2
356,120,82511,69,2
344,112,82589,1,2
332,108,82667,1,2
320,104,82745,1,2
308,104,82823,1,2
296,104,82901,1,2
284,108,82979,1,2
272,112,83057,1,2
260,112,83136,5,2
247,111,83214,1,2
235,107,83292,1,2
223,103,83370,1,2
211,103,83448,1,2
199,103,83526,1,2
187,107,83604,1,2
175,111,83682,1,2
163,119,83762,1,2
96,192,83917,54,0,B|76:176,4,22.25,4|4|4|4|4
96,272,84229,2,0,B|73:274,4,22.25,4|4|4|4|4
124,268,84464,1,0
140,264,84542,1,0
156,264,84620,1,0
172,268,84698,1,0
188,276,84776,1,0
204,280,84854,1,0
220,284,84932,1,0
236,284,85011,1,4
256,192,85792,21,0
256,192,85870,1,0
256,192,85948,1,8
76,336,86261,5,2
5,283,86417,1,0
5,283,86495,1,2
75,247,86651,1,0
75,247,86729,1,2
146,283,86886,1,0
146,283,86964,1,2
160,360,87120,1,0
160,360,87198,1,2
256,380,87354,6,2,B|256:288,1,66.749998010695
352,360,87667,1,0
352,360,87745,1,2
366,283,87901,1,0
366,283,87979,1,2
437,247,88136,1,0
437,247,88214,1,2
507,283,88370,1,0
507,283,88448,2,0,B|476:328,3,33.3749990053475,2|0|2|2
444,352,88761,101,2
352,360,88917,1,0
352,360,88995,1,2
366,283,89151,1,0
366,283,89229,1,2
437,247,89386,1,0
437,247,89464,1,2
508,284,89620,1,0
508,284,89698,2,0,B|492:228,3,33.3749990053475,2|0|0|0
508,204,90011,5,2
480,96,90167,2,0,B|492:56,1,33.3749990053475,0|2
400,176,90401,2,0,B|360:164,1,33.3749990053475,0|2
328,76,90636,101,2
224,80,90792,2,0,B|184:68,1,33.3749990053475,0|2
276,168,91026,2,0,B|264:208,1,33.3749990053475,0|2
144,164,91261,5,2
64,232,91417,1,0
64,232,91495,1,2
140,276,91651,1,0
140,276,91729,1,2
216,320,91886,1,0
216,320,91964,1,2
292,364,92120,1,0
292,364,92198,2,0,B|336:344,3,33.3749990053475,2|0|2|0
328,296,92511,101,2
408,228,92667,1,0
408,228,92745,1,2
332,184,92901,1,0
332,184,92979,1,2
220,208,93136,5,2
140,276,93292,1,0
140,276,93370,1,2
216,320,93526,1,0
216,320,93604,1,2
132,356,93761,22,0,B|76:368,1,33.3749990053475,0|2
88,336,93917,2,0,B|32:348,1,33.3749990053475,0|2
24,344,94073,1,2
16,236,94229,2,0,B|72:248,1,33.3749990053475,0|2
60,216,94387,2,0,B|116:228,1,33.3749990053475
124,224,94543,1,2
172,152,94698,37,0
168,132,94776,1,0
156,116,94854,1,0
140,104,94932,1,0
120,96,95011,69,2
140,96,95089,1,0
160,92,95167,1,0
176,80,95245,1,2
188,64,95323,37,2
196,44,95402,1,0
212,56,95479,1,0
232,64,95557,1,2
248,76,95636,2,2,B|332:104,1,66.749998010695,2|0
252,112,95870,2,0,B|336:140,1,66.749998010695,2|0
348,152,96104,1,2
421,118,96261,37,2
420,192,96417,2,2,B|436:176,7,16.6874995026738,2|0|0|0|0|0|0|0
420,192,96730,2,2,B|404:256|328:280,1,133.49999602139,4|2
236,216,97198,1,0
168,272,97354,1,2
152,188,97511,1,0
152,188,97667,102,0,B|144:140,2,33.3749990053475,2|0|0
136,200,97901,1,2
120,212,97979,2,0,B|44:252,1,66.749998010695,0|2
12,328,98292,1,0
108,352,98448,1,2
124,344,98526,1,0
144,336,98604,1,0
164,332,98682,1,0
184,332,98761,6,0,B|240:348,3,33.3749990053475,2|0|0|0
256,320,99073,1,2
400,336,99229,102,0,B|344:320,3,33.3749990053475,2|0|0|0
328,348,99543,1,2
308,340,99620,1,0
292,328,99698,1,2
280,312,99776,1,0
272,292,99854,1,0
268,272,99932,1,0
276,256,100011,6,0,B|308:208,3,33.3749990053475,2|0|0|0
236,128,100323,2,0,B|204:176,3,33.3749990053475,2|0|0|0
160,192,100636,2,2,B|240:216,1,66.749998010695,2|2
288,172,100870,2,2,B|352:192,1,66.749998010695,0|2
404,188,101104,1,2
404,188,101182,1,0
404,188,101261,102,2,B|436:160|424:104,1,89,6|0
380,140,101495,2,2,B|387:98|344:61,1,89,2|0
312,60,101729,1,2
108,188,101886,22,2,B|76:160|88:104,1,89,6|0
132,140,102120,2,2,B|124:98|167:61,1,89,6|0
200,60,102354,1,6
256,136,102511,38,2,B|256:232,1,89,4|2
212,244,102745,2,2,B|256:264|300:244,1,89,0|2
256,292,102979,1,4
52,292,103136,21,2
124,328,103292,1,0
124,328,103370,1,2
44,212,103526,1,0
44,212,103604,1,2
160,160,103761,69,0
224,288,103917,1,2
352,224,104073,1,0
288,96,104229,1,2
184,120,104387,5,2
188,124,104464,1,0
192,128,104542,1,0
196,132,104620,1,0
200,136,104698,1,2
204,140,104776,1,0
208,144,104854,1,2
212,148,104932,1,0
216,152,105012,5,0
224,160,105323,53,0
232,168,105636,85,0
240,176,105870,1,0
248,184,106104,1,0
256,192,106261,5,6
275,189,106339,1,0
294,192,106417,1,0
311,202,106495,1,0
320,219,106573,1,0
323,238,106651,1,0
317,257,106729,1,0
303,271,106807,1,0
285,281,106886,101,2
265,286,106964,1,0
245,283,107042,1,0
225,277,107120,1,0
209,264,107198,1,0
193,250,107276,1,0
183,232,107354,1,0
176,213,107432,1,0
171,193,107511,5,2
174,173,107589,1,0
184,155,107667,1,0
198,140,107745,1,0
213,127,107823,1,0
229,116,107901,1,0
248,110,107979,1,2
267,106,108057,1,0
287,108,108136,101,0
306,110,108214,1,0
324,116,108292,1,0
342,124,108370,1,0
358,135,108448,1,2
373,147,108526,1,0
385,162,108604,1,0
394,179,108682,1,0
403,196,108761,5,2
407,215,108839,1,0
409,234,108917,1,2
406,253,108995,1,0
401,272,109073,1,2
392,290,109151,1,0
380,306,109229,1,2
366,320,109307,1,0
351,334,109386,101,0
334,344,109464,1,0
314,350,109542,1,2
294,353,109620,1,0
274,353,109698,1,2
254,352,109776,1,0
234,347,109854,1,0
215,340,109932,1,0
196,332,110011,5,6
192,328,110479,101,4
188,324,110948,85,8
