osu file format v9

[General]
AudioFilename: BMSAkasagarbhaBGA.mp3
AudioLeadIn: 1000
PreviewTime: 26261
Countdown: 0
SampleSet: Normal
StackLeniency: 0.7
Mode: 0
LetterboxInBreaks: 0

[Editor]
Bookmarks: 26417,46417,51261,86261,96417
DistanceSpacing: 1
BeatDivisor: 4
GridSize: 8

[Metadata]
Title:Akasagarbha
Artist:wa. vs ETIA.
Creator:DaxMasterix
Version:Hyper
Source:BMS
Tags:bga deadblue238 Mutual Faith New Genuine Magicial Girl Shiirn

[Difficulty]
HPDrainRate:6
CircleSize:4
OverallDifficulty:6
ApproachRate:8
SliderMultiplier:1.2
SliderTickRate:2

[Events]
//Background and Video events
Video,0,"[BMS]Akasagarbha[BGA].flv"
0,0,"BG.jpg"
//Break Periods
2,66461,75511
//Storyboard Layer 0 (Background)
//Storyboard Layer 1 (Fail)
//Storyboard Layer 2 (Pass)
//Storyboard Layer 3 (Foreground)
//Storyboard Sound Samples
//Background Colour Transformations
3,100,163,162,255

[TimingPoints]
1262,625,4,2,0,60,1,0
11262,312.5,4,2,0,60,1,0
11262,-66.6666666666667,4,2,0,60,0,0
21261,-100,4,1,0,80,0,0
21886,-100,4,2,0,60,0,0
25011,-100,4,1,0,60,0,0
26339,-66.6666666666667,4,1,0,60,0,0
66261,-66.6666666666667,4,2,0,60,0,0
76261,-66.6666666666667,4,1,0,60,0,0
84933,-66.6666666666667,4,2,0,60,0,0
86261,-66.6666666666667,4,1,0,60,0,0
106339,-66.6666666666667,4,1,0,10,0,0
106886,-66.6666666666667,4,1,0,20,0,0
107433,-66.6666666666667,4,1,0,30,0,0
107980,-66.6666666666667,4,1,0,40,0,0
108526,-66.6666666666667,4,1,0,50,0,0
109073,-66.6666666666667,4,1,0,60,0,0
109620,-66.6666666666667,4,1,0,60,0,0
110011,-66.6666666666667,4,1,0,70,0,0
110949,-66.6666666666667,4,2,0,70,0,0

[Colours]
Combo1 : 255,32,32
Combo2 : 0,88,176
Combo3 : 0,240,240
Combo4 : 125,0,0
Combo5 : 136,255,17
Combo6 : 153,51,255
Combo7 : 41,0,83
Combo8 : 198,198,0

[HitObjects]
64,68,1262,22,0,B|64:172|156:216|252:156,1,240,2|2
196,100,2668,1,0
272,104,2824,1,2
308,172,2980,1,0
230,167,3137,2,0,B|184:220,2,60,2|2|2
368,304,4387,102,0,B|412:304,1,30,2|0
368,232,4699,2,0,B|324:232,1,30,2|0
368,160,5012,1,2
144,160,5637,1,2
256,192,5949,1,2
180,236,6262,6,0,B|136:260,1,30
109,334,6730,1,2
332,236,7512,2,0,B|376:260,1,30
403,334,7980,1,2
256,132,8449,102,0,B|256:192,1,60,0|2
256,56,9074,1,0
256,56,9230,1,2
256,192,9387,12,0,10949
380,216,11262,6,0,B|308:124|184:160,1,179.999994635582,4|0
112,176,11730,2,0,B|184:268|308:232,1,179.999994635582,4|0
221,151,12198,102,0,B|147:91,1,89.999997317791,8|0
256,68,12511,1,0
256,68,12667,1,0
292,152,12823,2,0,B|365:92,1,89.999997317791,8|0
309,189,13136,2,0,B|404:198,1,89.999997317791
296,228,13448,2,0,B|355:301,1,89.999997317791,8|0
264,308,13761,5,0
196,332,13917,1,0
204,260,14073,2,0,B|92:228,1,89.999997317791,8|0
48,216,14386,1,0
96,164,14542,1,0
168,176,14698,2,0,B|280:144,1,89.999997317791,8|0
228,84,15011,101,0
300,96,15167,1,0
324,164,15323,2,0,B|404:212,1,89.999997317791,8|0
324,248,15636,2,0,B|276:328,1,89.999997317791
240,248,15948,2,0,B|160:200,1,89.999997317791,8|0
224,132,16261,1,0
160,60,16417,6,0,B|68:136,1,89.999997317791,0|8
90,117,16730,1,0
212,292,17042,2,0,B|312:292,1,89.999997317791,0|8
302,292,17355,1,0
421,117,17668,2,0,B|352:60,1,89.999997317791,0|8
352,60,17980,1,0
256,208,18292,2,0,B|256:100,1,89.999997317791,0|8
256,118,18605,1,0
200,40,18761,102,0,B|92:72,1,89.999997317791
144,132,19073,2,0,B|36:164,1,89.999997317791,8|0
56,228,19386,2,0,B|142:253,1,89.999997317791,0|0
108,320,19698,2,0,B|194:345,1,89.999997317791,8|0
256,296,20011,6,0,B|324:268,3,44.9999986588955
332,288,20324,2,0,B|400:260,3,44.9999986588955,8|0|0|0
368,236,20636,101,0
260,92,20949,1,0
376,124,21262,1,0
216,244,21887,101,2
132,72,22512,2,0,B|56:72|24:164|84:212,1,180,2|0
216,168,23448,1,2
260,68,23761,38,0,B|344:76,1,60,2|0
336,148,24073,2,0,B|420:156,1,60,2|0
292,252,24542,1,2
292,252,24698,1,0
108,288,25012,22,4,B|108:100,2,180
132,296,26026,1,0
156,304,26105,1,0
180,312,26183,1,0
204,320,26261,1,6
272,264,26417,5,0
200,220,26573,1,0
272,168,26729,1,2
196,120,26886,1,0
268,68,27042,1,0
344,116,27198,2,0,B|380:148,1,44.9999986588955,2|0
376,192,27355,2,0,B|412:224,1,44.9999986588955
416,268,27511,102,0,B|396:324|316:312,1,89.9999973177911,2|0
260,288,27823,2,0,B|280:232|360:244,1,89.9999973177911,0|2
272,168,28136,2,0,B|252:224|172:212,1,89.9999973177911,0|0
112,196,28448,2,0,B|132:140|212:152,1,89.9999973177911,2|0
256,84,28761,5,2
256,84,28917,1,0
348,68,29073,2,0,B|368:168,1,89.9999973177911,0|2
256,160,29386,1,0
256,160,29542,1,0
164,144,29698,2,0,B|144:244,1,89.9999973177911,2|0
256,236,30011,1,2
256,236,30167,1,0
348,220,30323,2,0,B|368:320,1,89.9999973177911,0|2
256,316,30636,101,0
184,276,30792,1,0
184,276,30870,1,0
184,276,30948,1,2
160,200,31105,1,0
188,128,31261,6,0,B|280:88,1,89.9999973177911,2|0
252,180,31573,2,0,B|344:140,1,89.9999973177911,0|2
260,256,31886,2,0,B|352:296,1,89.9999973177911
196,308,32198,2,0,B|288:348,1,89.9999973177911,2|0
112,280,32511,101,2
32,240,32667,1,0
112,200,32823,1,0
192,160,32979,1,2
112,120,33136,1,0
32,80,33292,1,0
112,36,33448,1,2
188,80,33605,1,0
260,32,33761,6,0,B|360:36,1,89.9999973177911,2|0
304,108,34073,2,0,B|371:181,1,89.9999973177911,0|2
284,200,34386,2,0,B|280:300,1,89.9999973177911,0|0
208,244,34698,2,0,B|134:311,1,89.9999973177911,2|0
120,220,35011,101,2
360,168,35323,1,0
120,136,35636,1,2
180,68,35792,1,0
180,68,35870,1,0
180,68,35948,1,2
312,84,36105,2,0,B|232:144,1,89.9999973177911,0|6
360,168,36417,22,0,B|261:153,1,89.9999973177911
312,236,36730,1,2
224,224,36886,1,0
260,308,37042,1,0
172,296,37198,2,0,B|160:348,2,44.9999986588955,2|0|0
68,224,37511,70,0,B|82:312,1,89.9999973177911,2|0
156,136,37823,2,0,B|141:224,1,89.9999973177911,0|2
72,36,38136,2,0,B|86:124,1,89.9999973177911
160,60,38449,1,2
160,60,38605,1,0
232,96,38762,38,0,B|336:72|428:168,1,179.999994635582,2|0
256,192,39229,1,2
280,288,39386,2,0,B|168:320|84:216,1,179.999994635582,0|2
400,232,40011,1,0
112,152,40323,1,0
256,192,40636,1,2
80,232,40949,70,0,B|88:284|148:304,2,89.9999973177911,2|0|2
32,176,41417,1,0
44,104,41573,2,0,B|132:48,1,89.9999973177911
140,144,41886,2,0,B|228:88,1,89.9999973177911,2|0
240,180,42198,2,0,B|328:124,2,89.9999973177911,0|0|2
320,220,42667,37,0
320,220,42823,1,0
392,272,42980,1,2
392,272,43137,1,0
308,308,43293,1,0
308,308,43448,1,2
236,252,43605,1,0
184,324,43761,70,0,B|72:276|104:140,1,179.999994635582,2|0
97,181,44229,1,2
328,60,44542,2,0,B|440:108|408:244,1,179.999994635582,2|0
404,272,45011,2,0,B|296:252,1,89.9999973177911,2|0
224,252,45323,2,0,B|116:272,1,89.9999973177911,2|0
52,240,45636,53,2
136,188,45792,1,0
136,188,45870,1,0
136,188,45948,1,2
56,148,46105,2,0,B|116:80,1,89.9999973177911,0|6
196,124,46417,37,0
236,44,46573,2,0,B|336:84,1,89.9999973177911,8|0
284,160,46886,1,0
284,160,47042,1,0
372,160,47198,2,0,B|332:260,1,89.9999973177911,8|0
272,304,47511,69,0
220,228,47667,1,0
180,308,47823,1,8
124,236,47980,2,0,B|16:300,1,89.9999973177911
120,196,48292,2,0,B|12:132,1,89.9999973177911,0|8
160,184,48605,2,0,B|224:76,1,89.9999973177911
304,52,48917,38,0,B|408:108,1,89.9999973177911,0|8
464,136,49230,1,0
208,116,49542,70,0,B|104:172,1,89.9999973177911,0|8
48,200,49855,1,0
304,180,50167,38,0,B|408:236,1,89.9999973177911,0|8
464,264,50480,1,0
208,244,50792,70,0,B|104:300,1,89.9999973177911,0|8
48,328,51105,1,0
60,240,51261,54,0,B|80:124,1,89.9999973177911
164,148,51573,1,8
112,72,51730,1,0
200,68,51886,2,0,B|320:80,1,89.9999973177911
340,160,52198,2,0,B|220:148,1,89.9999973177911,8|0
212,232,52511,37,0
212,232,52667,1,0
243,321,52823,2,0,B|300:252,1,89.9999973177911,8|0
332,344,53136,1,0
332,344,53292,1,0
432,352,53448,2,0,B|388:272,1,89.9999973177911,8|0
484,260,53761,1,0
424,192,53917,70,0,B|392:96,1,89.9999973177911,0|8
332,172,54230,1,0
156,132,54542,38,0,B|124:36,1,89.9999973177911,0|8
64,112,54855,1,0
400,336,55167,70,0,B|368:240,1,89.9999973177911,0|8
308,316,55480,1,0
132,276,55793,37,0
132,276,55870,1,0
132,276,55948,1,8
92,196,56105,1,0
180,208,56261,86,0,B|276:156,1,89.9999973177911
180,120,56573,1,8
260,80,56730,2,0,B|356:28,2,89.9999973177911
308,156,57198,1,8
260,232,57355,2,0,B|316:332,2,89.9999973177911
204,300,57823,5,8
152,228,57980,2,0,B|96:328,2,89.9999973177911
204,156,58448,1,8
128,108,58605,2,0,B|220:48,1,89.9999973177911
288,88,58917,101,0
376,80,59073,1,8
432,152,59230,1,0
204,196,59543,5,0
116,188,59698,1,8
60,260,59855,1,0
292,284,60167,101,0
380,276,60323,1,8
436,348,60480,1,0
256,152,60792,6,0,B|256:264,2,89.9999973177911,0|8|0
296,72,61261,54,0,B|404:112,1,89.9999973177911,4|0
344,184,61573,2,0,B|452:224,1,89.9999973177911,8|0
360,276,61886,1,0
360,276,62042,1,0
276,248,62198,2,0,B|168:208,1,89.9999973177911,8|0
132,284,62511,102,0,B|24:244,1,89.9999973177911
100,180,62823,1,8
100,180,62980,1,0
48,108,63136,2,0,B|132:76,1,89.9999973177911
224,80,63448,2,0,B|308:111,1,89.9999973177911,8|0
256,192,63761,12,6,66261
384,104,76261,6,0,B|312:40|188:64,1,179.999994635582,4|0
100,100,76730,2,0,B|168:160|296:140,1,179.999994635582,4|0
348,188,77198,102,0,B|368:284,1,89.9999973177911,8|0
280,244,77511,1,0
280,244,77667,1,0
204,228,77823,2,0,B|120:304,1,89.9999973177911,8|0
104,204,78136,2,0,B|44:240,2,44.9999986588955,0|0|0
124,116,78448,2,0,B|200:156,2,44.9999986588955,8|0|0
196,60,78761,6,0,B|304:80,1,89.9999973177911,0|0
356,168,79073,2,0,B|248:148,1,89.9999973177911,8|0
160,220,79386,2,0,B|268:240,1,89.9999973177911
320,328,79698,2,0,B|212:308,1,89.9999973177911,8|0
140,308,80011,102,4,B|8:264,2,119.999996423721
160,220,80636,2,4,B|292:176,2,119.999996423721,0|0|0
188,104,81261,5,0
212,88,81339,1,0
236,72,81417,1,0
324,72,81573,2,0,B|432:128,1,89.9999973177911
332,168,81886,2,0,B|440:224,1,89.9999973177911
336,260,82198,1,0
248,268,82355,1,0
172,220,82511,102,0,B|132:324,1,89.9999973177911
92,200,82823,2,0,B|132:96,1,89.9999973177911
176,44,83136,1,0
264,68,83292,1,0
348,96,83448,1,0
432,124,83605,1,0
364,180,83761,6,0,B|340:240,2,44.9999986588955,0|0|0
148,180,84073,2,0,B|172:240,2,44.9999986588955
256,296,84386,2,0,B|256:220,7,44.9999986588955
256,192,85012,12,12,85949
60,56,86261,101,4
112,132,86417,2,0,B|64:172,1,44.9999986588955
220,128,86651,2,0,B|172:168,1,44.9999986588955
228,216,86886,2,0,B|180:256,1,44.9999986588955
336,212,87120,2,0,B|288:252,1,44.9999986588955
256,316,87355,1,0
344,320,87511,5,0
420,272,87667,2,0,B|448:216,1,44.9999986588955
412,148,87901,2,0,B|440:92,1,44.9999986588955
328,88,88136,2,0,B|300:144,1,44.9999986588955
336,212,88370,2,0,B|308:268,3,44.9999986588955
240,220,88761,102,0,B|132:248,1,89.9999973177911
148,152,89073,2,0,B|40:180,1,89.9999973177911
68,84,89386,1,0
156,64,89542,2,0,B|188:28,2,44.9999986588955
232,116,89855,2,0,B|348:144,1,89.9999973177911
408,140,90167,6,0,B|455:175,1,44.9999986588955,0|0
466,266,90401,2,0,B|418:230,1,44.9999986588955
346,225,90636,1,0
276,172,90792,2,0,B|228:207,1,44.9999986588955
218,298,91026,2,0,B|265:262,1,44.9999986588955
172,236,91261,101,0
84,276,91417,1,0
100,188,91574,2,0,B|80:80,1,89.9999973177911
172,124,91886,2,0,B|152:16,2,89.9999973177911
244,72,92355,1,0
324,116,92512,5,0
408,144,92668,2,0,B|432:192,1,44.9999986588955
340,204,92902,2,0,B|344:248,1,44.9999986588955
256,176,93136,1,0
240,264,93293,2,0,B|240:320,1,44.9999986588955
172,204,93527,2,0,B|160:144,1,44.9999986588955
152,284,93761,102,0,B|76:304,4,44.9999986588955
92,216,94230,2,0,B|40:168,4,44.9999986588955,0|0|0|0|0
124,132,94698,2,0,B|152:64,4,44.9999986588955
216,136,95167,2,0,B|308:152,1,89.9999973177911
296,248,95479,6,0,B|204:232,1,89.9999973177911,0|0
188,320,95792,2,0,B|104:304,1,44.9999986588955
104,232,96026,2,0,B|132:172,3,44.9999986588955
256,72,96574,101,4
344,96,96730,2,0,B|412:168|412:272,1,179.999994635582,4|4
340,312,97198,6,0,B|312:208,1,89.9999973177911
220,148,97511,2,0,B|248:252,1,89.9999973177911
200,352,97823,2,0,B|172:248,1,89.9999973177911
120,196,98136,1,0
120,196,98292,1,0
132,108,98448,2,0,B|88:44,2,44.9999986588955
208,60,98761,102,0,B|328:80,1,89.9999973177911
356,124,99073,1,0
272,156,99230,1,0
340,212,99386,1,0
256,240,99542,6,0,B|296:292,2,44.9999986588955
164,236,99855,2,0,B|124:288,2,44.9999986588955
164,148,100167,2,0,B|124:96,2,44.9999986588955
224,80,100480,2,0,B|348:48,1,89.9999973177911
400,44,100793,2,0,B|432:80,1,44.9999986588955
364,128,101026,102,0,B|404:184,3,44.9999986588955,0|0|0|4
316,196,101418,2,0,B|272:160,1,44.9999986588955
228,220,101651,2,0,B|240:276,1,44.9999986588955
148,188,101886,53,4
200,120,102043,2,0,B|160:88,1,44.9999986588955
288,96,102276,2,0,B|276:40,1,44.9999986588955
364,128,102511,69,4
400,212,102667,2,0,B|388:276,1,44.9999986588955
312,312,102901,2,0,B|324:248,1,44.9999986588955
256,204,103136,85,4
191,267,103292,2,0,B|200:312,1,44.9999986588955
120,256,103526,2,0,B|112:212,1,44.9999986588955
256,192,103761,12,0,105636
472,132,105871,6,4,B|364:248,1,134.999995976687
324,300,106261,1,2
56,60,106887,5,2
324,236,107511,1,2
56,124,107980,1,2
324,172,108448,1,2
56,188,108761,102,2,B|164:232,1,89.9999973177911
324,108,109073,2,2,B|216:152,1,89.9999973177911,2|0
436,328,109543,6,2,B|436:216,1,89.9999973177911
256,192,110011,101,4
352,192,110480,1,4
160,192,110949,1,12
