osu file format v9

[General]
AudioFilename: BMSAkasagarbhaBGA.mp3
AudioLeadIn: 1000
PreviewTime: 26261
Countdown: 0
SampleSet: Soft
StackLeniency: 0.7
Mode: 0
LetterboxInBreaks: 0

[Editor]
Bookmarks: 26417,46417,51261,86261,96417
DistanceSpacing: 0.3
BeatDivisor: 4
GridSize: 8

[Metadata]
Title:Akasagarbha
Artist:wa. vs ETIA.
Creator:DaxMasterix
Version:Another
Source:BMS
Tags:bga deadblue238 Mutual Faith New Genuine Magicial Girl Shiirn

[Difficulty]
HPDrainRate:7
CircleSize:4
OverallDifficulty:8
ApproachRate:9
SliderMultiplier:1.6
SliderTickRate:2

[Events]
//Background and Video events
Video,0,"[BMS]Akasagarbha[BGA].flv"
0,0,"BG.jpg"
//Break Periods
//Storyboard Layer 0 (Background)
//Storyboard Layer 1 (Fail)
//Storyboard Layer 2 (Pass)
//Storyboard Layer 3 (Foreground)
//Storyboard Sound Samples
//Background Colour Transformations
3,100,163,162,255

[TimingPoints]
1262,625,4,2,0,60,1,0
10871,-100,4,2,0,10,0,0
11262,312.5,4,2,0,60,1,0
11262,-66.6666666666667,4,2,0,60,0,0
21261,-100,4,1,0,80,0,0
21886,-100,4,2,0,60,0,0
25011,-100,4,1,0,60,0,0
26339,-66.6666666666667,4,1,0,60,0,0
65012,-50,4,2,0,60,0,0
66261,-66.6666666666667,4,2,0,60,0,0
86261,-66.6666666666667,4,1,0,60,0,0
106339,-66.6666666666667,4,1,0,15,0,0
106886,-66.6666666666667,4,1,0,20,0,0
107433,-66.6666666666667,4,1,0,30,0,0
107980,-66.6666666666667,4,1,0,40,0,0
108526,-66.6666666666667,4,1,0,50,0,0
109073,-66.6666666666667,4,1,0,60,0,0
109620,-66.6666666666667,4,1,0,60,0,0
110011,-66.6666666666667,4,1,0,70,0,0
110948,-66.6666666666667,4,2,0,70,0,0

[Colours]
Combo1 : 255,32,32
Combo2 : 0,88,176
Combo3 : 0,240,240
Combo4 : 125,0,0
Combo5 : 136,255,17
Combo6 : 153,51,255
Combo7 : 41,0,83
Combo8 : 198,198,0

[HitObjects]
108,152,1262,22,0,B|252:52|412:156,1,320,2|2
404,240,2668,1,0
352,312,2824,1,0
264,340,2980,1,0
180,312,3137,1,2
264,192,3449,1,2
104,192,3762,102,0,B|36:120|100:36,1,160,2|0
168,92,4543,1,2
168,92,4699,1,0
248,44,4855,1,2
248,44,5012,2,0,B|316:116|256:196,1,160,2|0
176,316,5949,1,2
336,316,6262,5,0
388,184,6574,1,0
388,184,6730,2,0,B|424:112|340:36|256:96,1,200,2|0
152,156,7824,1,0
152,156,7980,2,0,B|132:232|212:264,1,120,2|0
320,252,8762,1,2
256,348,9074,2,0,B|256:280,1,40
256,192,9387,12,4,10949
472,40,11262,102,0,B|352:80,1,119.999996423721,4|0
428,144,11573,1,8
356,208,11730,2,0,B|304:336|118:334,1,239.999992847443,4|0
236,228,12198,1,8
140,224,12355,2,0,B|28:136,1,119.999996423721
192,160,12667,2,0,B|80:72,1,119.999996423721,0|8
244,96,12979,2,0,B|132:8,2,119.999996423721
304,36,13448,1,8
360,96,13605,5,0
380,112,13683,1,0
400,128,13761,1,0
304,156,13917,2,0,B|416:244,1,119.999996423721,0|8
252,220,14230,2,0,B|364:308,1,119.999996423721
200,284,14542,1,0
112,256,14698,1,8
176,188,14855,101,0
156,176,14933,1,0
136,164,15011,1,0
176,76,15167,1,0
256,20,15323,1,8
336,76,15480,1,0
376,164,15636,1,0
256,232,15792,2,0,B|256:372,2,119.999996423721,0|8|0
256,200,16183,1,0
256,172,16261,1,0
336,248,16418,5,0
428,228,16574,1,8
456,136,16730,1,0
176,248,17042,1,0
84,228,17198,1,8
56,136,17355,1,0
338,82,17667,101,0
256,36,17824,1,8
173,83,17980,1,0
174,302,18293,1,0
256,348,18450,1,8
339,301,18606,1,0
256,256,18761,5,0
336,204,18917,2,0,B|452:156,1,119.999996423721,0|8
248,152,19230,2,0,B|364:104,1,119.999996423721
168,100,19543,2,0,B|284:52,2,119.999996423721,0|8|0
84,52,20011,1,0
84,148,20167,1,0
168,192,20323,1,8
168,288,20480,1,0
256,240,20637,101,2
420,152,20948,1,2
256,32,21261,1,4
32,192,21887,101,2
256,352,22511,1,2
400,316,22980,1,0
480,196,23448,1,2
400,108,23761,2,2,B|324:140,1,80
332,76,24073,2,2,B|256:108,1,80
120,192,24542,1,0
120,192,24698,1,0
391,190,25011,69,4
364,168,25480,1,4
336,140,25949,2,0,B|312:116,8,20,0|0|0|0|0|0|0|0|2
356,44,26417,6,0,B|232:80,1,119.999996423721,0|0
220,172,26730,1,2
148,108,26886,1,0
124,200,27042,1,0
28,192,27198,1,2
40,240,27276,1,0
76,272,27355,1,0
120,288,27433,1,0
168,288,27511,1,2
256,268,27667,102,0,B|380:332,1,119.999996423721
344,228,27980,2,0,B|220:164,1,119.999996423721,2|0
328,136,28292,2,0,B|452:200,2,119.999996423721,0|2|0
280,52,28761,5,2
280,52,28917,1,0
228,136,29074,1,0
228,136,29230,1,2
164,64,29386,2,0,B|52:112,1,119.999996423721
136,164,29698,2,0,B|24:212,1,119.999996423721,2|0
228,136,30011,102,0,B|340:184,1,119.999996423721,2|0
256,236,30323,2,0,B|368:284,1,119.999996423721,0|2
340,184,30636,1,0
416,124,30792,1,0
352,52,30948,1,2
352,52,31105,1,0
276,112,31261,6,0,B|148:48|32:132,1,239.999992847443,2|0
236,272,31886,2,0,B|364:336|480:252,1,239.999992847443,2|0
152,60,32511,2,0,B|85:111|85:111|132:171|132:171|69:220,1,239.999992847443,2|0
360,324,33136,2,0,B|426:272|426:272|379:212|379:212|442:163,1,239.999992847443,2|0
412,72,33605,1,0
336,128,33761,102,0,B|196:72,1,119.999996423721,2|0
236,180,34073,2,0,B|96:124,1,119.999996423721,0|2
136,232,34386,1,0
68,300,34542,1,0
160,324,34698,1,2
228,256,34855,1,0
316,224,35011,2,0,B|456:280,2,119.999996423721,2|0|0
396,168,35480,1,2
316,108,35636,5,0
80,64,35792,1,0
80,64,35870,1,0
80,64,35948,1,2
80,280,36105,1,0
80,280,36261,5,6
160,224,36417,2,0,B|268:328,1,119.999996423721
340,324,36730,1,2
404,252,36886,1,0
444,164,37042,1,0
395,76,37198,1,2
360,40,37276,1,0
313,30,37355,1,0
267,38,37433,1,0
235,76,37512,1,2
148,128,37667,69,0
180,208,37823,2,0,B|52:256,1,119.999996423721,0|2
216,288,38136,1,0
308,260,38292,1,0
272,176,38448,2,0,B|400:128,1,119.999996423721,2|0
396,228,38762,38,0,B|420:296|348:336,1,119.999996423721,2|0
308,260,39073,2,0,B|284:192|356:152,1,119.999996423721,0|2
332,64,39386,2,0,B|297:1|229:25,1,119.999996423721
159,74,39698,2,0,B|193:136|261:112,2,119.999996423721,2|0|0
60,76,40167,2,0,B|-2:110|21:178,1,119.999996423721
70,249,40480,2,0,B|132:214|108:146,2,119.999996423721,0|2|0
91,334,40948,2,0,B|125:396|193:372,1,119.999996423721,2|0
168,280,41261,69,2
236,216,41418,1,0
252,312,41573,1,0
320,248,41729,1,0
392,184,41886,1,2
324,120,42042,1,0
408,88,42199,1,0
476,152,42354,1,0
456,252,42512,38,0,B|360:324,1,119.999996423721,2|0
392,184,42823,2,0,B|296:256,1,119.999996423721,0|2
324,120,43136,2,0,B|228:192,1,119.999996423721
260,56,43448,2,0,B|164:128,1,119.999996423721,2|0
152,48,43762,70,0,B|60:56|0:192|96:280,1,239.999992847443,2|0
360,48,44230,2,0,B|452:56|512:192|416:280,1,239.999992847443,2|0
256,248,44699,2,0,B|256:96,2,119.999996423721,0|2|6
372,104,45793,53,0
328,80,45870,1,0
280,72,45948,1,2
124,120,46105,1,2
256,244,46262,37,6
164,200,46417,2,0,B|44:244,1,119.999996423721,0|8
164,292,46730,1,0
256,336,46886,1,0
344,292,47042,1,0
348,200,47198,2,0,B|468:244,1,119.999996423721,8|0
464,152,47511,70,0,B|344:108,1,119.999996423721,0|0
260,136,47823,1,8
212,52,47980,1,0
116,48,48136,1,0
68,132,48292,1,0
160,152,48448,2,0,B|188:288,1,119.999996423721,8|0
256,336,48761,1,0
344,296,48917,37,0
400,216,49073,1,8
420,120,49230,1,0
168,296,49543,1,0
112,216,49698,1,8
92,120,49855,1,0
320,80,50167,70,0,B|456:40,2,119.999996423721,0|8|0
256,192,50636,1,0
192,304,50792,2,0,B|56:344,2,119.999996423721,0|8|0
256,192,51261,53,0
168,232,51417,1,0
176,136,51573,2,0,B|48:64,2,119.999996423721,8|0|0
176,40,52042,1,0
264,92,52198,2,0,B|384:124,1,119.999996423721,8|0
320,200,52511,86,0,B|440:232,1,119.999996423721,0|0
244,284,52824,2,0,B|364:316,2,119.999996423721,8|0|0
160,332,53292,1,0
156,236,53448,1,8
64,296,53604,2,0,B|56:152,1,119.999996423721
152,136,53917,21,0
96,60,54073,1,8
0,72,54230,1,0
360,248,54542,1,0
416,324,54698,1,8
512,308,54855,1,0
128,284,55167,86,0,B|20:364,2,119.999996423721,0|8|0
256,192,55637,1,0
384,112,55792,2,0,B|448:160,2,59.9999982118607,0|0|8
384,32,56104,2,0,B|224:32,1,119.999996423721,0|4
180,52,56417,37,0
88,84,56573,1,8
160,148,56730,2,0,B|40:184,1,119.999996423721
124,240,57042,1,0
220,224,57198,2,0,B|224:348,2,119.999996423721,8|0|0
312,244,57667,5,0
384,188,57823,2,0,B|508:256,1,119.999996423721,8|0
344,116,58136,2,0,B|485:112,1,119.999996423721
272,76,58448,2,0,B|392:2,2,119.999996423721,8|0|0
180,100,58917,101,0
96,56,59073,1,8
0,44,59230,1,0
332,284,59542,1,0
416,328,59698,1,8
512,340,59855,1,0
256,136,60167,5,0
208,212,60323,1,8
304,212,60480,1,0
256,52,60792,1,0
384,228,60948,1,8
128,228,61105,1,0
260,312,61261,54,0,B|128:300,1,119.999996423721,4|0
204,228,61573,2,0,B|336:240,1,119.999996423721,8|0
276,156,61886,2,0,B|144:144,1,119.999996423721
220,72,62198,2,0,B|352:84,1,119.999996423721,8|0
376,172,62512,101,0
376,172,62667,1,0
368,268,62823,1,8
368,268,62980,1,0
300,336,63136,1,0
300,336,63292,1,0
204,348,63448,1,8
204,348,63605,1,0
116,308,63761,5,4
128,296,63839,1,0
140,284,63917,1,0
152,272,63995,1,0
164,260,64073,1,8
176,248,64151,1,0
188,236,64230,1,0
200,224,64308,1,0
212,212,64386,101,0
224,200,64464,1,0
236,188,64542,1,0
248,176,64620,1,0
260,164,64698,1,8
272,152,64777,1,0
284,140,64855,1,0
296,128,64933,1,0
308,116,65012,6,0,B|368:112,32,40,0|0|0|0|0|0|0|0|0|0|0|0|0|0|0|0|0|0|0|0|0|0|0|0|0|0|0|0|0|0|0|0|6
396,208,66886,101,2
296,288,67511,1,0
260,216,67745,1,2
204,280,67901,2,2,B|176:296,6,29.9999991059304
168,208,68293,1,0
216,140,68449,6,0,B|264:128,1,29.9999991059304,0|0
240,108,68526,2,2,B|288:96,1,29.9999991059304
256,80,68605,2,0,B|304:68,1,29.9999991059304
280,48,68683,2,2,B|328:36,2,29.9999991059304
152,58,69230,101,2
92,120,69386,1,0
76,204,69542,1,2
92,288,69698,1,0
152,350,69855,2,2,B|192:372,4,29.9999991059304
208,224,70480,6,0,B|280:248,1,59.9999982118607,0|0
280,196,70636,2,2,B|352:220,1,59.9999982118607
352,168,70792,2,0,B|424:192,1,59.9999982118607
428,144,70948,2,2,B|456:156,2,29.9999991059304
436,96,71104,2,2,B|356:72,2,59.9999982118607
256,48,71729,101,2
200,112,72042,1,0
128,68,72198,2,0,B|80:88,1,29.9999991059304
100,104,72276,2,2,B|52:124,2,29.9999991059304
140,192,72511,2,0,B|252:228,2,79.9999976158143,0|0|2
116,252,72824,2,0,B|4:288,2,79.9999976158143,0|2|2
144,308,73136,5,0
240,320,73293,1,2
332,292,73448,1,0
400,224,73605,1,2
400,128,73761,101,2
112,128,74230,1,2
256,284,74542,1,0
256,56,74855,1,2
256,192,75012,12,4,75949
420,128,76262,6,0,B|304:84,1,119.999996423721,4|0
328,180,76573,1,0
284,196,76651,1,0
236,196,76730,2,0,B|176:124|68:156|68:256,1,239.999992847443,4|0
168,260,77198,101,8
260,288,77355,1,0
352,268,77512,1,0
396,248,77589,1,0
420,212,77667,1,0
428,164,77745,1,0
404,124,77823,1,8
328,180,77980,5,0
308,136,78058,1,0
272,112,78136,1,0
224,100,78214,1,0
176,96,78292,1,0
128,104,78370,1,0
84,124,78448,1,8
44,156,78526,1,0
28,200,78605,1,0
32,248,78683,1,0
56,288,78762,102,0,B|132:300,3,59.9999982118607,0|0|0|0
156,272,79073,2,0,B|232:284,3,59.9999982118607,8|0|0|0
252,252,79387,2,0,B|328:264,3,59.9999982118607
344,224,79699,2,0,B|420:236,3,59.9999982118607
440,200,80011,5,4
256,68,80219,1,4
344,224,80427,1,4
160,92,80637,1,4
248,248,80844,1,4
64,112,81052,1,4
152,260,81261,101,0
172,304,81339,1,0
208,336,81417,1,0
256,348,81495,1,0
304,352,81573,1,4
400,348,81730,5,0
444,328,81808,1,0
476,292,81886,1,0
488,244,81964,1,0
492,196,82042,1,4
488,98,82198,101,0
454,64,82276,1,0
409,47,82354,1,4
360,53,82432,1,0
313,67,82512,1,4
272,92,82589,1,0
249,134,82667,1,0
259,182,82745,1,0
264,227,82823,1,4
240,268,82901,1,0
192,280,82980,1,0
148,264,83058,1,0
116,228,83136,6,0,B|8:268,2,79.9999976158143
92,168,83448,2,0,B|200:128,2,79.9999976158143
68,108,83761,1,0
148,52,83918,2,0,B|176:40,4,29.9999991059304
192,140,84230,2,0,B|220:128,3,29.9999991059304
248,132,84387,101,0
280,136,84465,1,0
312,140,84542,1,0
344,144,84620,1,0
372,148,84698,1,0
400,152,84776,1,0
428,156,84855,1,0
456,160,84933,1,0
484,164,85011,1,14
256,192,85089,12,12,85948
192,84,86262,6,0,B|120:40|32:108,1,119.999996423721,2|0
146,130,86495,2,0,B|62:128|20:231,1,119.999996423721,0|0
130,193,86730,2,0,B|56:233|71:343,1,119.999996423721,2|0
148,256,86964,2,0,B|104:328|172:416,1,119.999996423721,0|0
194,301,87198,1,2
256,192,87355,1,0
320,84,87512,102,0,B|392:40|480:108,1,119.999996423721,2|0
365,130,87745,2,0,B|449:128|491:231,1,119.999996423721
381,193,87980,2,0,B|455:233|440:343,1,119.999996423721,2|0
364,256,88214,2,0,B|408:328|340:416,1,119.999996423721,0|0
317,301,88448,1,2
317,301,88526,1,0
317,301,88605,1,0
140,168,88762,6,0,B|112:228|40:220,1,119.999996423721,2|0
144,168,88995,2,0,B|204:196|196:268,1,119.999996423721
140,168,89230,2,0,B|168:108|240:116,1,119.999996423721,2|0
144,168,89464,2,0,B|84:140|92:68,1,119.999996423721
140,60,89698,1,2
188,48,89776,1,0
236,36,89855,1,0
308,100,90011,102,0,B|364:52|448:104,1,119.999996423721,2|0
308,136,90245,2,0,B|252:184|168:132,1,119.999996423721
308,184,90480,1,2
204,284,90636,2,0,B|148:332|64:280,1,119.999996423721,0|0
204,248,90870,2,0,B|260:200|344:252,1,119.999996423721,0|2
204,200,91105,1,0
288,104,91262,6,0,B|432:68,1,119.999996423721,2|0
224,104,91495,2,0,B|80:68,1,119.999996423721,0|0
300,160,91730,2,0,B|444:124,1,119.999996423721,2|0
212,160,91964,2,0,B|68:124,1,119.999996423721
256,208,92198,1,2
256,208,92276,1,0
256,208,92355,1,0
208,332,92511,102,0,B|140:312|112:248,1,119.999996423721,2|0
304,332,92745,2,0,B|372:312|400:248,1,119.999996423721
256,264,92980,2,0,B|256:140,1,119.999996423721,2|0
256,32,93292,1,0
304,52,93370,2,0,B|372:72|400:136,1,119.999996423721,0|2
208,52,93604,2,0,B|140:72|112:136,1,119.999996423721,0|2
104,148,93839,5,0
92,168,93917,1,0
80,188,93995,1,0
68,208,94073,2,0,B|80:296|192:264,1,119.999996423721,0|2
164,256,94308,1,0
176,236,94386,1,0
188,216,94464,1,0
200,196,94542,2,0,B|283:165|307:279,1,119.999996423721,0|2
320,240,94776,1,0
344,240,94855,1,0
364,240,94933,1,0
388,240,95011,102,0,B|448:208,3,59.9999982118607,2|0|0|0
380,148,95323,2,0,B|312:120,3,59.9999982118607,0|0|2|0
392,64,95636,2,0,B|272:32,1,119.999996423721
120,64,95870,2,0,B|240:32,1,119.999996423721,0|2
256,184,96105,2,0,B|256:64,1,119.999996423721,0|2
88,232,96417,6,0,B|52:252,7,29.9999991059304,0|0|0|0|0|0|0|0
108,260,96730,102,0,B|192:372|344:320,1,239.999992847443,0|0
220,248,97198,1,0
240,216,97276,1,0
256,184,97354,1,0
272,156,97433,1,0
292,124,97511,2,0,B|236:80|164:104,1,119.999996423721
152,116,97745,1,0
124,132,97823,1,0
96,148,97901,1,0
68,164,97979,2,0,B|24:220|48:292,1,119.999996423721
72,288,98214,5,0
104,300,98292,1,0
136,312,98370,1,0
164,320,98448,2,0,B|256:344,3,59.9999982118607
176,236,98761,2,0,B|84:212,3,59.9999982118607
184,152,99073,102,0,B|176:72|300:52,1,119.999996423721,0|0
276,72,99308,1,0
300,80,99386,1,0
324,88,99464,1,0
348,96,99542,1,0
372,104,99620,1,0
396,112,99698,1,0
420,120,99776,1,0
444,128,99854,1,0
468,136,99933,1,0
488,144,100011,6,0,B|488:212,3,59.9999982118607,0|0|0|0
408,224,100323,2,0,B|408:284,2,59.9999982118607
368,216,100558,1,0
328,200,100636,102,0,B|268:248|188:224,1,119.999996423721
328,200,100870,2,0,B|252:186|218:110,1,119.999996423721
216,116,101105,1,0
201,98,101183,1,0
187,80,101261,1,4
172,192,101417,5,0
144,232,101495,2,0,B|92:280|24:256,1,119.999996423721
144,152,101730,2,0,B|92:104|24:128,1,119.999996423721
340,192,102042,85,0
368,232,102120,2,0,B|420:280|488:256,1,119.999996423721
368,152,102355,2,0,B|420:104|488:128,1,119.999996423721
188,48,102667,101,0
148,72,102745,2,0,B|76:112|8:84,1,119.999996423721
136,120,102980,2,0,B|106:196|36:219,1,119.999996423721
324,336,103292,85,0
364,312,103370,2,0,B|436:272|504:300,1,119.999996423721
376,264,103605,2,0,B|405:187|475:164,1,119.999996423721
384,104,103917,1,0
324,180,104073,1,0
248,120,104230,1,0
184,192,104387,37,0
176,200,104464,1,0
168,208,104542,1,0
160,216,104621,1,0
152,224,104698,1,0
144,232,104776,1,0
136,240,104855,1,0
124,252,104933,1,0
112,264,105011,21,4
400,264,105323,1,4
256,80,105636,21,4
400,264,105871,1,4
112,264,106105,1,4
48,48,106262,85,6
60,60,106339,1,0
72,72,106417,1,0
84,84,106495,1,0
96,96,106573,1,0
108,108,106651,1,0
120,120,106730,1,0
132,132,106808,1,0
152,136,106887,102,0,B|220:142,7,59.9999982118607,0|0|0|0|0|0|0|0
232,144,107512,5,2
244,156,107589,1,0
256,168,107667,1,0
268,180,107745,1,0
280,192,107823,1,0
292,204,107901,1,0
312,208,107980,102,0,B|380:214,5,59.9999982118607
392,216,108449,5,2
392,232,108526,1,0
392,248,108605,1,0
392,264,108683,1,0
392,280,108762,102,0,B|336:328,7,59.9999982118607
320,336,109387,2,0,B|272:280,7,59.9999982118607,0|0|0|0|0|0|0|0
256,264,110012,5,4
60,60,110479,1,4
484,60,110948,1,12
