osu file format v9

[General]
AudioFilename: crystal-world.mp3
AudioLeadIn: 0
PreviewTime: 68009
Countdown: 0
SampleSet: Soft
StackLeniency: 0.7
Mode: 0
LetterboxInBreaks: 1

[Editor]
DistanceSpacing: 1
BeatDivisor: 4
GridSize: 8

[Metadata]
Title:Suishou-Sekai ~Fracture~
Artist:wa. remixed celas
Creator:soulfear
Version:Hyper
Source:BMS
Tags:Akiyama Mio DeeN K-ON Firce777

[Difficulty]
HPDrainRate:5
CircleSize:4
OverallDifficulty:6
ApproachRate:8
SliderMultiplier:1.8
SliderTickRate:1

[Events]
//Background and Video events
Video,2600,"bga.flv"
0,0,"crystal-world-a.png"
//Break Periods
//Storyboard Layer 0 (Background)
//Storyboard Layer 1 (Fail)
//Storyboard Layer 2 (Pass)
//Storyboard Layer 3 (Foreground)
//Storyboard Sound Samples
//Background Colour Transformations
3,100,163,162,255

[TimingPoints]
2676,333.333333333333,4,2,1,5,1,0
3842,-100,4,2,1,80,0,0
18509,-100,4,2,0,80,0,0
23925,-100,4,1,0,60,0,0
25259,-100,4,2,1,80,0,0
25342,-133.333333333333,4,2,1,80,0,0
34675,-100,4,2,1,80,0,0
45425,-100,4,1,0,60,0,0
46592,-100,4,2,1,70,0,0
57259,-100,4,2,0,70,0,0
66592,-100,4,2,1,60,0,0
66925,-100,4,2,1,65,0,0
67259,-100,4,2,1,70,0,0
67592,-100,4,2,1,75,0,0
68009,-100,4,2,1,80,0,0
86259,-100,4,1,0,70,0,0
90592,-100,4,2,1,90,0,0
109592,-100,4,2,0,90,0,0
110634,-100,4,1,0,90,0,0

[Colours]
Combo1 : 255,255,0
Combo2 : 255,255,255
Combo3 : 0,255,255
Combo4 : 255,128,255

[HitObjects]
256,192,2675,12,0,3675
256,192,4009,5,0
80,192,4342,1,0
440,192,5009,5,0
264,192,5342,1,0
168,40,5675,1,0
440,280,6342,5,0
264,280,6675,1,0
168,128,7009,1,0
168,192,7675,5,0
168,256,8342,1,0
168,320,9009,5,0
344,320,9342,1,0
472,192,9675,1,0
472,192,10342,5,0
296,192,10675,1,0
168,320,11009,1,0
416,56,11676,5,0
416,232,12009,1,0
256,152,12342,1,0
256,152,13009,5,0
80,152,13342,1,0
248,216,13676,2,0,B|112:216,1,135
72,216,14009,1,0
232,304,14342,5,0
304,248,14509,1,2
288,160,14676,1,0
224,96,14842,1,2
224,96,15009,2,0,B|136:96,1,90,0|2
64,160,15342,1,0
64,160,15509,2,0,B|64:248,1,90,2|0
240,224,16009,5,0
416,192,16342,1,0
336,352,16676,1,0
336,352,16842,2,0,B|248:352,1,90,2|0
160,192,17342,5,0
256,40,17676,1,0
424,104,18009,1,0
424,104,18176,2,0,B|424:192,1,90,2|0
256,264,18676,6,0,B|160:264,1,90,0|2
232,328,19009,2,0,B|144:328,1,90,0|2
144,240,19342,2,0,B|56:240,1,90,0|2
120,304,19675,2,0,B|32:304,1,90,0|2
208,304,20009,5,4
296,304,20175,1,2
368,256,20342,1,0
432,192,20509,1,2
424,104,20675,1,0
360,40,20842,1,2
272,40,21009,1,0
184,64,21175,1,2
104,96,21342,6,0,B|104:192,1,90,0|2
184,144,21675,2,0,B|184:232,1,90,0|2
264,192,22009,2,0,B|264:280,1,90,0|2
344,240,22342,2,0,B|344:336,1,90,0|2
488,256,22675,6,0,B|488:160,1,90,0|2
408,208,23009,2,0,B|408:120,1,90,0|2
328,160,23342,2,0,B|328:72,1,90,0|2
248,112,23675,2,0,B|248:16,1,90,0|2
176,80,24009,5,0
32,192,24342,1,0
216,192,24675,2,0,B|352:192,1,135
400,192,25009,5,0
304,288,25175,1,0
168,264,25342,5,4
56,192,25509,2,0,B|56:56|400:56|400:192,1,438.749986924231,2|0
312,192,26675,2,0,B|232:80|304:8|488:8|528:88|504:216|456:280,1,506.249984912575,2|0
352,280,28009,2,0,B|64:280|56:200|64:32|216:32|216:32,1,506.249984912575,2|0
304,32,29342,5,4
440,32,29509,1,2
320,96,29675,1,0
456,96,29842,1,2
336,160,30009,1,0
472,160,30175,1,2
352,224,30342,1,0
488,224,30509,1,2
368,288,30675,6,0,B|248:352|32:352|32:160,1,438.749986924231,2|0
32,96,31842,1,2
152,32,32009,1,0
288,32,32175,2,0,B|448:56|464:128|288:232,1,337.499989941716,2|0
160,232,33175,1,2
128,232,33259,1,0
96,232,33342,2,0,B|0:136|0:48|112:16|360:16|376:32,1,506.249984912575,2|0
448,40,34675,2,0,B|448:360,1,315,2|0
384,288,35342,6,0,B|384:152,1,135,2|0
320,216,35675,2,0,B|320:80,1,135,2|0
256,144,36009,6,0,B|168:144,1,90,4|2
232,208,36342,2,0,B|144:208,1,90,0|2
208,272,36675,2,0,B|120:272,1,90,0|2
184,336,37009,2,0,B|96:336,1,90,0|2
256,144,37342,6,0,B|344:144,1,90,0|2
280,208,37675,2,0,B|368:208,1,90,0|2
304,272,38009,2,0,B|392:272,1,90,0|2
328,336,38342,2,0,B|416:336,1,90,0|2
224,192,38675,6,0,B|224:104,1,90,0|2
160,168,39009,2,0,B|160:80,1,90,0|2
96,144,39342,2,0,B|96:56,1,90,0|2
32,120,39676,2,0,B|32:32,1,90,0|2
128,304,40009,6,0,B|80:304,2,45,2|0|2
384,80,40342,2,0,B|432:80,2,45,2|0|2
128,80,40676,2,0,B|80:80,2,45,2|0|2
384,304,41009,2,0,B|432:304,2,45,2|0|2
256,192,41342,5,0
168,160,41509,1,2
80,192,41676,2,0,B|80:280,1,90,0|2
256,192,42009,1,0
344,224,42176,1,2
424,192,42342,2,0,B|424:104,1,90,0|2
256,192,42676,5,0
168,224,42842,1,2
80,192,43009,2,0,B|80:104,1,90,0|2
256,192,43342,1,0
344,160,43509,1,2
424,192,43676,2,0,B|424:280,1,90,0|2
256,352,44009,5,0
256,352,44176,1,2
176,312,44342,1,0
176,312,44509,1,2
256,272,44676,1,0
256,272,44842,1,2
336,232,45009,2,0,B|424:232,1,90,0|2
256,192,45342,6,0,B|256:88,1,90,4|0
256,102,45592,1,0
256,102,45676,1,0
176,64,45842,1,0
88,88,46009,1,0
88,104,46092,1,0
88,120,46176,1,0
88,208,46342,1,0
176,240,46509,1,0
256,192,46676,5,6
296,112,46842,1,2
376,72,47009,1,2
464,88,47176,1,2
488,176,47342,5,2
448,256,47509,1,2
368,288,47676,1,2
280,280,47842,1,2
256,192,48009,5,2
216,112,48176,1,2
136,72,48342,1,2
48,88,48509,1,2
24,176,48676,5,2
64,256,48842,1,2
144,288,49009,1,2
232,280,49176,1,2
256,192,49342,5,2
296,112,49509,1,2
376,72,49676,1,2
464,88,49842,1,2
488,176,50009,5,2
448,256,50176,1,2
368,288,50342,1,2
280,280,50509,1,2
256,192,50676,5,2
216,112,50842,1,2
136,72,51009,1,2
48,88,51176,1,2
24,176,51342,5,2
64,256,51509,1,2
144,288,51676,1,2
232,280,51842,1,2
256,192,52009,5,2
256,192,52176,1,2
256,104,52342,1,2
256,104,52509,1,2
256,192,52676,1,2
256,192,52842,1,2
256,280,53009,1,2
256,280,53176,1,2
168,280,53342,5,2
168,280,53509,1,2
168,192,53676,1,2
168,192,53842,1,2
168,104,54009,1,2
168,104,54176,1,2
256,104,54342,1,2
256,104,54509,1,2
256,192,54676,5,2
256,192,54842,1,2
256,104,55009,1,2
256,104,55176,1,2
256,192,55342,1,2
256,192,55509,1,2
256,280,55676,1,2
256,280,55842,1,2
344,280,56009,5,2
344,280,56176,1,2
344,192,56342,1,2
344,192,56509,1,2
344,104,56676,1,2
344,104,56842,1,2
256,104,57009,1,2
256,104,57176,1,2
168,104,57342,6,0,B|80:104,1,90,4|2
168,184,57676,2,0,B|80:184,1,90,2|2
168,264,58009,2,0,B|80:264,1,90,2|2
168,344,58342,2,0,B|80:344,1,90,2|2
344,104,58676,6,0,B|432:104,1,90,2|2
344,184,59009,2,0,B|432:184,1,90,2|2
344,264,59342,2,0,B|432:264,1,90,2|2
344,344,59676,2,0,B|432:344,1,90,2|2
168,104,60009,6,0,B|80:104,1,90,2|2
168,184,60342,2,0,B|80:184,1,90,2|2
168,264,60676,2,0,B|80:264,1,90,2|2
168,344,61009,2,0,B|80:344,1,90,2|2
344,104,61342,6,0,B|432:104,1,90,2|2
344,184,61676,2,0,B|432:184,1,90,2|2
344,264,62009,2,0,B|432:264,1,90,2|2
344,344,62342,2,0,B|432:344,1,90,2|2
256,344,62676,5,2
176,304,62842,1,2
128,224,63009,1,2
128,136,63176,1,2
176,64,63342,1,2
256,24,63509,1,2
256,112,63676,2,0,B|256:200,1,90,2|2
256,344,64009,5,2
336,304,64176,1,2
384,224,64342,1,2
384,136,64509,1,2
336,64,64676,1,2
256,24,64842,1,2
256,112,65009,2,0,B|256:200,1,90,2|2
256,344,65342,5,2
176,304,65509,1,2
128,224,65676,1,2
128,136,65842,1,2
176,64,66009,1,2
256,24,66176,1,2
256,112,66342,1,2
256,200,66509,1,2
256,288,66676,5,4
256,288,67009,1,4
256,288,67342,1,4
256,288,67676,1,4
256,288,68009,5,4
256,288,68176,1,2
192,224,68342,1,0
192,224,68509,1,2
128,160,68676,1,0
128,160,68842,1,2
64,96,69009,1,0
256,288,69342,5,0
256,288,69509,1,2
320,224,69676,1,0
320,224,69842,1,2
384,160,70009,1,0
384,160,70176,1,2
448,96,70342,1,0
280,32,70676,5,0
112,96,71009,2,0,B|24:96,1,90,0|2
112,168,71342,2,0,B|24:168,1,90,0|2
112,240,71676,2,0,B|24:240,1,90,0|2
136,240,72009,1,0
136,240,72176,1,2
224,240,72342,1,0
456,240,72676,5,0
416,48,73009,1,0
208,112,73342,5,0
208,112,73509,1,2
112,112,73676,1,0
112,112,73842,1,2
48,192,74009,1,0
48,192,74176,1,2
48,288,74342,1,0
256,112,74676,5,0
256,112,74842,1,2
256,208,75009,1,0
256,208,75176,1,2
256,304,75342,1,0
96,192,75676,1,0
256,304,76009,5,4
424,192,76342,1,10
256,80,76676,1,2
256,80,76842,1,2
256,80,77009,1,10
96,192,77342,5,2
424,192,77676,1,10
152,224,78009,5,4
328,256,78176,1,2
152,288,78342,1,4
328,320,78509,1,4
152,352,78675,5,4
72,288,78842,1,2
112,200,79009,1,0
200,160,79175,1,2
112,112,79342,1,0
312,112,79675,5,10
408,112,79842,1,2
408,112,79925,1,0
408,112,80009,2,0,B|408:208,1,90,0|2
352,288,80342,1,0
280,216,80509,1,2
200,160,80675,1,0
64,304,81009,1,10
64,104,81342,5,4
256,56,81675,1,0
256,56,81842,1,2
256,56,82009,1,0
256,56,82175,1,2
256,56,82342,1,0
256,56,82509,1,2
256,56,82675,1,0
400,192,83009,5,10
400,192,83175,1,2
400,192,83342,1,4
256,328,83675,2,0,B|168:328,1,90,4|2
166,328,84009,5,0
166,328,84175,1,2
166,328,84342,1,0
166,328,84509,1,2
166,328,84675,1,0
256,152,85009,1,0
312,232,85175,5,2
312,232,85259,1,0
312,232,85342,1,0
400,184,85509,1,2
416,280,85675,1,0
344,344,85842,1,2
248,344,86009,1,0
96,216,86342,6,0,B|232:216,1,135
280,216,86675,1,0
344,136,86842,1,0
344,136,87009,1,0
344,136,87175,1,0
344,136,87342,1,0
344,136,87509,1,0
344,136,87675,1,0
344,136,87842,1,0
216,176,88009,5,4
81,176,88259,1,4
192,248,88509,2,0,B|56:248,1,135,4|4
216,176,88842,2,0,B|80:176,1,135,4|4
32,176,89175,1,4
256,192,89342,12,0,90592
256,192,90675,5,4
312,120,90842,1,2
312,120,90925,1,0
392,80,91092,1,0
392,80,91175,1,2
440,160,91342,1,0
440,248,91509,1,2
440,272,91592,1,0
440,296,91675,1,0
440,320,91759,1,0
440,344,91842,1,2
352,312,92009,5,0
264,288,92175,1,2
192,232,92342,1,0
192,232,92425,1,0
192,232,92509,1,2
128,168,92675,1,0
128,168,92759,1,0
128,168,92842,1,2
168,88,93009,1,0
248,56,93175,5,2
248,56,93259,1,0
248,56,93342,2,0,B|336:56,1,90,0|2
384,56,93675,1,0
384,192,93842,5,2
384,192,93925,1,0
384,192,94009,2,0,B|384:280,1,90,0|2
384,328,94342,1,0
248,328,94509,5,2
248,328,94592,1,0
248,328,94675,2,0,B|160:328,1,90,0|2
112,328,95009,1,0
112,240,95175,1,2
112,240,95259,1,0
112,240,95342,1,0
112,240,95425,1,0
112,240,95509,1,2
224,216,95675,1,0
248,216,95759,2,0,B|336:216,1,90
360,216,96009,5,4
448,216,96175,1,2
448,128,96342,1,0
448,128,96425,1,0
448,128,96509,1,2
376,72,96675,1,0
376,72,96759,1,0
376,72,96842,1,2
304,128,97009,5,0
304,128,97092,1,0
304,128,97175,1,2
304,128,97259,1,0
304,128,97342,2,0,B|216:128,1,90,0|2
168,128,97592,2,0,B|80:128,1,90
32,128,97842,1,2
88,200,98009,5,0
104,208,98092,1,0
128,216,98175,1,2
152,224,98259,1,0
176,232,98342,1,0
200,232,98425,1,0
224,232,98509,1,2
248,232,98592,1,0
272,232,98675,2,0,B|320:232,2,45,0|0|2
408,232,99009,5,0
408,232,99092,1,0
408,232,99175,1,2
472,296,99342,5,2
472,296,99425,1,0
384,296,99592,1,0
384,296,99675,2,0,B|384:344,1,45,2|0
296,320,99925,5,2
272,328,100009,2,0,B|232:344,3,45,0|0|2|0
208,352,100342,2,0,B|160:352,3,45,0|0|2|0
144,352,100675,6,0,B|96:352,2,45,0|0|2
80,288,101009,1,0
80,288,101092,1,0
80,288,101175,1,2
168,288,101342,5,4
200,208,101509,1,2
200,208,101592,1,0
112,184,101759,1,0
112,184,101842,1,2
64,104,102009,1,2
64,104,102092,2,0,B|152:104,1,90
176,104,102342,1,0
200,104,102425,1,0
224,104,102509,1,2
248,104,102592,1,0
272,104,102675,6,0,B|320:104,2,45,4|0|2
336,40,103009,1,0
400,104,103175,1,2
400,104,103259,1,0
400,104,103342,1,0
368,192,103509,1,2
368,192,103592,1,0
368,192,103675,1,0
368,280,103842,5,2
280,336,104009,1,4
176,280,104175,1,2
80,192,104342,1,0
112,72,104509,1,2
144,192,104675,5,0
144,192,104759,1,0
144,192,104842,1,2
144,192,104925,1,0
144,192,105009,1,0
144,192,105092,1,0
144,192,105175,1,2
144,192,105259,1,0
146,192,105342,2,0,B|236:192,1,90,4|2
226,216,105592,1,0
218,240,105675,6,0,B|306:240,1,90,0|2
298,264,105925,1,0
290,288,106009,6,0,B|378:288,1,90,4|2
370,312,106259,1,0
362,336,106342,6,0,B|450:336,1,90,0|2
464,312,106592,1,0
472,288,106675,6,0,B|488:248,3,45,0|0|2|0
496,224,107009,2,0,B|496:176,3,45,0|0|2|0
488,160,107342,2,0,B|400:160,1,90,4|2
304,160,107675,5,0
280,168,107759,1,0
256,176,107842,1,2
232,184,107925,1,0
208,192,108009,2,0,B|160:208,3,45,0|0|2|0
144,216,108342,2,0,B|96:232,3,45,0|0|2|0
80,240,108675,2,0,B|32:256,3,45,0|0|2|0
80,272,109009,2,0,B|80:320,2,45,0|0|2
168,272,109342,5,0
168,272,109425,1,0
168,272,109509,1,2
256,272,109675,2,0,B|296:232,3,45,0|0|2|0
240,232,110009,2,0,B|280:192,3,45,0|0|2|0
224,192,110342,2,0,B|264:152,3,45,0|0|2|0
208,152,110675,5,0
104,184,110842,1,0
56,280,111009,1,0
152,336,111175,1,0
256,304,111342,1,0
280,288,111425,1,0
296,264,111509,1,0
312,240,111592,1,0
320,216,111675,1,0
320,192,111759,1,0
320,168,111842,1,0
312,144,111925,1,0
296,120,112009,1,4
