osu file format v9

[General]
AudioFilename: crystal-world.mp3
AudioLeadIn: 0
PreviewTime: 68009
Countdown: 0
SampleSet: Soft
StackLeniency: 0.7
Mode: 0
LetterboxInBreaks: 1

[Editor]
DistanceSpacing: 1
BeatDivisor: 4
GridSize: 8

[Metadata]
Title:Suishou-Sekai ~Fracture~
Artist:wa. remixed celas
Creator:soulfear
Version:Hard
Source:BMS
Tags:Akiyama Mio DeeN K-ON Firce777

[Difficulty]
HPDrainRate:3
CircleSize:3
OverallDifficulty:3
ApproachRate:6
SliderMultiplier:1.2
SliderTickRate:1

[Events]
//Background and Video events
Video,2600,"bga.flv"
0,0,"crystal-world-n.png"
//Break Periods
//Storyboard Layer 0 (Background)
//Storyboard Layer 1 (Fail)
//Storyboard Layer 2 (Pass)
//Storyboard Layer 3 (Foreground)
//Storyboard Sound Samples
//Background Colour Transformations
3,100,163,162,255

[TimingPoints]
2676,333.333333333333,4,2,1,5,1,0
3842,-100,4,2,1,80,0,0
23925,-100,4,1,0,60,0,0
25175,-100,4,2,1,80,0,0
35342,-100,4,2,1,80,0,0
45425,-100,4,1,0,60,0,0
46592,-100,4,2,1,70,0,0
66675,-100,4,2,1,60,0,0
67009,-100,4,2,1,65,0,0
67342,-100,4,2,1,70,0,0
67675,-100,4,2,1,75,0,0
68009,-100,4,2,1,80,0,0
86301,-100,4,1,0,70,0,0
90592,-100,4,2,1,90,0,0
110634,-100,4,1,0,90,0,0

[Colours]
Combo1 : 255,255,0
Combo2 : 255,255,255
Combo3 : 0,255,255
Combo4 : 255,128,255

[HitObjects]
256,192,2675,12,4,4009
256,192,5342,5,0
256,192,6675,1,0
256,192,9342,5,0
256,192,10675,1,0
256,192,12009,1,0
256,192,13342,1,0
256,192,14342,1,0
256,192,14509,1,2
256,192,14676,1,4
376,192,15009,1,0
136,192,15676,5,0
16,192,16009,1,0
136,192,16342,1,0
376,192,17009,5,0
496,192,17342,1,0
376,192,17676,1,0
136,192,18342,5,0
136,192,18676,1,0
136,192,19009,1,0
376,192,19675,5,0
376,192,20009,1,4
376,192,20342,1,0
136,192,21009,5,0
136,72,21342,2,0,B|256:72,1,120
256,192,22009,2,0,B|376:192,1,120
376,312,22675,2,0,B|496:312,1,120,4|0
288,192,23675,5,0
360,96,24009,1,0
472,56,24342,1,0
472,176,24675,1,0
472,296,25009,1,0
472,296,25342,5,4
408,296,25509,2,0,B|16:296,1,390,2|0
16,264,26675,1,0
16,208,26842,6,0,B|408:208,1,390,2|0
432,184,28009,6,0,B|296:48|200:48|16:48,1,450,2|0
24,80,29342,5,0
24,144,29509,1,2
24,208,29675,1,0
24,264,29842,1,2
24,328,30009,1,0
88,328,30175,1,2
144,328,30342,1,0
208,328,30509,1,2
272,328,30675,5,0
328,328,30842,2,0,B|472:184|320:32,1,330,2|0
296,40,31842,1,2
232,40,32009,5,0
168,40,32175,2,0,B|40:168|176:304,1,300,2|0
232,304,33175,1,2
264,304,33259,1,0
296,304,33342,2,0,B|488:192|488:64|232:64,1,450,2|0
192,64,34675,2,0,B|72:64|24:168,1,210,2|0
24,200,35342,6,0,B|112:200,1,90,2|0
144,200,35675,2,0,B|232:200,1,90,2|0
264,200,36009,5,4
264,264,36175,2,0,B|456:152|456:24|280:24,1,390,2|0
256,24,37342,5,0
192,24,37509,2,0,B|24:24|24:192,1,270,2|0
24,216,38342,1,0
24,336,38675,1,0
80,336,38842,2,0,B|352:336,1,270,2|0
384,336,39676,5,0
464,248,40009,1,0
464,248,40176,1,2
464,248,40342,1,0
464,248,40509,1,2
464,248,40676,1,0
464,248,40842,1,2
464,248,41009,1,0
464,248,41176,1,2
464,248,41342,5,4
464,248,41509,2,0,B|192:248,1,270,2|0
160,248,42342,1,0
40,248,42676,1,0
40,192,42842,2,0,B|104:128|208:128,1,180,2|0
264,128,43509,1,2
328,128,43676,6,0,B|392:128,1,60,0|2
448,128,44009,2,0,B|512:128,1,60,0|2
328,288,44842,1,2
328,288,45009,1,0
328,288,45176,1,2
256,192,45342,12,0,46592
256,192,46676,5,2
256,192,46842,1,2
256,192,47009,1,2
256,192,47176,1,2
256,192,47342,1,2
256,312,47676,5,2
256,312,47842,1,2
256,312,48009,1,2
256,312,48176,1,2
256,312,48342,1,2
256,312,48509,1,2
256,192,48842,1,2
376,192,49176,5,2
376,192,49342,1,2
376,192,49509,1,2
376,192,49676,1,2
376,192,49842,1,2
376,192,50009,1,2
376,72,50342,5,2
376,72,50509,1,2
376,72,50676,1,2
376,72,50842,1,2
376,72,51009,1,2
376,72,51176,1,2
376,72,51342,1,2
376,72,51509,1,2
256,72,51842,5,2
256,72,52009,1,2
192,72,52176,1,2
136,72,52342,1,2
72,72,52509,1,2
32,120,52676,1,2
64,232,53009,5,2
64,232,53176,1,2
112,192,53342,1,2
168,192,53509,1,2
232,192,53676,1,2
296,192,53842,1,2
296,192,54176,5,2
312,312,54509,5,2
248,312,54676,1,2
248,312,54842,1,2
184,312,55009,1,2
184,312,55176,1,2
128,312,55342,1,2
120,192,55676,5,2
64,192,55842,1,2
64,128,56009,1,2
64,128,56176,1,2
64,128,56342,1,2
64,128,56509,1,2
64,128,56676,1,2
64,128,56842,1,2
184,128,57176,1,2
184,128,57342,5,6
256,32,57676,1,2
328,128,58009,1,2
432,192,58342,1,2
328,256,58676,1,2
256,352,59009,1,2
184,256,59342,1,2
80,192,59676,1,2
184,128,60009,5,2
256,32,60342,1,2
328,128,60676,1,2
432,192,61009,1,2
328,256,61342,1,2
256,352,61676,1,2
184,256,62009,1,2
80,192,62342,1,2
184,128,62676,5,2
184,128,62842,1,2
184,64,63009,1,2
184,64,63176,1,2
240,64,63342,1,2
240,64,63509,1,2
304,64,63676,1,2
304,64,63842,1,2
368,64,64009,5,2
368,64,64176,1,2
432,64,64342,1,2
432,64,64509,1,2
432,128,64676,1,2
432,128,64842,1,2
368,128,65009,1,2
368,128,65176,1,2
368,184,65342,5,2
368,184,65509,1,2
432,184,65676,1,2
432,184,65842,1,2
496,184,66009,1,2
496,184,66176,1,2
496,248,66342,1,2
496,248,66509,1,2
256,192,66676,12,0,67842
256,192,68009,5,4
256,192,68176,1,2
256,192,68342,1,0
256,192,68509,1,2
136,192,68842,1,2
312,192,69342,5,0
312,192,69509,1,2
312,192,69676,1,0
312,192,69842,1,2
432,192,70176,1,2
312,328,70676,5,0
192,328,71009,1,0
192,328,71176,1,2
192,240,71426,6,0,B|192:208,1,30,0|2
192,152,71676,1,0
192,152,71842,1,2
192,152,72009,1,0
192,152,72176,1,2
192,152,72342,1,0
192,32,72676,1,0
192,32,73009,1,0
256,128,73342,5,0
256,128,73509,1,2
256,128,73676,1,0
256,128,73842,1,2
256,248,74176,1,2
424,192,74676,5,0
424,192,74842,1,2
424,192,75009,1,0
424,192,75176,1,2
152,72,76009,5,4
272,72,76342,1,10
296,192,76676,1,2
200,256,77009,1,10
96,192,77342,5,4
96,312,77676,1,10
216,312,78009,5,4
216,312,78176,1,2
216,312,78342,1,4
216,312,78509,1,4
216,312,78675,6,0,B|368:312|368:48|216:48,1,390,4|0
184,48,79842,1,2
152,48,79925,1,0
120,48,80009,6,0,B|16:48|16:208,1,210,0|0
16,232,80675,2,0,B|16:336|176:336,1,210,0|0
200,336,81342,6,0,B|288:336,1,90
320,336,81675,1,0
320,280,81842,2,0,B|416:280,1,90,2|0
440,280,82175,1,2
440,224,82342,2,0,B|352:224,1,90
320,224,82675,2,0,B|168:224,1,150
136,224,83175,2,0,B|16:184|16:48|128:48,1,270,2|0
160,48,84009,6,0,B|304:48|464:48|464:208,1,390
464,232,85175,1,2
456,264,85259,1,0
448,296,85342,2,0,B|296:296,1,150
264,296,85842,2,0,B|112:296,1,150,2|0
112,264,86342,2,0,B|24:264,1,90
24,232,86675,6,0,B|472:232,1,450
256,192,88009,12,0,90592
80,192,90675,5,4
200,192,90925,2,0,B|288:192,2,90
80,192,91675,5,0
80,192,91842,1,2
80,192,92009,1,0
288,240,92675,6,0,B|376:240,2,90
224,240,93342,2,0,B|136:240,2,90
456,192,94509,1,2
456,192,94675,1,0
344,48,95175,5,2
288,48,95342,1,0
256,128,95592,1,0
256,216,95842,1,2
256,280,96009,6,0,B|168:280,2,90
256,96,97009,1,0
256,96,97175,1,2
256,96,97342,1,0
480,192,98009,6,0,B|448:192,3,30,0|0|2|0
360,192,98509,1,2
296,192,98675,1,4
80,128,100675,5,0
80,128,100842,1,2
80,128,101009,1,0
80,128,101175,1,2
80,192,101342,2,0,B|168:192,4,90
80,256,102509,5,2
80,320,102675,2,0,B|288:320,1,210,4|0
320,320,103342,1,0
320,232,103592,1,0
320,144,103842,5,2
256,144,104009,1,0
168,144,104259,1,0
168,232,104509,2,0,B|376:232,1,210,2|0
408,232,105175,1,2
376,120,105342,6,0,B|376:272,1,150,4|0
376,304,105842,1,2
376,304,105925,1,0
376,304,106009,2,0,B|288:304,2,90
256,304,106675,5,4
152,304,106925,1,0
48,304,107175,2,0,B|48:152,1,150,2|0
48,120,107675,5,0
48,120,107759,1,0
48,120,107842,1,2
48,120,107925,1,0
48,120,108009,2,0,B|256:120,1,210,0|0
296,120,108675,1,0
400,120,108925,1,0
504,120,109175,1,2
504,192,109342,6,0,B|56:192,1,450
256,192,110675,12,0,111675
256,192,112009,5,4
