osu file format v9

[General]
AudioFilename: crystal-world.mp3
AudioLeadIn: 0
PreviewTime: 68009
Countdown: 0
SampleSet: Soft
StackLeniency: 0.7
Mode: 0
LetterboxInBreaks: 1

[Editor]
DistanceSpacing: 1
BeatDivisor: 4
GridSize: 4

[Metadata]
Title:Suishou-Sekai ~Fracture~
Artist:wa. remixed celas
Creator:soulfear
Version:Another
Source:BMS
Tags:Akiyama Mio DeeN K-ON Firce777

[Difficulty]
HPDrainRate:6
CircleSize:5
OverallDifficulty:8
ApproachRate:9
SliderMultiplier:2
SliderTickRate:1

[Events]
//Background and Video events
Video,2600,"bga.flv"
0,0,"crystal-world-h.png"
//Break Periods
//Storyboard Layer 0 (Background)
//Storyboard Layer 1 (Fail)
//Storyboard Layer 2 (Pass)
//Storyboard Layer 3 (Foreground)
//Storyboard Sound Samples
//Background Colour Transformations
3,100,163,162,255

[TimingPoints]
2676,333.333333333333,4,2,0,5,1,0
3842,-100,4,2,0,80,0,0
9342,-133.333333333333,4,2,0,80,0,0
13342,-100,4,2,0,80,0,0
23925,-100,4,1,0,80,0,0
25259,-100,4,1,0,70,0,0
28175,-100,4,2,1,80,0,0
30592,-100,4,1,0,70,0,0
34509,-100,4,2,1,80,0,0
45425,-100,4,1,0,70,0,0
46592,-100,4,2,0,70,0,0
66675,-100,4,2,1,60,0,0
67009,-100,4,2,1,65,0,0
67342,-100,4,2,1,70,0,0
67675,-100,4,2,1,75,0,0
68009,-100,4,2,1,80,0,0
86301,-100,4,1,0,80,0,0
90592,-100,4,2,1,90,0,0
109342,-100,4,2,0,90,0,0
110634,-100,4,1,0,90,0,0

[Colours]
Combo1 : 255,255,0
Combo2 : 255,255,255
Combo3 : 0,255,255
Combo4 : 255,128,255

[HitObjects]
256,192,2675,12,0,3675
256,192,4009,5,4
336,136,4175,1,2
336,136,4259,1,0
336,136,4342,1,0
136,120,4675,5,0
56,184,4842,1,2
56,184,4925,1,0
56,184,5009,1,0
232,280,5342,5,0
312,216,5509,1,2
312,216,5592,1,0
312,216,5675,1,0
488,304,6009,5,0
456,208,6175,1,2
456,208,6259,1,0
456,208,6342,1,0
408,120,6509,1,2
312,80,6675,1,0
216,104,6842,1,2
120,128,7009,1,0
280,248,7342,5,0
296,248,7425,1,0
312,248,7509,1,2
312,144,7675,1,0
328,144,7759,1,0
344,144,7842,1,2
360,144,7925,1,0
376,144,8009,1,0
392,144,8092,1,0
408,144,8175,1,2
408,248,8342,1,0
216,312,8675,6,0,B|288:240,1,100,0|2
304,224,8925,1,0
320,208,9009,2,0,B|432:96,1,150
408,88,9342,6,0,B|256:12|156:56,1,262.499992176891
284,108,10009,2,0,B|120:58|29:119,1,262.499992176891
100,192,10675,6,0,B|252:116|352:160,1,262.499992176891
224,212,11342,2,0,B|388:162|479:223,1,262.499992176891
440,128,12009,6,0,B|288:52|188:96,1,262.499992176891
316,148,12676,2,0,B|152:98|61:159,1,262.499992176891
88,232,13342,6,0,B|192:232,1,100,0|2
280,264,13676,1,0
296,264,13759,1,0
312,264,13842,1,2
408,304,14009,1,0
408,208,14176,1,2
408,192,14259,1,0
408,176,14342,1,0
408,160,14426,1,0
408,144,14509,1,2
408,128,14592,1,0
408,112,14676,6,0,B|408:8,1,100,4|2
344,88,15009,1,0
344,88,15092,1,0
344,88,15176,1,2
240,88,15342,2,0,B|136:88,1,100,0|2
40,112,15676,1,0
40,112,15759,1,0
40,112,15842,1,2
56,208,16009,5,0
56,208,16092,1,0
56,208,16176,1,2
144,152,16342,2,0,B|248:152,1,100,0|2
344,152,16676,1,0
344,152,16759,1,0
344,152,16842,1,2
440,152,17009,2,0,B|440:256,1,100,0|2
440,252,17259,1,0
440,252,17342,1,0
344,264,17509,6,0,B|344:216,2,50,2|0|0
240,264,17842,2,0,B|240:216,2,50,2|0|0
136,264,18176,2,0,B|136:216,2,50,2|0|0
32,264,18509,2,0,B|32:216,2,50,2|0|0
32,264,18842,2,0,B|32:312,2,50,2|0|0
32,264,19175,2,0,B|80:264,2,50,2|0|0
32,264,19509,2,0,B|32:216,2,50,2|0|0
32,264,19842,5,2
32,264,19925,1,0
32,264,20009,1,4
124,264,20175,1,2
204,224,20342,1,0
268,160,20509,1,2
256,72,20675,1,0
176,32,20842,1,2
88,56,21009,1,0
64,144,21175,1,2
152,168,21342,5,0
88,104,21509,1,2
192,104,21675,1,0
128,32,21842,1,2
192,104,22009,1,0
256,32,22175,1,2
192,104,22342,1,0
288,104,22509,1,2
192,104,22675,5,4
344,104,22842,1,2
192,104,23009,1,0
296,208,23175,1,2
192,104,23342,1,0
192,256,23509,1,2
192,104,23675,1,0
80,208,23842,1,2
192,104,24009,5,0
392,104,24175,1,0
192,312,24342,1,0
456,24,24675,2,0,B|304:24,1,150
208,24,25009,2,0,B|104:24,1,100
256,192,25342,5,4
352,168,25509,1,0
408,80,25675,1,0
256,120,26009,1,0
104,80,26342,1,0
40,184,26592,5,0
64,216,26675,1,0
24,304,26842,1,0
120,320,27009,1,0
280,312,27342,1,0
424,232,27675,1,0
456,120,27925,5,0
416,104,28009,1,0
224,184,28342,2,0,B|224:136,2,50,0|0|2
224,80,28675,2,0,B|224:32,2,50,0|0|2
128,96,29009,2,0,B|128:48,2,50,0|0|2
120,336,29342,6,0,B|72:336,2,50,4|0|2
392,48,29675,2,0,B|440:48,2,50,2|0|2
120,48,30009,2,0,B|72:48,2,50,2|0|2
392,336,30342,2,0,B|440:336,2,50,2|0|2
104,192,30675,5,0
144,104,30842,1,0
224,56,31009,1,0
384,80,31342,1,0
432,232,31675,5,0
432,232,31759,1,0
432,232,31842,1,0
232,232,32009,1,0
208,136,32175,1,0
304,168,32342,1,0
400,40,32675,1,0
456,232,33009,5,0
304,232,33175,1,0
304,232,33259,1,0
304,232,33342,1,0
64,192,33675,5,0
184,88,34009,1,0
256,232,34342,1,0
120,336,34592,5,0
120,336,34675,2,0,B|72:336,2,50,4|0|2
392,48,35009,2,0,B|440:48,2,50,2|0|2
120,48,35342,2,0,B|72:48,2,50,2|0|2
392,336,35675,2,0,B|440:336,2,50,2|0|2
256,104,36009,5,4
192,184,36175,1,2
104,128,36342,1,0
104,128,36509,1,2
192,88,36675,1,0
192,88,36842,1,2
280,128,37009,1,0
280,128,37175,1,2
360,184,37342,5,0
280,248,37509,1,2
360,312,37675,1,0
360,312,37842,1,2
440,248,38009,1,0
440,248,38175,1,2
360,184,38342,1,0
360,184,38509,1,2
280,120,38675,5,2
280,120,38842,1,2
192,160,39009,1,0
192,160,39175,1,2
104,200,39342,1,0
104,200,39509,1,2
256,200,39676,5,0
256,200,39842,1,2
408,200,40009,1,4
408,200,40176,1,2
336,64,40342,1,2
336,64,40509,1,2
184,64,40676,1,2
184,64,40842,1,2
336,112,41009,1,2
336,112,41176,1,2
232,112,41342,5,4
232,112,41509,1,2
144,160,41676,2,0,B|144:264,1,100,0|2
200,344,42009,1,0
264,264,42176,1,2
232,168,42342,1,0
232,168,42509,1,2
280,272,42676,5,4
360,216,42842,1,2
424,136,43009,2,0,B|424:32,1,100,0|2
328,56,43342,1,0
248,120,43509,1,2
280,216,43676,1,0
176,216,43842,1,2
280,216,44009,5,2
176,216,44176,1,2
176,320,44342,5,0
176,216,44509,1,2
72,216,44676,5,0
176,216,44842,1,2
176,112,45009,5,0
176,216,45176,1,2
176,320,45342,5,0
256,280,45509,1,0
256,264,45592,1,0
256,248,45676,1,0
256,352,45842,5,0
256,256,46009,1,0
256,240,46092,1,0
256,224,46176,1,0
256,208,46259,1,0
256,192,46342,1,0
256,176,46426,1,0
256,160,46509,1,0
112,72,46676,5,6
32,136,46842,1,2
80,224,47009,1,2
160,160,47176,1,2
64,176,47342,5,2
120,280,47509,1,2
224,224,47676,1,2
176,112,47842,1,2
88,192,48009,5,2
136,304,48176,1,2
248,256,48342,1,2
192,144,48509,1,2
112,232,48676,5,2
240,296,48842,1,2
112,232,49009,1,2
240,168,49176,1,2
400,72,49342,5,2
480,136,49509,1,2
432,224,49676,1,2
352,160,49842,1,2
448,176,50009,5,2
392,280,50176,1,2
288,224,50342,1,2
336,112,50509,1,2
424,192,50676,5,2
376,304,50842,1,2
264,256,51009,1,2
320,144,51176,1,2
400,232,51342,5,2
272,296,51509,1,2
400,232,51676,1,2
272,168,51842,1,2
416,40,52009,5,2
315,29,52176,1,2
286,125,52342,1,2
388,136,52509,1,2
309,79,52676,5,2
275,193,52842,1,2
388,226,53009,1,2
433,113,53176,1,2
315,108,53342,5,2
269,221,53509,1,2
382,266,53676,1,2
422,147,53842,1,2
303,153,54009,5,2
348,289,54176,1,2
303,153,54342,1,2
439,198,54509,1,2
96,40,54676,5,2
197,29,54842,1,2
226,125,55009,1,2
124,136,55176,1,2
203,79,55342,5,2
237,193,55509,1,2
124,226,55676,1,2
79,113,55842,1,2
197,108,56009,5,2
243,221,56176,1,2
130,266,56342,1,2
90,147,56509,1,2
209,153,56676,5,2
164,289,56842,1,2
73,198,57009,1,2
209,153,57176,1,2
184,352,57342,6,0,B|232:352,1,50,6|0
192,264,57509,2,0,B|240:264,1,50,2|0
184,184,57676,2,0,B|144:144,1,50,2|0
248,120,57842,2,0,B|208:80,1,50,2|0
312,80,58009,2,0,B|312:32,1,50,2|0
384,104,58176,2,0,B|384:56,1,50,2|0
456,128,58342,2,0,B|456:176,1,50,2|0
360,160,58509,2,0,B|360:208,1,50,2|0
328,304,58676,6,0,B|280:304,1,50,2|0
296,208,58842,2,0,B|248:208,1,50,2|0
256,104,59009,2,0,B|296:64,1,50,2|0
192,72,59176,2,0,B|192:24,1,50,2|0
128,104,59342,2,0,B|88:64,1,50,2|0
96,168,59509,2,0,B|48:168,1,50,2|0
128,232,59676,2,0,B|88:272,1,50,2|0
192,264,59842,2,0,B|192:312,1,50,2|0
184,32,60009,6,0,B|232:32,1,50,2|0
192,120,60176,2,0,B|240:120,1,50,2|0
184,200,60342,2,0,B|144:240,1,50,2|0
248,264,60509,2,0,B|208:304,1,50,2|0
312,304,60676,2,0,B|312:352,1,50,2|0
384,280,60842,2,0,B|384:328,1,50,2|0
456,256,61009,2,0,B|456:208,1,50,2|0
360,224,61176,2,0,B|360:176,1,50,2|0
328,80,61342,6,0,B|280:80,1,50,2|0
296,176,61509,2,0,B|248:176,1,50,2|0
256,280,61676,2,0,B|296:320,1,50,2|0
192,312,61842,2,0,B|192:360,1,50,2|0
128,280,62009,2,0,B|88:320,1,50,2|0
96,216,62176,2,0,B|48:216,1,50,2|0
128,152,62342,2,0,B|88:112,1,50,2|0
192,120,62509,2,0,B|192:72,1,50,2|0
424,128,62676,6,0,B|480:128,1,50,2|0
328,168,62842,2,0,B|272:168,1,50,2|0
424,192,63009,2,0,B|480:192,1,50,2|0
328,232,63176,2,0,B|272:232,1,50,2|0
424,256,63342,2,0,B|480:256,1,50,2|0
328,296,63509,2,0,B|272:296,1,50,2|0
424,320,63676,2,0,B|480:320,1,50,2|0
328,360,63842,2,0,B|272:360,1,50,2|0
328,128,64009,6,0,B|384:128,1,50,2|0
232,168,64176,2,0,B|176:168,1,50,2|0
328,192,64342,2,0,B|384:192,1,50,2|0
232,232,64509,2,0,B|176:232,1,50,2|0
328,256,64676,2,0,B|384:256,1,50,2|0
232,296,64842,2,0,B|176:296,1,50,2|0
328,320,65009,2,0,B|384:320,1,50,2|0
232,360,65176,2,0,B|176:360,1,50,2|0
232,128,65342,6,0,B|288:128,1,50,2|0
136,168,65509,2,0,B|80:168,1,50,2|0
232,192,65676,2,0,B|288:192,1,50,2|0
136,232,65842,2,0,B|80:232,1,50,2|0
232,256,66009,2,0,B|288:256,1,50,2|0
136,296,66176,2,0,B|80:296,1,50,2|0
232,320,66342,2,0,B|288:320,1,50,2|0
136,360,66509,2,0,B|80:360,1,50,2|0
32,208,66676,5,2
32,192,66759,1,2
32,176,66842,1,2
40,160,66926,1,2
56,152,67009,1,2
72,144,67092,1,2
88,136,67176,1,2
104,128,67259,1,2
120,128,67342,5,2
136,128,67426,1,2
152,128,67509,1,2
168,128,67592,1,2
184,128,67676,1,2
200,128,67759,1,2
216,128,67842,1,2
232,128,67926,1,2
248,128,68009,6,0,B|352:128,1,100,4|2
272,192,68342,2,0,B|376:192,1,100,0|2
296,256,68676,2,0,B|400:256,1,100,0|2
396,256,68926,1,0
396,256,69009,1,0
320,320,69176,1,2
168,320,69342,6,0,B|64:320,1,100,0|2
144,256,69676,2,0,B|40:256,1,100,0|2
120,192,70009,1,0
120,192,70092,1,0
120,192,70176,1,2
160,96,70342,1,0
256,64,70509,1,2
352,96,70676,6,0,B|456:96,1,100,0|2
336,160,71009,2,0,B|440:160,1,100,0|2
320,224,71342,2,0,B|216:224,1,100,0|2
220,224,71592,1,0
220,224,71676,1,0
336,288,71842,1,2
184,288,72009,6,0,B|80:288,1,100,0|2
56,288,72259,1,0
80,288,72342,2,0,B|80:184,1,100,0|2
56,184,72592,1,0
80,184,72676,2,0,B|184:184,1,100,0|2
280,184,73009,5,4
392,56,73176,1,2
464,208,73342,5,4
376,248,73509,1,2
288,304,73676,1,0
184,304,73842,1,2
88,280,74009,2,0,B|88:176,1,100,0|2
88,152,74259,1,0
88,128,74342,2,0,B|88:28,1,100,0|2
152,160,74676,5,4
224,88,74842,1,2
320,64,75009,1,0
408,104,75176,1,2
456,192,75342,1,0
456,192,75426,1,0
456,192,75509,1,2
384,264,75676,1,0
288,296,75842,1,2
184,296,76009,5,4
84,296,76176,1,2
184,232,76342,1,10
84,232,76509,1,2
184,168,76676,2,0,B|80:168,1,100,2|2
84,168,76926,1,0
84,168,77009,1,10
184,104,77176,1,2
304,48,77342,1,4
424,104,77509,1,2
424,104,77592,1,0
424,104,77676,2,0,B|424:208,1,100,10|2
424,204,78009,5,4
312,304,78176,1,2
200,200,78342,1,4
88,304,78509,1,4
24,168,78675,5,4
56,72,78842,1,2
144,32,79009,1,0
240,72,79175,1,2
144,112,79342,2,0,B|144:216,1,100,0|2
144,240,79592,1,0
168,240,79675,2,0,B|216:240,3,50,0|0|2|0
240,240,80009,5,0
320,176,80175,1,2
416,200,80342,2,0,B|344:272,1,100,0|2
248,272,80675,1,0
224,272,80759,1,0
200,272,80842,1,2
176,272,80925,1,0
152,272,81009,2,0,B|48:272,1,100,0|2
48,168,81342,5,4
48,168,81509,1,2
48,168,81592,1,0
48,168,81675,2,0,B|152:168,1,100,0|2
248,164,82009,2,0,B|352:164,1,100,0|2
400,80,82342,1,0
456,168,82509,1,2
448,260,82675,5,0
448,260,82759,1,0
448,260,82842,1,2
360,308,83009,1,0
360,308,83092,1,0
360,308,83175,1,2
360,204,83342,1,0
272,260,83509,1,2
184,204,83675,2,0,B|184:100,1,100,0|2
184,104,83925,1,0
184,104,84009,5,0
120,180,84175,1,2
184,260,84342,1,0
240,180,84509,1,2
240,76,84675,1,0
328,128,84842,1,2
352,128,84925,1,0
376,128,85009,2,0,B|432:128,3,50,0|0|2|0
448,128,85342,5,0
400,200,85509,1,2
376,296,85675,1,0
352,296,85759,1,0
328,296,85842,1,2
248,240,86009,2,0,B|144:240,1,100,0|2
120,240,86259,1,0
96,240,86342,2,0,B|64:208|64:208|64:152|64:152|24:112,1,150
16,96,86675,5,0
104,144,86842,1,0
160,64,87009,1,0
248,112,87175,1,0
312,32,87342,1,0
408,56,87509,1,0
392,72,87592,1,0
376,88,87675,2,0,B|344:120|344:120|344:176|344:176|304:216,1,150
256,264,88009,5,4
440,32,88259,1,4
264,360,88509,2,0,B|232:328|232:328|232:272|232:272|192:232,1,150,4|4
112,184,88842,2,0,B|80:216|80:216|80:272|80:272|40:312,1,150,4|4
144,280,89175,1,4
256,192,89342,12,0,90592
256,192,90675,5,0
168,144,90842,1,2
144,128,90925,1,0
136,104,91009,1,0
144,80,91092,1,0
160,56,91175,1,2
256,24,91342,1,0
280,24,91425,1,0
304,40,91509,1,2
320,64,91592,1,0
328,88,91675,1,0
320,112,91759,1,0
312,136,91842,1,2
248,216,92009,5,4
152,192,92175,1,2
200,104,92342,1,0
224,96,92425,1,0
248,104,92509,1,2
288,192,92675,6,0,B|288:240,2,50,4|0|2
288,240,92925,1,0
288,240,93009,2,0,B|288:344,1,100,0|2
288,368,93259,1,0
312,368,93342,6,0,B|336:368|392:312,1,100,0|2
384,288,93592,1,0
400,264,93675,1,0
416,240,93759,1,0
432,216,93842,1,2
448,192,93925,1,0
456,168,94009,6,0,B|481:125|470:69,1,100,0|2
464,48,94259,1,0
448,32,94342,1,0
424,24,94425,1,0
400,24,94509,1,2
376,24,94592,1,0
352,24,94675,6,0,B|302:23|259:61,1,100,0|2
240,72,94925,1,0
216,80,95009,1,0
192,80,95092,1,0
168,80,95175,1,2
88,144,95342,5,0
72,160,95425,1,0
56,176,95509,1,2
40,192,95592,1,0
32,216,95675,1,0
24,240,95759,1,0
24,264,95842,1,2
24,288,95925,1,0
24,312,96009,2,0,B|48:360|104:360,1,100,0|2
152,272,96342,5,0
176,272,96425,1,0
200,272,96509,1,2
224,176,96675,6,0,B|272:176,2,50
248,80,97009,5,0
272,80,97092,1,0
296,80,97175,1,2
392,80,97342,1,2
440,168,97509,1,2
440,192,97592,1,0
440,216,97675,1,0
440,240,97759,1,0
440,264,97842,1,0
360,320,98009,1,0
336,336,98092,1,0
312,352,98175,1,2
288,360,98259,1,0
264,360,98342,1,0
240,360,98425,1,0
216,360,98509,1,2
192,360,98592,1,0
168,352,98675,6,0,B|120:352,2,50,0|0|2
208,256,99009,1,0
208,256,99092,1,0
208,256,99175,1,2
128,192,99342,5,2
128,192,99425,1,0
40,144,99592,1,0
40,144,99675,2,0,B|40:192,1,50,2|0
64,304,99925,5,2
88,312,100009,2,0,B|136:336,3,50,0|0|2|0
160,336,100342,2,0,B|208:336,3,50,0|0|2|0
232,336,100675,2,0,B|280:328,3,50,0|0|2|0
304,320,101009,2,0,B|352:312,3,50,0|0|2|0
376,304,101342,5,4
392,288,101425,1,0
408,272,101509,1,2
424,256,101592,1,0
440,240,101675,1,0
456,224,101759,1,0
472,208,101842,1,2
432,112,102009,1,0
408,96,102092,1,0
384,88,102175,1,2
360,80,102259,1,0
336,80,102342,1,0
312,80,102425,1,0
288,80,102509,1,2
264,80,102592,1,0
240,80,102675,2,0,B|192:80,2,50,0|0|2
168,80,102925,5,0
168,80,103009,2,0,B|168:184,1,100,0|2
168,180,103259,1,0
168,180,103342,2,0,B|168:280,1,100,0|2
168,280,103592,1,0
168,280,103675,2,0,B|272:280,1,100,0|2
296,280,103925,1,0
320,280,104009,1,6
344,280,104092,1,0
368,280,104175,2,0,B|472:280,2,100,2|0|2
280,288,104592,5,0
256,296,104675,1,0
232,304,104759,1,0
208,304,104842,1,2
184,304,104925,1,0
160,312,105009,1,0
136,320,105092,1,0
112,328,105175,1,2
88,336,105259,1,0
64,344,105342,2,0,B|64:240,1,100,4|2
88,256,105592,1,0
112,264,105675,6,0,B|112:160,1,100,0|2
136,176,105925,1,0
160,184,106009,6,0,B|160:80,1,100,4|2
184,96,106259,1,0
208,104,106342,6,0,B|208:0,1,100,0|2
184,8,106592,1,0
160,16,106675,5,0
136,24,106759,1,0
120,40,106842,1,2
104,56,106925,1,0
88,72,107009,1,0
72,96,107092,1,0
64,120,107175,1,2
56,144,107259,1,0
56,168,107342,2,0,B|56:272,1,100,4|2
112,352,107675,5,0
136,352,107759,1,0
160,352,107842,1,2
184,352,107925,1,0
208,352,108009,2,0,B|256:344,3,50,0|0|2|0
240,320,108342,2,0,B|288:312,3,50,0|0|2|0
272,288,108675,2,0,B|320:280,3,50,0|0|2|0
304,256,109009,2,0,B|352:248,3,50,0|0|2|0
272,192,109342,6,0,B|224:184,3,50,0|0|2|0
240,160,109675,2,0,B|192:152,3,50,0|0|2|0
208,128,110009,2,0,B|160:120,3,50,0|0|2|0
176,96,110342,2,0,B|128:88,3,50,0|0|2|0
144,64,110675,5,0
88,192,110842,1,0
160,312,111009,1,0
288,256,111175,1,0
328,120,111342,1,0
311,103,111425,1,0
288,91,111509,1,0
260,86,111592,1,0
237,86,111675,1,0
214,86,111759,1,0
192,97,111842,1,0
175,114,111925,1,0
160,128,112009,1,4
