osu file format v14

[General]
AudioFilename: silver_wind.mp3
AudioLeadIn: 0
PreviewTime: 58632
Countdown: 0
SampleSet: Normal
StackLeniency: 0.7
Mode: 1
LetterboxInBreaks: 0
WidescreenStoryboard: 1

[Editor]
DistanceSpacing: 1
BeatDivisor: 4
GridSize: 4
TimelineZoom: 1.8

[Metadata]
Title:Silver Wind
TitleUnicode:銀の風
Artist:wa. remixed celas
ArtistUnicode:wa. remixed celas
Creator:Charlotte
Version:Oni
Source:BMS
Tags:qoot8123 BMS Battle Regulation A
BeatmapID:1173534
BeatmapSetID:551271

[Difficulty]
HPDrainRate:6
CircleSize:5
OverallDifficulty:5.5
ApproachRate:5
SliderMultiplier:1.4
SliderTickRate:1

[Events]
//Background and Video events
0,0,"BG3.jpg",0,60
//Break Periods
//Storyboard Layer 0 (Background)
//Storyboard Layer 1 (Fail)
//Storyboard Layer 2 (Pass)
//Storyboard Layer 3 (Foreground)
//Storyboard Sound Samples

[TimingPoints]
1375,342.857142857143,4,1,0,80,1,0
58632,342.857142857143,4,1,0,90,1,1
102517,-100,4,1,0,90,0,0

[HitObjects]
256,192,2403,5,8,0:0:0:0:
256,192,2746,1,4,0:0:0:0:
256,192,3089,1,0,0:0:0:0:
256,192,3432,1,8,0:0:0:0:
256,192,3603,1,8,0:0:0:0:
256,192,3775,1,0,0:0:0:0:
256,192,3946,1,0,0:0:0:0:
256,192,4117,1,8,0:0:0:0:
256,192,4460,1,0,0:0:0:0:
256,192,4803,1,8,0:0:0:0:
256,192,5146,1,0,0:0:0:0:
256,192,5489,1,0,0:0:0:0:
256,192,5832,1,0,0:0:0:0:
256,192,6175,1,0,0:0:0:0:
256,192,6346,1,0,0:0:0:0:
256,192,6517,1,8,0:0:0:0:
256,192,6689,1,8,0:0:0:0:
256,192,6860,1,0,0:0:0:0:
256,192,7203,1,0,0:0:0:0:
256,192,7546,1,8,0:0:0:0:
256,192,7717,1,0,0:0:0:0:
256,192,7889,1,8,0:0:0:0:
256,192,8060,1,8,0:0:0:0:
256,192,8232,1,0,0:0:0:0:
256,192,8575,1,0,0:0:0:0:
256,192,8917,1,8,0:0:0:0:
256,192,9260,1,0,0:0:0:0:
256,192,9603,1,8,0:0:0:0:
256,192,9946,1,0,0:0:0:0:
256,192,10289,1,8,0:0:0:0:
256,192,10632,1,8,0:0:0:0:
256,192,10975,1,0,0:0:0:0:
256,192,11317,1,8,0:0:0:0:
256,192,11489,1,0,0:0:0:0:
256,192,11832,1,0,0:0:0:0:
256,192,12003,1,8,0:0:0:0:
256,192,12175,1,8,0:0:0:0:
256,192,12346,1,0,0:0:0:0:
256,192,12603,1,0,0:0:0:0:
256,192,12860,1,0,0:0:0:0:
256,192,13032,1,8,0:0:0:0:
256,192,13117,1,0,0:0:0:0:
256,192,13203,1,8,0:0:0:0:
256,192,13375,1,0,0:0:0:0:
256,192,13460,1,0,0:0:0:0:
256,192,13546,1,8,0:0:0:0:
256,192,13717,1,4,0:0:0:0:
256,192,14060,1,8,0:0:0:0:
256,192,14232,1,0,0:0:0:0:
256,192,14317,1,0,0:0:0:0:
256,192,14403,1,8,0:0:0:0:
256,192,14575,1,0,0:0:0:0:
256,192,14746,1,8,0:0:0:0:
256,192,14917,1,0,0:0:0:0:
256,192,15089,1,8,0:0:0:0:
256,192,15432,1,0,0:0:0:0:
256,192,15603,1,0,0:0:0:0:
256,192,15775,1,8,0:0:0:0:
256,192,16117,1,0,0:0:0:0:
256,192,16289,1,8,0:0:0:0:
256,192,16460,1,0,0:0:0:0:
256,192,16803,1,8,0:0:0:0:
256,192,16975,1,0,0:0:0:0:
256,192,17060,1,0,0:0:0:0:
256,192,17146,1,8,0:0:0:0:
256,192,17317,1,0,0:0:0:0:
256,192,17489,1,8,0:0:0:0:
256,192,17660,1,0,0:0:0:0:
256,192,17832,1,8,0:0:0:0:
256,192,18175,1,0,0:0:0:0:
256,192,18346,1,0,0:0:0:0:
256,192,18517,1,8,0:0:0:0:
256,192,18689,1,8,0:0:0:0:
256,192,18775,1,8,0:0:0:0:
256,192,18860,1,8,0:0:0:0:
256,192,19032,1,8,0:0:0:0:
256,192,19203,1,0,0:0:0:0:
256,192,19546,1,8,0:0:0:0:
256,192,19889,1,0,0:0:0:0:
256,192,20060,1,0,0:0:0:0:
256,192,20232,1,8,0:0:0:0:
256,192,20575,1,8,0:0:0:0:
256,192,20746,1,8,0:0:0:0:
256,192,20917,1,0,0:0:0:0:
256,192,21089,1,8,0:0:0:0:
256,192,21260,1,0,0:0:0:0:
256,192,21603,1,8,0:0:0:0:
256,192,21775,1,8,0:0:0:0:
256,192,21946,1,0,0:0:0:0:
256,192,22289,1,8,0:0:0:0:
256,192,22460,1,0,0:0:0:0:
256,192,22803,1,0,0:0:0:0:
256,192,22975,1,8,0:0:0:0:
256,192,23146,1,8,0:0:0:0:
256,192,23317,1,0,0:0:0:0:
256,192,23660,1,8,0:0:0:0:
256,192,23832,1,0,0:0:0:0:
256,192,24003,1,8,0:0:0:0:
256,192,24175,1,0,0:0:0:0:
256,192,24260,1,0,0:0:0:0:
256,192,24346,1,8,0:0:0:0:
256,192,24517,1,8,0:0:0:0:
256,192,24689,1,4,0:0:0:0:
256,192,25032,1,8,0:0:0:0:
256,192,25203,1,0,0:0:0:0:
256,192,25289,1,0,0:0:0:0:
256,192,25375,1,8,0:0:0:0:
256,192,25546,1,0,0:0:0:0:
256,192,25717,1,8,0:0:0:0:
256,192,25803,1,8,0:0:0:0:
256,192,25889,1,8,0:0:0:0:
256,192,26060,1,0,0:0:0:0:
256,192,26403,1,0,0:0:0:0:
256,192,26575,1,0,0:0:0:0:
256,192,26660,1,0,0:0:0:0:
256,192,26746,1,8,0:0:0:0:
256,192,26917,1,0,0:0:0:0:
256,192,27089,1,8,0:0:0:0:
256,192,27260,1,8,0:0:0:0:
256,192,27432,1,0,0:0:0:0:
256,192,27603,1,8,0:0:0:0:
256,192,27689,1,8,0:0:0:0:
256,192,27775,1,0,0:0:0:0:
256,192,27946,1,8,0:0:0:0:
256,192,28117,1,8,0:0:0:0:
256,192,28203,1,0,0:0:0:0:
256,192,28289,1,8,0:0:0:0:
256,192,28375,1,8,0:0:0:0:
256,192,28460,1,0,0:0:0:0:
256,192,28632,1,8,0:0:0:0:
256,192,28803,1,8,0:0:0:0:
256,192,28889,1,8,0:0:0:0:
256,192,28975,1,0,0:0:0:0:
256,192,29146,1,8,0:0:0:0:
256,192,29317,1,0,0:0:0:0:
256,192,29489,1,0,0:0:0:0:
256,192,29575,1,8,0:0:0:0:
256,192,29660,1,8,0:0:0:0:
256,192,29832,1,8,0:0:0:0:
256,192,29917,1,8,0:0:0:0:
256,192,30003,1,0,0:0:0:0:
256,192,30175,1,12,0:0:0:0:
256,192,30346,1,0,0:0:0:0:
256,192,30432,1,0,0:0:0:0:
256,192,30517,1,8,0:0:0:0:
256,192,30689,1,0,0:0:0:0:
256,192,30860,1,8,0:0:0:0:
256,192,31203,1,8,0:0:0:0:
256,192,31375,1,8,0:0:0:0:
256,192,31546,1,0,0:0:0:0:
256,192,31717,1,8,0:0:0:0:
256,192,31889,1,0,0:0:0:0:
256,192,32060,1,0,0:0:0:0:
256,192,32146,1,0,0:0:0:0:
256,192,32232,1,8,0:0:0:0:
256,192,32403,1,8,0:0:0:0:
256,192,32575,1,0,0:0:0:0:
256,192,32917,1,12,0:0:0:0:
256,192,33089,1,0,0:0:0:0:
256,192,33175,1,0,0:0:0:0:
256,192,33260,1,0,0:0:0:0:
256,192,33432,1,8,0:0:0:0:
256,192,33603,1,0,0:0:0:0:
256,192,33775,1,8,0:0:0:0:
256,192,33860,1,8,0:0:0:0:
256,192,33946,1,0,0:0:0:0:
256,192,34032,1,8,0:0:0:0:
256,192,34117,1,0,0:0:0:0:
256,192,34289,1,8,0:0:0:0:
256,192,34460,1,0,0:0:0:0:
256,192,34546,1,8,0:0:0:0:
256,192,34632,1,0,0:0:0:0:
256,192,34803,1,8,0:0:0:0:
256,192,34975,1,0,0:0:0:0:
256,192,35060,1,0,0:0:0:0:
256,192,35146,1,8,0:0:0:0:
256,192,35317,1,0,0:0:0:0:
256,192,35403,1,8,0:0:0:0:
256,192,35489,1,8,0:0:0:0:
256,192,35660,1,4,0:0:0:0:
256,192,36003,1,8,0:0:0:0:
256,192,36175,1,0,0:0:0:0:
256,192,36346,1,0,0:0:0:0:
256,192,36517,1,8,0:0:0:0:
256,192,36689,1,0,0:0:0:0:
256,192,37032,1,0,0:0:0:0:
256,192,37203,1,8,0:0:0:0:
256,192,37375,1,0,0:0:0:0:
256,192,37717,1,8,0:0:0:0:
256,192,37889,1,8,0:0:0:0:
256,192,38060,1,0,0:0:0:0:
256,192,38403,1,0,0:0:0:0:
256,192,38746,1,8,0:0:0:0:
256,192,38917,1,0,0:0:0:0:
256,192,39089,1,0,0:0:0:0:
256,192,39260,1,8,0:0:0:0:
256,192,39432,1,0,0:0:0:0:
256,192,39775,1,0,0:0:0:0:
256,192,39946,1,8,0:0:0:0:
256,192,40117,1,0,0:0:0:0:
256,192,40460,1,8,0:0:0:0:
256,192,40632,1,8,0:0:0:0:
256,192,40803,1,0,0:0:0:0:
256,192,40889,1,0,0:0:0:0:
256,192,40975,1,8,0:0:0:0:
256,192,41146,1,0,0:0:0:0:
256,192,41317,1,8,0:0:0:0:
256,192,41489,1,0,0:0:0:0:
256,192,41832,1,8,0:0:0:0:
256,192,42003,1,8,0:0:0:0:
256,192,42175,1,0,0:0:0:0:
256,192,42517,1,0,0:0:0:0:
256,192,42689,1,8,0:0:0:0:
256,192,42860,1,0,0:0:0:0:
256,192,43032,1,0,0:0:0:0:
256,192,43203,1,8,0:0:0:0:
256,192,43375,1,8,0:0:0:0:
256,192,43546,1,0,0:0:0:0:
256,192,43889,1,0,0:0:0:0:
256,192,44060,1,8,0:0:0:0:
256,192,44232,1,0,0:0:0:0:
256,192,44575,1,8,0:0:0:0:
256,192,44746,1,8,0:0:0:0:
256,192,44917,1,0,0:0:0:0:
256,192,45260,1,0,0:0:0:0:
256,192,45432,1,8,0:0:0:0:
256,192,45603,1,0,0:0:0:0:
256,192,45775,1,0,0:0:0:0:
256,192,45946,1,8,0:0:0:0:
256,192,46117,1,8,0:0:0:0:
256,192,46203,1,8,0:0:0:0:
256,192,46289,1,0,0:0:0:0:
256,192,46460,1,8,0:0:0:0:
256,192,46632,1,4,0:0:0:0:
256,192,46803,1,8,0:0:0:0:
256,192,46975,1,0,0:0:0:0:
256,192,47060,1,8,0:0:0:0:
256,192,47317,1,8,0:0:0:0:
256,192,47489,1,8,0:0:0:0:
256,192,47660,1,0,0:0:0:0:
256,192,48003,1,8,0:0:0:0:
256,192,48175,1,8,0:0:0:0:
256,192,48346,1,0,0:0:0:0:
256,192,48432,1,8,0:0:0:0:
256,192,48689,1,0,0:0:0:0:
256,192,48860,1,8,0:0:0:0:
256,192,49032,1,0,0:0:0:0:
256,192,49117,1,0,0:0:0:0:
256,192,49203,1,8,0:0:0:0:
256,192,49375,1,0,0:0:0:0:
256,192,49546,1,8,0:0:0:0:
256,192,49717,1,0,0:0:0:0:
256,192,49803,1,8,0:0:0:0:
256,192,50060,1,8,0:0:0:0:
256,192,50232,1,8,0:0:0:0:
256,192,50403,1,0,0:0:0:0:
256,192,50746,1,8,0:0:0:0:
256,192,50917,1,8,0:0:0:0:
256,192,51089,1,0,0:0:0:0:
256,192,51175,1,8,0:0:0:0:
256,192,51432,1,0,0:0:0:0:
256,192,51603,1,8,0:0:0:0:
256,192,51775,1,0,0:0:0:0:
256,192,51860,1,0,0:0:0:0:
256,192,51946,1,8,0:0:0:0:
256,192,52117,1,4,0:0:0:0:
256,192,52289,1,8,0:0:0:0:
256,192,52460,1,0,0:0:0:0:
256,192,52546,1,8,0:0:0:0:
256,192,52803,1,0,0:0:0:0:
256,192,52975,1,8,0:0:0:0:
256,192,53146,1,0,0:0:0:0:
256,192,53232,1,0,0:0:0:0:
256,192,53317,1,8,0:0:0:0:
256,192,53489,1,4,0:0:0:0:
256,192,53660,1,8,0:0:0:0:
256,192,53832,1,0,0:0:0:0:
256,192,53917,1,8,0:0:0:0:
256,192,54175,1,8,0:0:0:0:
256,192,54346,1,0,0:0:0:0:
256,192,54517,1,8,0:0:0:0:
256,192,54603,1,8,0:0:0:0:
256,192,54689,1,0,0:0:0:0:
256,192,54860,1,4,0:0:0:0:
256,192,55032,1,8,0:0:0:0:
256,192,55203,1,0,0:0:0:0:
256,192,55289,1,0,0:0:0:0:
256,192,55375,1,8,0:0:0:0:
256,192,55546,1,4,0:0:0:0:
256,192,55717,1,8,0:0:0:0:
256,192,55889,1,0,0:0:0:0:
256,192,55975,1,0,0:0:0:0:
256,192,56060,1,8,0:0:0:0:
256,192,56232,1,4,0:0:0:0:
256,192,56403,1,8,0:0:0:0:
256,192,56489,1,8,0:0:0:0:
256,192,56575,1,0,0:0:0:0:
256,192,56660,1,8,0:0:0:0:
256,192,56746,1,0,0:0:0:0:
256,192,56917,1,8,0:0:0:0:
256,192,57089,1,0,0:0:0:0:
256,192,57175,1,8,0:0:0:0:
256,192,57260,1,0,0:0:0:0:
256,192,57346,1,0,0:0:0:0:
256,192,57432,1,8,0:0:0:0:
256,192,57603,1,0,0:0:0:0:
256,192,58632,1,4,0:0:0:0:
256,192,58803,1,0,0:0:0:0:
256,192,58889,1,0,0:0:0:0:
256,192,58974,1,8,0:0:0:0:
256,192,59146,1,0,0:0:0:0:
256,192,59317,1,8,0:0:0:0:
256,192,59403,1,8,0:0:0:0:
256,192,59489,1,0,0:0:0:0:
256,192,59660,1,8,0:0:0:0:
256,192,60003,1,8,0:0:0:0:
256,192,60174,1,0,0:0:0:0:
256,192,60260,1,0,0:0:0:0:
256,192,60346,1,8,0:0:0:0:
256,192,60517,1,0,0:0:0:0:
256,192,60689,1,8,0:0:0:0:
256,192,60774,1,0,0:0:0:0:
256,192,60946,1,0,0:0:0:0:
256,192,61032,1,8,0:0:0:0:
256,192,61203,1,0,0:0:0:0:
256,192,61374,1,8,0:0:0:0:
256,192,61546,1,0,0:0:0:0:
256,192,61632,1,0,0:0:0:0:
256,192,61717,1,8,0:0:0:0:
256,192,61889,1,0,0:0:0:0:
256,192,62060,1,8,0:0:0:0:
256,192,62146,1,8,0:0:0:0:
256,192,62232,1,0,0:0:0:0:
256,192,62403,1,8,0:0:0:0:
256,192,62746,1,8,0:0:0:0:
256,192,62917,1,0,0:0:0:0:
256,192,63003,1,0,0:0:0:0:
256,192,63089,1,8,0:0:0:0:
256,192,63260,1,0,0:0:0:0:
256,192,63432,1,8,0:0:0:0:
256,192,63517,1,0,0:0:0:0:
256,192,63689,1,0,0:0:0:0:
256,192,63774,1,8,0:0:0:0:
256,192,63946,1,0,0:0:0:0:
256,192,64117,1,8,0:0:0:0:
256,192,64460,1,8,0:0:0:0:
256,192,64632,1,0,0:0:0:0:
256,192,64803,1,8,0:0:0:0:
256,192,64974,1,0,0:0:0:0:
256,192,65060,1,0,0:0:0:0:
256,192,65146,1,8,0:0:0:0:
256,192,65232,1,8,0:0:0:0:
256,192,65317,1,0,0:0:0:0:
256,192,65489,1,8,0:0:0:0:
256,192,65660,1,0,0:0:0:0:
256,192,65746,1,8,0:0:0:0:
256,192,65832,1,0,0:0:0:0:
256,192,66003,1,0,0:0:0:0:
256,192,66174,1,8,0:0:0:0:
256,192,66346,1,0,0:0:0:0:
256,192,66689,1,8,0:0:0:0:
256,192,66860,1,0,0:0:0:0:
256,192,67032,1,8,0:0:0:0:
256,192,67203,1,0,0:0:0:0:
256,192,67289,1,8,0:0:0:0:
256,192,67374,1,0,0:0:0:0:
256,192,67546,1,8,0:0:0:0:
256,192,67632,1,0,0:0:0:0:
256,192,67717,1,8,0:0:0:0:
256,192,67803,1,8,0:0:0:0:
256,192,67889,1,0,0:0:0:0:
256,192,68060,1,0,0:0:0:0:
256,192,68146,1,0,0:0:0:0:
256,192,68232,1,8,0:0:0:0:
256,192,68403,1,8,0:0:0:0:
256,192,68574,1,0,0:0:0:0:
256,192,68746,1,8,0:0:0:0:
256,192,68832,1,8,0:0:0:0:
256,192,68917,1,0,0:0:0:0:
256,192,69089,1,0,0:0:0:0:
256,192,69174,1,0,0:0:0:0:
256,192,69260,1,8,0:0:0:0:
256,192,69346,1,0,0:0:0:0:
256,192,69432,1,8,0:0:0:0:
256,192,69603,1,4,0:0:0:0:
256,192,69774,1,0,0:0:0:0:
256,192,69860,1,0,0:0:0:0:
256,192,69946,1,8,0:0:0:0:
256,192,70117,1,8,0:0:0:0:
256,192,70289,1,0,0:0:0:0:
256,192,70374,1,8,0:0:0:0:
256,192,70546,1,8,0:0:0:0:
256,192,70632,1,0,0:0:0:0:
256,192,70974,1,0,0:0:0:0:
256,192,71146,1,0,0:0:0:0:
256,192,71232,1,0,0:0:0:0:
256,192,71317,1,8,0:0:0:0:
256,192,71403,1,0,0:0:0:0:
256,192,71574,1,0,0:0:0:0:
256,192,71660,1,8,0:0:0:0:
256,192,71832,1,0,0:0:0:0:
256,192,71917,1,0,0:0:0:0:
256,192,72003,1,8,0:0:0:0:
256,192,72174,1,0,0:0:0:0:
256,192,72346,1,8,0:0:0:0:
256,192,72517,1,0,0:0:0:0:
256,192,72603,1,0,0:0:0:0:
256,192,72689,1,8,0:0:0:0:
256,192,72860,1,8,0:0:0:0:
256,192,73032,1,0,0:0:0:0:
256,192,73117,1,8,0:0:0:0:
256,192,73289,1,8,0:0:0:0:
256,192,73374,1,0,0:0:0:0:
256,192,73717,1,0,0:0:0:0:
256,192,73889,1,0,0:0:0:0:
256,192,73974,1,0,0:0:0:0:
256,192,74060,1,8,0:0:0:0:
256,192,74146,1,0,0:0:0:0:
256,192,74317,1,0,0:0:0:0:
256,192,74403,1,8,0:0:0:0:
256,192,74574,1,8,0:0:0:0:
256,192,74660,1,0,0:0:0:0:
256,192,74746,1,8,0:0:0:0:
256,192,74917,1,0,0:0:0:0:
256,192,75089,1,8,0:0:0:0:
256,192,75432,1,8,0:0:0:0:
256,192,75603,1,8,0:0:0:0:
256,192,75774,1,0,0:0:0:0:
256,192,75946,1,8,0:0:0:0:
256,192,76032,1,8,0:0:0:0:
256,192,76117,1,0,0:0:0:0:
256,192,76289,1,8,0:0:0:0:
256,192,76460,1,0,0:0:0:0:
256,192,76632,1,0,0:0:0:0:
256,192,76717,1,0,0:0:0:0:
256,192,76803,1,8,0:0:0:0:
256,192,76974,1,8,0:0:0:0:
256,192,77146,1,0,0:0:0:0:
256,192,77317,1,8,0:0:0:0:
256,192,77403,1,8,0:0:0:0:
256,192,77489,1,0,0:0:0:0:
256,192,77660,1,8,0:0:0:0:
256,192,77832,1,0,0:0:0:0:
256,192,78003,1,8,0:0:0:0:
256,192,78174,1,8,0:0:0:0:
256,192,78260,1,8,0:0:0:0:
256,192,78346,1,0,0:0:0:0:
256,192,78517,1,8,0:0:0:0:
256,192,78603,1,0,0:0:0:0:
256,192,78689,1,8,0:0:0:0:
256,192,78774,1,8,0:0:0:0:
256,192,78860,1,0,0:0:0:0:
256,192,79032,1,8,0:0:0:0:
256,192,79203,1,0,0:0:0:0:
256,192,79289,1,0,0:0:0:0:
256,192,79374,1,8,0:0:0:0:
256,192,79460,1,8,0:0:0:0:
256,192,79546,1,0,0:0:0:0:
256,192,79717,1,8,0:0:0:0:
256,192,79889,1,0,0:0:0:0:
256,192,79974,1,0,0:0:0:0:
256,192,80060,1,0,0:0:0:0:
256,192,80232,1,8,0:0:0:0:
256,192,80574,1,0,0:0:0:0:
256,192,80746,1,0,0:0:0:0:
256,192,80832,1,8,0:0:0:0:
256,192,81003,1,0,0:0:0:0:
256,192,81089,1,8,0:0:0:0:
256,192,81260,1,8,0:0:0:0:
256,192,81432,1,8,0:0:0:0:
256,192,81517,1,8,0:0:0:0:
256,192,81603,1,0,0:0:0:0:
256,192,81946,1,0,0:0:0:0:
256,192,82117,1,0,0:0:0:0:
256,192,82203,1,8,0:0:0:0:
256,192,82374,1,0,0:0:0:0:
256,192,82460,1,8,0:0:0:0:
256,192,82632,1,8,0:0:0:0:
256,192,82717,1,0,0:0:0:0:
256,192,82803,1,0,0:0:0:0:
256,192,82889,1,8,0:0:0:0:
256,192,83060,1,0,0:0:0:0:
256,192,83146,1,8,0:0:0:0:
256,192,83317,1,0,0:0:0:0:
256,192,83489,1,0,0:0:0:0:
256,192,83574,1,8,0:0:0:0:
256,192,83746,1,0,0:0:0:0:
256,192,83832,1,8,0:0:0:0:
256,192,84003,1,8,0:0:0:0:
256,192,84174,1,8,0:0:0:0:
256,192,84260,1,8,0:0:0:0:
256,192,84346,1,0,0:0:0:0:
256,192,84689,1,0,0:0:0:0:
256,192,84860,1,0,0:0:0:0:
256,192,84946,1,8,0:0:0:0:
256,192,85117,1,0,0:0:0:0:
256,192,85203,1,8,0:0:0:0:
256,192,85374,1,8,0:0:0:0:
256,192,85460,1,0,0:0:0:0:
256,192,85546,1,0,0:0:0:0:
256,192,85632,1,8,0:0:0:0:
256,192,85717,1,0,0:0:0:0:
256,192,85889,1,8,0:0:0:0:
256,192,86060,1,0,0:0:0:0:
256,192,86232,1,0,0:0:0:0:
256,192,86317,1,8,0:0:0:0:
256,192,86489,1,0,0:0:0:0:
256,192,86574,1,8,0:0:0:0:
256,192,86746,1,8,0:0:0:0:
256,192,86917,1,8,0:0:0:0:
256,192,87003,1,8,0:0:0:0:
256,192,87089,1,0,0:0:0:0:
256,192,87432,1,0,0:0:0:0:
256,192,87603,1,8,0:0:0:0:
256,192,87774,1,0,0:0:0:0:
256,192,87946,1,8,0:0:0:0:
256,192,88032,1,8,0:0:0:0:
256,192,88117,1,0,0:0:0:0:
256,192,88289,1,8,0:0:0:0:
256,192,88460,1,0,0:0:0:0:
256,192,88803,1,0,0:0:0:0:
256,192,88974,1,0,0:0:0:0:
256,192,89060,1,8,0:0:0:0:
256,192,89232,1,0,0:0:0:0:
256,192,89317,1,8,0:0:0:0:
256,192,89489,1,8,0:0:0:0:
256,192,89574,1,0,0:0:0:0:
256,192,89746,1,8,0:0:0:0:
256,192,89917,1,0,0:0:0:0:
256,192,90003,1,8,0:0:0:0:
256,192,90174,1,8,0:0:0:0:
256,192,90260,1,8,0:0:0:0:
256,192,90346,1,8,0:0:0:0:
256,192,90432,1,8,0:0:0:0:
256,192,90517,1,0,0:0:0:0:
256,192,90689,1,8,0:0:0:0:
256,192,90860,1,8,0:0:0:0:
256,192,90946,1,8,0:0:0:0:
256,192,91032,1,0,0:0:0:0:
256,192,91117,1,0,0:0:0:0:
256,192,91203,1,8,0:0:0:0:
256,192,91374,1,0,0:0:0:0:
256,192,91546,1,8,0:0:0:0:
256,192,91717,1,0,0:0:0:0:
256,192,91803,1,8,0:0:0:0:
256,192,91974,1,0,0:0:0:0:
256,192,92060,1,8,0:0:0:0:
256,192,92232,1,8,0:0:0:0:
256,192,92403,1,8,0:0:0:0:
256,192,92489,1,8,0:0:0:0:
256,192,92574,1,0,0:0:0:0:
256,192,92917,1,0,0:0:0:0:
256,192,93089,1,0,0:0:0:0:
256,192,93174,1,8,0:0:0:0:
256,192,93346,1,0,0:0:0:0:
256,192,93432,1,8,0:0:0:0:
256,192,93603,1,8,0:0:0:0:
256,192,93689,1,0,0:0:0:0:
256,192,93774,1,0,0:0:0:0:
256,192,93860,1,8,0:0:0:0:
256,192,94032,1,0,0:0:0:0:
256,192,94117,1,8,0:0:0:0:
256,192,94289,1,0,0:0:0:0:
256,192,94460,1,0,0:0:0:0:
256,192,94546,1,8,0:0:0:0:
256,192,94717,1,0,0:0:0:0:
256,192,94803,1,8,0:0:0:0:
256,192,94974,1,8,0:0:0:0:
256,192,95146,1,8,0:0:0:0:
256,192,95232,1,8,0:0:0:0:
256,192,95403,1,0,0:0:0:0:
256,192,95489,1,8,0:0:0:0:
256,192,95660,1,8,0:0:0:0:
256,192,95832,1,8,0:0:0:0:
256,192,95917,1,8,0:0:0:0:
256,192,96089,1,0,0:0:0:0:
256,192,96174,1,8,0:0:0:0:
256,192,96346,1,8,0:0:0:0:
256,192,96517,1,8,0:0:0:0:
256,192,96603,1,8,0:0:0:0:
256,192,96774,1,8,0:0:0:0:
256,192,96860,1,8,0:0:0:0:
256,192,97032,1,0,0:0:0:0:
256,192,97203,1,0,0:0:0:0:
256,192,97289,1,8,0:0:0:0:
256,192,97460,1,0,0:0:0:0:
256,192,97546,1,8,0:0:0:0:
256,192,97717,1,8,0:0:0:0:
256,192,97889,1,8,0:0:0:0:
256,192,97974,1,8,0:0:0:0:
256,192,98060,1,0,0:0:0:0:
256,192,98403,1,0,0:0:0:0:
256,192,98574,1,0,0:0:0:0:
256,192,98660,1,8,0:0:0:0:
256,192,98832,1,0,0:0:0:0:
256,192,98917,1,8,0:0:0:0:
256,192,99089,1,8,0:0:0:0:
256,192,99174,1,0,0:0:0:0:
256,192,99260,1,8,0:0:0:0:
256,192,99346,1,8,0:0:0:0:
256,192,99432,1,0,0:0:0:0:
256,192,99603,1,8,0:0:0:0:
256,192,99774,1,0,0:0:0:0:
256,192,99946,1,0,0:0:0:0:
256,192,100117,1,8,0:0:0:0:
256,192,100289,1,0,0:0:0:0:
256,192,100460,1,0,0:0:0:0:
256,192,100632,1,0,0:0:0:0:
256,192,100803,1,8,0:0:0:0:
256,192,100974,1,0,0:0:0:0:
256,192,101060,1,0,0:0:0:0:
256,192,101146,1,8,0:0:0:0:
256,192,101317,1,8,0:0:0:0:
256,192,101403,1,8,0:0:0:0:
256,192,101489,1,0,0:0:0:0:
256,192,101660,1,0,0:0:0:0:
256,192,101746,1,0,0:0:0:0:
256,192,101832,1,8,0:0:0:0:
256,192,101917,1,0,0:0:0:0:
256,192,102003,1,8,0:0:0:0:
256,192,102089,1,8,0:0:0:0:
256,192,102174,1,0,0:0:0:0:
256,192,102346,1,8,0:0:0:0:
256,192,102517,1,4,0:0:0:0:
