osu file format v14

[General]
AudioFilename: wa. remixed celas - Gin no Kaze.mp3
AudioLeadIn: 0
PreviewTime: 54856
Countdown: 0
SampleSet: Soft
StackLeniency: 0.7
Mode: 3
LetterboxInBreaks: 0
SpecialStyle: 0
WidescreenStoryboard: 1

[Editor]
DistanceSpacing: 1
BeatDivisor: 4
GridSize: 4
TimelineZoom: 1

[Metadata]
Title:Gin no Kaze
TitleUnicode:銀の風
Artist:wa. remixed celas
ArtistUnicode:wa. remixed celas
Creator:Marirose
Version:4K Hyper
Source:BMS
Tags:Silver Wind hard nrg TOHRU MiTSUHASHi
BeatmapID:752777
BeatmapSetID:340297

[Difficulty]
HPDrainRate:8
CircleSize:4
OverallDifficulty:8
ApproachRate:5
SliderMultiplier:1.4
SliderTickRate:1

[Events]
//Background and Video events
0,0,"BG.jpg",0,0
Video,0,"BGA.avi"
//Break Periods
//Storyboard Layer 0 (Background)
//Storyboard Layer 1 (Fail)
//Storyboard Layer 2 (Pass)
//Storyboard Layer 3 (Foreground)
//Storyboard Sound Samples

[TimingPoints]
2742,342.857142857143,4,2,1,30,1,0
58627,342.857142857143,4,2,1,30,1,1
58627,-100,4,2,1,30,0,1
79198,-100,4,2,1,30,0,0
80569,-100,4,2,1,30,0,1
102855,-100,4,2,1,30,0,0

[HitObjects]
448,192,2399,128,0,2741:0:0:0:0:
64,192,2741,1,2,0:0:0:0:
320,192,2741,1,0,0:0:0:0:
448,192,3084,1,8,0:0:0:0:
64,192,3084,1,2,0:0:0:0:
192,192,3084,1,0,0:0:0:0:
448,192,3427,1,2,0:0:0:0:
64,192,3427,1,0,0:0:0:0:
320,192,3599,1,0,0:0:0:0:
192,192,3770,1,2,0:0:0:0:
64,192,3942,1,0,0:0:0:0:
448,192,4113,1,2,0:0:0:0:
320,192,4113,1,0,0:0:0:0:
320,192,4456,1,2,0:0:0:0:
448,192,4799,1,0,0:0:0:0:
64,192,4799,1,2,0:0:0:0:
448,192,5142,1,2,0:0:0:0:
192,192,5484,1,0,0:0:0:0:
64,192,5484,1,2,0:0:0:0:
192,192,5827,1,2,0:0:0:0:
320,192,6170,1,0,0:0:0:0:
64,192,6170,1,2,0:0:0:0:
192,192,6342,1,0,0:0:0:0:
320,192,6513,1,2,0:0:0:0:
448,192,6684,1,0,0:0:0:0:
64,192,6856,1,2,0:0:0:0:
192,192,6856,1,0,0:0:0:0:
64,192,7199,1,2,0:0:0:0:
448,192,7542,1,0,0:0:0:0:
192,192,7542,1,2,0:0:0:0:
320,192,7713,1,0,0:0:0:0:
192,192,7884,1,2,0:0:0:0:
64,192,8056,1,0,0:0:0:0:
448,192,8227,1,2,0:0:0:0:
320,192,8227,1,0,0:0:0:0:
320,192,8570,1,2,0:0:0:0:
192,192,8913,1,0,0:0:0:0:
448,192,8913,1,2,0:0:0:0:
320,192,9256,1,2,0:0:0:0:
192,192,9256,1,0,0:0:0:0:
320,192,9599,1,2,0:0:0:0:
64,192,9599,1,0,0:0:0:0:
192,192,9942,1,2,0:0:0:0:
64,192,9942,1,0,0:0:0:0:
448,192,10284,1,2,0:0:0:0:
320,192,10284,1,0,0:0:0:0:
192,192,10627,1,0,0:0:0:0:
448,192,10627,1,2,0:0:0:0:
64,192,10970,1,2,0:0:0:0:
448,192,10970,1,0,0:0:0:0:
192,192,11313,1,2,0:0:0:0:
448,192,11484,1,0,0:0:0:0:
320,192,11484,1,0,0:0:0:0:
64,192,11656,1,2,0:0:0:0:
64,192,11999,1,2,0:0:0:0:
320,192,11999,1,0,0:0:0:0:
448,192,12342,1,2,0:0:0:0:
192,192,12342,1,0,0:0:0:0:
320,192,12599,1,0,0:0:0:0:
64,192,12599,1,2,0:0:0:0:
448,192,12856,1,2,0:0:0:0:
320,192,12856,1,0,0:0:0:0:
192,192,13113,1,0,0:0:0:0:
64,192,13113,1,2,0:0:0:0:
320,192,13370,1,0,0:0:0:0:
64,192,13370,1,2,0:0:0:0:
192,192,13542,1,2,0:0:0:0:
448,192,13542,1,0,0:0:0:0:
320,192,13713,1,0,0:0:0:0:
64,192,13713,1,6,0:0:0:0:
448,192,13884,1,0,0:0:0:0:
448,192,14056,1,2,0:0:0:0:
192,192,14056,1,8,0:0:0:0:
64,192,14056,1,0,0:0:0:0:
320,192,14227,1,0,0:0:0:0:
448,192,14399,1,0,0:0:0:0:
64,192,14399,1,2,0:0:0:0:
320,192,14570,1,0,0:0:0:0:
192,192,14742,1,10,0:0:0:0:
64,192,14913,1,0,0:0:0:0:
320,192,15084,1,0,0:0:0:0:
448,192,15084,1,2,0:0:0:0:
192,192,15256,1,0,0:0:0:0:
64,192,15427,1,10,0:0:0:0:
320,192,15427,1,0,0:0:0:0:
192,192,15599,1,0,0:0:0:0:
320,192,15770,1,2,0:0:0:0:
64,192,15770,1,0,0:0:0:0:
192,192,15942,1,0,0:0:0:0:
320,192,16113,1,0,0:0:0:0:
448,192,16113,1,10,0:0:0:0:
64,192,16284,1,0,0:0:0:0:
448,192,16456,1,2,0:0:0:0:
192,192,16456,1,0,0:0:0:0:
320,192,16627,1,0,0:0:0:0:
64,192,16799,1,10,0:0:0:0:
192,192,16799,1,0,0:0:0:0:
320,192,16970,1,0,0:0:0:0:
448,192,17142,1,0,0:0:0:0:
64,192,17142,1,2,0:0:0:0:
320,192,17313,1,0,0:0:0:0:
192,192,17484,1,10,0:0:0:0:
64,192,17656,1,0,0:0:0:0:
448,192,17827,1,2,0:0:0:0:
320,192,17827,1,0,0:0:0:0:
192,192,17999,1,0,0:0:0:0:
64,192,18170,1,10,0:0:0:0:
320,192,18170,1,0,0:0:0:0:
192,192,18342,1,0,0:0:0:0:
448,192,18513,1,2,0:0:0:0:
64,192,18513,1,0,0:0:0:0:
192,192,18684,1,0,0:0:0:0:
320,192,18856,1,10,0:0:0:0:
448,192,19027,1,0,0:0:0:0:
192,192,19199,1,2,0:0:0:0:
64,192,19199,1,0,0:0:0:0:
320,192,19370,1,0,0:0:0:0:
448,192,19542,1,10,0:0:0:0:
192,192,19542,1,0,0:0:0:0:
320,192,19713,1,0,0:0:0:0:
192,192,19884,1,2,0:0:0:0:
64,192,19884,1,0,0:0:0:0:
448,192,20056,1,0,0:0:0:0:
64,192,20227,1,0,0:0:0:0:
320,192,20227,1,10,0:0:0:0:
192,192,20399,1,0,0:0:0:0:
448,192,20570,1,2,0:0:0:0:
64,192,20570,1,0,0:0:0:0:
320,192,20742,1,0,0:0:0:0:
448,192,20913,1,10,0:0:0:0:
192,192,20913,1,0,0:0:0:0:
64,192,21084,1,0,0:0:0:0:
448,192,21256,1,2,0:0:0:0:
320,192,21256,1,0,0:0:0:0:
320,192,21427,1,0,0:0:0:0:
192,192,21599,1,10,0:0:0:0:
64,192,21599,1,0,0:0:0:0:
192,192,21770,1,0,0:0:0:0:
448,192,21942,1,2,0:0:0:0:
320,192,21942,1,0,0:0:0:0:
64,192,22113,1,0,0:0:0:0:
448,192,22284,1,10,0:0:0:0:
192,192,22284,1,0,0:0:0:0:
64,192,22456,1,0,0:0:0:0:
192,192,22456,1,0,0:0:0:0:
448,192,22627,1,2,0:0:0:0:
320,192,22627,1,0,0:0:0:0:
64,192,22799,1,0,0:0:0:0:
448,192,22970,1,10,0:0:0:0:
192,192,22970,1,0,0:0:0:0:
64,192,23142,1,0,0:0:0:0:
320,192,23313,1,0,0:0:0:0:
192,192,23313,1,2,0:0:0:0:
448,192,23484,1,0,0:0:0:0:
64,192,23656,1,10,0:0:0:0:
320,192,23656,1,0,0:0:0:0:
192,192,23827,1,0,0:0:0:0:
64,192,23999,1,2,0:0:0:0:
448,192,23999,1,0,0:0:0:0:
192,192,24170,1,0,0:0:0:0:
64,192,24342,1,10,0:0:0:0:
320,192,24342,1,0,0:0:0:0:
192,192,24513,1,2,0:0:0:0:
320,192,24513,1,0,0:0:0:0:
448,192,24684,1,0,0:0:0:0:
64,192,24684,1,6,0:0:0:0:
320,192,24856,1,0,0:0:0:0:
192,192,25027,1,2,0:0:0:0:
64,192,25027,1,8,0:0:0:0:
448,192,25027,1,0,0:0:0:0:
320,192,25199,1,0,0:0:0:0:
448,192,25370,1,2,0:0:0:0:
64,192,25370,1,0,0:0:0:0:
320,192,25542,1,0,0:0:0:0:
192,192,25713,1,10,0:0:0:0:
64,192,25884,1,0,0:0:0:0:
448,192,26056,1,2,0:0:0:0:
192,192,26056,1,0,0:0:0:0:
320,192,26227,1,0,0:0:0:0:
192,192,26399,1,2,0:0:0:0:
64,192,26399,1,8,0:0:0:0:
448,192,26570,1,0,0:0:0:0:
320,192,26742,1,2,0:0:0:0:
64,192,26742,1,0,0:0:0:0:
192,192,26913,1,0,0:0:0:0:
448,192,27084,1,2,0:0:0:0:
320,192,27084,1,8,0:0:0:0:
64,192,27256,1,0,0:0:0:0:
192,192,27427,1,0,0:0:0:0:
448,192,27427,1,2,0:0:0:0:
320,192,27599,1,0,0:0:0:0:
192,192,27770,1,10,0:0:0:0:
64,192,27770,1,0,0:0:0:0:
320,192,27942,1,0,0:0:0:0:
448,192,28113,1,2,0:0:0:0:
192,192,28113,1,0,0:0:0:0:
64,192,28199,1,0,0:0:0:0:
192,192,28284,1,0,0:0:0:0:
320,192,28370,1,0,0:0:0:0:
448,192,28456,1,10,0:0:0:0:
64,192,28456,1,0,0:0:0:0:
192,192,28542,1,0,0:0:0:0:
320,192,28627,1,0,0:0:0:0:
192,192,28713,1,0,0:0:0:0:
448,192,28799,1,0,0:0:0:0:
64,192,28799,1,2,0:0:0:0:
320,192,28970,1,0,0:0:0:0:
192,192,29142,1,10,0:0:0:0:
64,192,29142,1,0,0:0:0:0:
320,192,29313,1,0,0:0:0:0:
448,192,29484,1,2,0:0:0:0:
192,192,29484,1,0,0:0:0:0:
64,192,29570,1,0,0:0:0:0:
192,192,29656,1,0,0:0:0:0:
320,192,29742,1,0,0:0:0:0:
448,192,29827,1,10,0:0:0:0:
64,192,29827,1,0,0:0:0:0:
320,192,29913,1,0,0:0:0:0:
192,192,29999,1,2,0:0:0:0:
320,192,30084,1,0,0:0:0:0:
448,192,30170,1,6,0:0:0:0:
64,192,30170,1,0,0:0:0:0:
192,192,30342,1,0,0:0:0:0:
64,192,30513,1,10,0:0:0:0:
320,192,30513,1,0,0:0:0:0:
192,192,30684,1,0,0:0:0:0:
448,192,30856,1,2,0:0:0:0:
64,192,30856,1,0,0:0:0:0:
448,192,31027,1,0,0:0:0:0:
320,192,31199,1,10,0:0:0:0:
64,192,31199,1,8,0:0:0:0:
320,192,31370,1,0,0:0:0:0:
448,192,31542,1,0,0:0:0:0:
192,192,31542,1,2,0:0:0:0:
192,192,31713,1,0,0:0:0:0:
320,192,31884,1,0,0:0:0:0:
64,192,31884,1,10,0:0:0:0:
64,192,32056,1,0,0:0:0:0:
192,192,32227,1,2,0:0:0:0:
448,192,32227,1,0,0:0:0:0:
192,192,32399,1,0,0:0:0:0:
320,192,32570,1,10,0:0:0:0:
64,192,32570,1,0,0:0:0:0:
320,192,32742,1,0,0:0:0:0:
448,192,32913,1,6,0:0:0:0:
64,192,32913,1,0,0:0:0:0:
448,192,33084,1,0,0:0:0:0:
320,192,33256,1,10,0:0:0:0:
192,192,33256,1,0,0:0:0:0:
64,192,33427,1,0,0:0:0:0:
448,192,33427,1,0,0:0:0:0:
320,192,33599,1,2,0:0:0:0:
192,192,33599,1,0,0:0:0:0:
448,192,33684,1,0,0:0:0:0:
320,192,33770,1,0,0:0:0:0:
192,192,33856,1,0,0:0:0:0:
64,192,33942,1,10,0:0:0:0:
448,192,33942,1,0,0:0:0:0:
320,192,34027,1,0,0:0:0:0:
192,192,34113,1,2,0:0:0:0:
320,192,34199,1,0,0:0:0:0:
448,192,34284,1,0,0:0:0:0:
64,192,34284,1,6,0:0:0:0:
192,192,34456,1,0,0:0:0:0:
320,192,34456,1,0,0:0:0:0:
448,192,34627,1,10,0:0:0:0:
64,192,34627,1,0,0:0:0:0:
192,192,34799,1,2,0:0:0:0:
320,192,34799,1,0,0:0:0:0:
64,192,34970,1,6,0:0:0:0:
448,192,34970,1,0,0:0:0:0:
192,192,35056,1,2,0:0:0:0:
320,192,35142,1,0,0:0:0:0:
448,192,35227,1,2,0:0:0:0:
320,192,35313,1,2,0:0:0:0:
192,192,35399,1,2,0:0:0:0:
64,192,35484,1,2,0:0:0:0:
192,192,35570,1,2,0:0:0:0:
448,192,35656,1,6,0:0:0:0:
320,192,35656,1,0,0:0:0:0:
64,192,35827,1,0,0:0:0:0:
320,192,35999,1,8,0:0:0:0:
192,192,35999,1,0,0:0:0:0:
64,192,36084,1,0,0:0:0:0:
192,192,36256,1,0,0:0:0:0:
448,192,36342,1,0,0:0:0:0:
320,192,36513,1,0,0:0:0:0:
192,192,36684,1,8,0:0:0:0:
448,192,36684,1,0,0:0:0:0:
64,192,36856,1,0,0:0:0:0:
320,192,37027,1,0,0:0:0:0:
192,192,37199,1,0,0:0:0:0:
448,192,37370,1,8,0:0:0:0:
320,192,37370,1,0,0:0:0:0:
192,192,37456,1,0,0:0:0:0:
64,192,37627,1,0,0:0:0:0:
448,192,37713,1,0,0:0:0:0:
320,192,37884,1,0,0:0:0:0:
448,192,38056,1,8,0:0:0:0:
192,192,38056,1,0,0:0:0:0:
64,192,38227,1,0,0:0:0:0:
448,192,38399,1,0,0:0:0:0:
320,192,38570,1,0,0:0:0:0:
192,192,38742,1,8,0:0:0:0:
448,192,38742,1,0,0:0:0:0:
64,192,38827,1,0,0:0:0:0:
64,192,38999,1,0,0:0:0:0:
448,192,39084,1,0,0:0:0:0:
320,192,39256,1,0,0:0:0:0:
448,192,39427,1,0,0:0:0:0:
64,192,39427,1,8,0:0:0:0:
192,192,39599,1,0,0:0:0:0:
320,192,39770,1,0,0:0:0:0:
64,192,39942,1,0,0:0:0:0:
448,192,40113,1,8,0:0:0:0:
320,192,40113,1,0,0:0:0:0:
64,192,40199,1,0,0:0:0:0:
192,192,40370,1,0,0:0:0:0:
320,192,40456,1,0,0:0:0:0:
64,192,40627,1,0,0:0:0:0:
448,192,40713,1,0,0:0:0:0:
192,192,40799,1,8,0:0:0:0:
320,192,40799,1,0,0:0:0:0:
448,192,40884,1,0,0:0:0:0:
64,192,40970,1,0,0:0:0:0:
320,192,41056,1,0,0:0:0:0:
192,192,41142,1,0,0:0:0:0:
64,192,41313,1,0,0:0:0:0:
448,192,41484,1,8,0:0:0:0:
192,192,41484,1,0,0:0:0:0:
320,192,41570,1,0,0:0:0:0:
64,192,41742,1,0,0:0:0:0:
448,192,41827,1,0,0:0:0:0:
320,192,41999,1,0,0:0:0:0:
448,192,42170,1,8,0:0:0:0:
192,192,42170,1,0,0:0:0:0:
64,192,42342,1,0,0:0:0:0:
320,192,42513,1,0,0:0:0:0:
64,192,42684,1,0,0:0:0:0:
448,192,42856,1,8,0:0:0:0:
192,192,42856,1,0,0:0:0:0:
64,192,42942,1,0,0:0:0:0:
192,192,43113,1,0,0:0:0:0:
448,192,43199,1,0,0:0:0:0:
320,192,43370,1,0,0:0:0:0:
192,192,43542,1,0,0:0:0:0:
448,192,43542,1,8,0:0:0:0:
64,192,43713,1,0,0:0:0:0:
320,192,43884,1,0,0:0:0:0:
192,192,44056,1,0,0:0:0:0:
448,192,44227,1,8,0:0:0:0:
320,192,44227,1,0,0:0:0:0:
64,192,44313,1,0,0:0:0:0:
320,192,44484,1,0,0:0:0:0:
64,192,44570,1,0,0:0:0:0:
192,192,44742,1,0,0:0:0:0:
320,192,44913,1,0,0:0:0:0:
64,192,44913,1,8,0:0:0:0:
448,192,45084,1,0,0:0:0:0:
192,192,45256,1,0,0:0:0:0:
320,192,45427,1,0,0:0:0:0:
64,192,45599,1,8,0:0:0:0:
192,192,45599,1,0,0:0:0:0:
448,192,45684,1,0,0:0:0:0:
320,192,45856,1,0,0:0:0:0:
64,192,45942,1,0,0:0:0:0:
192,192,46113,1,0,0:0:0:0:
448,192,46199,1,0,0:0:0:0:
64,192,46284,1,8,0:0:0:0:
320,192,46284,1,0,0:0:0:0:
192,192,46370,1,0,0:0:0:0:
64,192,46456,1,0,0:0:0:0:
192,192,46542,1,0,0:0:0:0:
448,192,46627,1,4,0:0:0:0:
320,192,46627,1,0,0:0:0:0:
64,192,46799,1,0,0:0:0:0:
448,192,46970,1,8,0:0:0:0:
192,192,46970,1,0,0:0:0:0:
320,192,47056,1,0,0:0:0:0:
64,192,47313,1,0,0:0:0:0:
448,192,47313,1,0,0:0:0:0:
192,192,47484,1,0,0:0:0:0:
64,192,47656,1,0,0:0:0:0:
320,192,47656,1,8,0:0:0:0:
448,192,47827,1,0,0:0:0:0:
192,192,47999,1,0,0:0:0:0:
64,192,47999,1,0,0:0:0:0:
320,192,48170,1,0,0:0:0:0:
192,192,48342,1,8,0:0:0:0:
448,192,48342,1,0,0:0:0:0:
64,192,48427,1,0,0:0:0:0:
192,192,48599,1,0,0:0:0:0:
448,192,48684,1,0,0:0:0:0:
320,192,48856,1,0,0:0:0:0:
192,192,49027,1,0,0:0:0:0:
448,192,49027,1,8,0:0:0:0:
64,192,49199,1,0,0:0:0:0:
320,192,49370,1,0,0:0:0:0:
448,192,49370,1,0,0:0:0:0:
64,192,49542,1,0,0:0:0:0:
192,192,49713,1,0,0:0:0:0:
448,192,49713,1,8,0:0:0:0:
320,192,49799,1,0,0:0:0:0:
64,192,50056,1,0,0:0:0:0:
448,192,50056,1,0,0:0:0:0:
192,192,50227,1,0,0:0:0:0:
320,192,50399,1,8,0:0:0:0:
64,192,50399,1,0,0:0:0:0:
448,192,50570,1,0,0:0:0:0:
64,192,50742,1,0,0:0:0:0:
192,192,50742,1,0,0:0:0:0:
320,192,50913,1,0,0:0:0:0:
192,192,51084,1,0,0:0:0:0:
448,192,51084,1,8,0:0:0:0:
64,192,51170,1,0,0:0:0:0:
192,192,51342,1,0,0:0:0:0:
448,192,51427,1,0,0:0:0:0:
320,192,51599,1,0,0:0:0:0:
64,192,51684,1,0,0:0:0:0:
448,192,51770,1,8,0:0:0:0:
192,192,51770,1,0,0:0:0:0:
320,192,51856,1,0,0:0:0:0:
64,192,51942,1,0,0:0:0:0:
192,192,52027,1,0,0:0:0:0:
448,192,52113,1,2,0:0:0:0:
320,192,52113,1,4,0:0:0:0:
64,192,52113,1,0,0:0:0:0:
64,192,52284,1,0,0:0:0:0:
448,192,52456,1,8,0:0:0:0:
192,192,52456,1,0,0:0:0:0:
320,192,52542,1,0,0:0:0:0:
64,192,52799,1,0,0:0:0:0:
448,192,52799,1,0,0:0:0:0:
192,192,52970,1,0,0:0:0:0:
64,192,53142,1,8,0:0:0:0:
320,192,53142,1,0,0:0:0:0:
448,192,53313,1,0,0:0:0:0:
192,192,53484,1,2,0:0:0:0:
64,192,53484,1,4,0:0:0:0:
320,192,53484,1,0,0:0:0:0:
320,192,53656,1,0,0:0:0:0:
448,192,53827,1,8,0:0:0:0:
192,192,53827,1,0,0:0:0:0:
64,192,53913,1,0,0:0:0:0:
192,192,54084,1,0,0:0:0:0:
448,192,54170,1,0,0:0:0:0:
320,192,54342,1,0,0:0:0:0:
192,192,54513,1,0,0:0:0:0:
448,192,54513,1,8,0:0:0:0:
64,192,54684,1,0,0:0:0:0:
320,192,54856,1,4,0:0:0:0:
448,192,54856,1,2,0:0:0:0:
192,192,54856,1,0,0:0:0:0:
64,192,55027,1,0,0:0:0:0:
192,192,55199,1,8,0:0:0:0:
448,192,55199,1,0,0:0:0:0:
320,192,55284,1,0,0:0:0:0:
64,192,55542,1,2,0:0:0:0:
448,192,55542,1,0,0:0:0:0:
320,192,55542,1,4,0:0:0:0:
192,192,55713,1,0,0:0:0:0:
320,192,55884,1,8,0:0:0:0:
64,192,55884,1,0,0:0:0:0:
448,192,56056,1,0,0:0:0:0:
320,192,56142,1,2,0:0:0:0:
192,192,56142,1,0,0:0:0:0:
64,192,56227,1,4,0:0:0:0:
448,192,56227,1,2,0:0:0:0:
320,192,56399,1,2,0:0:0:0:
192,192,56399,1,0,0:0:0:0:
448,192,56570,1,0,0:0:0:0:
64,192,56570,1,10,0:0:0:0:
320,192,56656,1,0,0:0:0:0:
64,192,56827,1,2,0:0:0:0:
448,192,56913,1,2,0:0:0:0:
192,192,56913,1,0,0:0:0:0:
320,192,57084,1,2,0:0:0:0:
64,192,57170,1,0,0:0:0:0:
448,192,57256,1,10,0:0:0:0:
192,192,57256,1,0,0:0:0:0:
64,192,57342,1,0,0:0:0:0:
320,192,57427,1,2,0:0:0:0:
192,192,57427,1,0,0:0:0:0:
448,192,57513,1,2,0:0:0:0:
192,192,57599,128,0,57856:0:0:0:0:
64,192,57599,128,0,57856:0:0:0:0:
448,192,57942,1,0,0:0:0:0:
320,192,58027,1,0,0:0:0:0:
448,192,58113,1,0,0:0:0:0:
192,192,58199,1,0,0:0:0:0:
320,192,58284,1,0,0:0:0:0:
64,192,58370,1,0,0:0:0:0:
192,192,58456,1,0,0:0:0:0:
64,192,58542,1,0,0:0:0:0:
448,192,58627,1,0,0:0:0:0:
320,192,58627,1,4,0:0:0:0:
192,192,58627,1,2,0:0:0:0:
320,192,58798,1,0,0:0:0:0:
192,192,58884,1,0,0:0:0:0:
64,192,58969,1,10,0:0:0:0:
448,192,58969,1,0,0:0:0:0:
320,192,59141,1,0,0:0:0:0:
192,192,59141,1,0,0:0:0:0:
448,192,59312,1,0,0:0:0:0:
64,192,59312,1,2,0:0:0:0:
448,192,59484,1,0,0:0:0:0:
192,192,59484,1,0,0:0:0:0:
320,192,59569,1,0,0:0:0:0:
192,192,59655,1,0,0:0:0:0:
64,192,59655,1,10,0:0:0:0:
320,192,59827,1,0,0:0:0:0:
448,192,59998,1,0,0:0:0:0:
192,192,59998,1,2,0:0:0:0:
64,192,60169,1,0,0:0:0:0:
320,192,60169,1,0,0:0:0:0:
192,192,60255,1,0,0:0:0:0:
448,192,60341,1,0,0:0:0:0:
320,192,60341,1,10,0:0:0:0:
192,192,60512,1,0,0:0:0:0:
320,192,60684,1,2,0:0:0:0:
64,192,60684,1,0,0:0:0:0:
448,192,60855,1,0,0:0:0:0:
192,192,60855,1,0,0:0:0:0:
320,192,60941,1,0,0:0:0:0:
64,192,61027,1,10,0:0:0:0:
448,192,61027,1,0,0:0:0:0:
320,192,61198,1,0,0:0:0:0:
448,192,61369,1,2,0:0:0:0:
192,192,61369,1,0,0:0:0:0:
320,192,61541,1,0,0:0:0:0:
64,192,61541,1,0,0:0:0:0:
192,192,61627,1,0,0:0:0:0:
448,192,61712,1,10,0:0:0:0:
320,192,61712,1,0,0:0:0:0:
64,192,61884,1,0,0:0:0:0:
192,192,61884,1,0,0:0:0:0:
320,192,62055,1,2,0:0:0:0:
448,192,62227,1,0,0:0:0:0:
192,192,62227,1,0,0:0:0:0:
320,192,62312,1,0,0:0:0:0:
64,192,62398,1,10,0:0:0:0:
192,192,62398,1,0,0:0:0:0:
448,192,62569,1,0,0:0:0:0:
64,192,62569,1,0,0:0:0:0:
320,192,62741,1,2,0:0:0:0:
192,192,62741,1,0,0:0:0:0:
64,192,62912,1,0,0:0:0:0:
320,192,62912,1,0,0:0:0:0:
192,192,62998,1,0,0:0:0:0:
448,192,63084,1,10,0:0:0:0:
64,192,63084,1,0,0:0:0:0:
320,192,63255,1,0,0:0:0:0:
192,192,63255,1,0,0:0:0:0:
64,192,63427,1,2,0:0:0:0:
320,192,63427,1,0,0:0:0:0:
448,192,63598,1,0,0:0:0:0:
320,192,63684,1,0,0:0:0:0:
448,192,63769,1,10,0:0:0:0:
64,192,63769,1,0,0:0:0:0:
320,192,63941,1,0,0:0:0:0:
192,192,64112,1,2,0:0:0:0:
448,192,64112,1,0,0:0:0:0:
320,192,64284,1,0,0:0:0:0:
192,192,64369,1,0,0:0:0:0:
64,192,64455,1,10,0:0:0:0:
448,192,64455,1,0,0:0:0:0:
192,192,64627,1,0,0:0:0:0:
320,192,64627,1,0,0:0:0:0:
448,192,64798,1,2,0:0:0:0:
64,192,64969,1,0,0:0:0:0:
320,192,64969,1,0,0:0:0:0:
192,192,65055,1,0,0:0:0:0:
448,192,65141,1,10,0:0:0:0:
320,192,65141,1,0,0:0:0:0:
64,192,65312,1,0,0:0:0:0:
192,192,65312,1,0,0:0:0:0:
448,192,65484,1,0,0:0:0:0:
192,192,65484,1,2,0:0:0:0:
64,192,65655,1,0,0:0:0:0:
448,192,65655,1,0,0:0:0:0:
320,192,65741,1,0,0:0:0:0:
192,192,65827,1,10,0:0:0:0:
448,192,65827,1,0,0:0:0:0:
320,192,65998,1,0,0:0:0:0:
64,192,65998,1,0,0:0:0:0:
448,192,66169,1,2,0:0:0:0:
192,192,66169,1,0,0:0:0:0:
64,192,66341,1,0,0:0:0:0:
320,192,66341,1,0,0:0:0:0:
448,192,66427,1,0,0:0:0:0:
192,192,66512,1,10,0:0:0:0:
64,192,66512,1,0,0:0:0:0:
448,192,66684,1,0,0:0:0:0:
320,192,66684,1,0,0:0:0:0:
192,192,66855,1,2,0:0:0:0:
64,192,66855,1,0,0:0:0:0:
320,192,67027,1,0,0:0:0:0:
448,192,67027,1,0,0:0:0:0:
192,192,67112,1,0,0:0:0:0:
448,192,67198,1,10,0:0:0:0:
64,192,67198,1,0,0:0:0:0:
320,192,67369,1,0,0:0:0:0:
192,192,67369,1,0,0:0:0:0:
448,192,67541,1,2,0:0:0:0:
64,192,67541,1,0,0:0:0:0:
320,192,67712,1,0,0:0:0:0:
192,192,67712,1,0,0:0:0:0:
64,192,67798,1,0,0:0:0:0:
448,192,67884,1,10,0:0:0:0:
320,192,67884,1,0,0:0:0:0:
192,192,68055,1,0,0:0:0:0:
320,192,68227,1,2,0:0:0:0:
64,192,68227,1,0,0:0:0:0:
192,192,68398,1,0,0:0:0:0:
320,192,68484,1,0,0:0:0:0:
448,192,68569,1,10,0:0:0:0:
64,192,68569,1,0,0:0:0:0:
192,192,68741,1,0,0:0:0:0:
448,192,68912,1,2,0:0:0:0:
320,192,68912,1,0,0:0:0:0:
448,192,69084,1,0,0:0:0:0:
320,192,69169,1,2,0:0:0:0:
192,192,69255,1,10,0:0:0:0:
64,192,69255,1,0,0:0:0:0:
64,192,69427,1,2,0:0:0:0:
448,192,69598,1,2,0:0:0:0:
320,192,69598,1,0,0:0:0:0:
192,192,69598,1,4,0:0:0:0:
64,192,69769,1,0,0:0:0:0:
192,192,69855,1,0,0:0:0:0:
320,192,69941,1,0,0:0:0:0:
448,192,69941,1,10,0:0:0:0:
192,192,70112,1,0,0:0:0:0:
64,192,70112,1,0,0:0:0:0:
320,192,70284,1,2,0:0:0:0:
448,192,70284,1,0,0:0:0:0:
192,192,70455,1,0,0:0:0:0:
448,192,70455,1,0,0:0:0:0:
320,192,70541,1,0,0:0:0:0:
64,192,70627,1,10,0:0:0:0:
448,192,70627,1,0,0:0:0:0:
192,192,70798,1,0,0:0:0:0:
320,192,70969,1,0,0:0:0:0:
64,192,70969,1,2,0:0:0:0:
192,192,71141,1,0,0:0:0:0:
448,192,71141,1,0,0:0:0:0:
320,192,71227,1,0,0:0:0:0:
448,192,71312,1,10,0:0:0:0:
64,192,71312,1,0,0:0:0:0:
192,192,71484,1,0,0:0:0:0:
448,192,71655,1,2,0:0:0:0:
320,192,71655,1,0,0:0:0:0:
64,192,71827,1,0,0:0:0:0:
320,192,71827,1,0,0:0:0:0:
192,192,71912,1,0,0:0:0:0:
64,192,71998,1,10,0:0:0:0:
448,192,71998,1,0,0:0:0:0:
320,192,72169,1,0,0:0:0:0:
448,192,72341,1,0,0:0:0:0:
192,192,72341,1,2,0:0:0:0:
64,192,72512,1,0,0:0:0:0:
320,192,72512,1,0,0:0:0:0:
192,192,72598,1,0,0:0:0:0:
448,192,72684,1,10,0:0:0:0:
320,192,72684,1,0,0:0:0:0:
320,192,72855,1,0,0:0:0:0:
192,192,72855,1,0,0:0:0:0:
64,192,73027,1,2,0:0:0:0:
448,192,73027,1,0,0:0:0:0:
320,192,73198,1,0,0:0:0:0:
192,192,73198,1,0,0:0:0:0:
448,192,73284,1,0,0:0:0:0:
192,192,73369,1,10,0:0:0:0:
64,192,73369,1,0,0:0:0:0:
320,192,73541,1,0,0:0:0:0:
448,192,73541,1,0,0:0:0:0:
320,192,73712,1,2,0:0:0:0:
192,192,73712,1,0,0:0:0:0:
64,192,73884,1,0,0:0:0:0:
448,192,73884,1,0,0:0:0:0:
192,192,73969,1,0,0:0:0:0:
448,192,74055,1,10,0:0:0:0:
320,192,74055,1,0,0:0:0:0:
64,192,74227,1,0,0:0:0:0:
192,192,74227,1,0,0:0:0:0:
192,192,74398,1,2,0:0:0:0:
448,192,74398,1,2,0:0:0:0:
320,192,74569,1,0,0:0:0:0:
192,192,74655,1,0,0:0:0:0:
64,192,74741,1,10,0:0:0:0:
448,192,74741,1,0,0:0:0:0:
320,192,74912,1,2,0:0:0:0:
192,192,74912,1,0,0:0:0:0:
448,192,75084,1,0,0:0:0:0:
64,192,75084,1,2,0:0:0:0:
192,192,75255,1,0,0:0:0:0:
320,192,75341,1,0,0:0:0:0:
448,192,75427,1,10,0:0:0:0:
64,192,75427,1,0,0:0:0:0:
192,192,75598,1,0,0:0:0:0:
448,192,75598,1,0,0:0:0:0:
320,192,75769,1,2,0:0:0:0:
64,192,75769,1,0,0:0:0:0:
64,192,75941,1,0,0:0:0:0:
320,192,75941,1,0,0:0:0:0:
192,192,76027,1,0,0:0:0:0:
320,192,76112,1,10,0:0:0:0:
448,192,76112,1,0,0:0:0:0:
64,192,76284,1,0,0:0:0:0:
192,192,76455,1,2,0:0:0:0:
448,192,76455,1,0,0:0:0:0:
192,192,76627,1,0,0:0:0:0:
448,192,76627,1,0,0:0:0:0:
320,192,76712,1,0,0:0:0:0:
448,192,76798,1,10,0:0:0:0:
64,192,76798,1,0,0:0:0:0:
320,192,76969,1,0,0:0:0:0:
192,192,76969,1,0,0:0:0:0:
320,192,77141,1,2,0:0:0:0:
64,192,77141,1,0,0:0:0:0:
192,192,77312,1,0,0:0:0:0:
448,192,77312,1,0,0:0:0:0:
320,192,77398,1,0,0:0:0:0:
192,192,77484,1,0,0:0:0:0:
64,192,77484,1,10,0:0:0:0:
448,192,77655,1,0,0:0:0:0:
320,192,77655,1,0,0:0:0:0:
320,192,77827,1,2,0:0:0:0:
64,192,77827,1,0,0:0:0:0:
192,192,77998,1,0,0:0:0:0:
448,192,77998,1,0,0:0:0:0:
320,192,78084,1,0,0:0:0:0:
448,192,78169,1,10,0:0:0:0:
64,192,78169,1,0,0:0:0:0:
192,192,78341,1,0,0:0:0:0:
320,192,78341,1,0,0:0:0:0:
448,192,78512,1,2,0:0:0:0:
64,192,78512,1,0,0:0:0:0:
320,192,78598,1,0,0:0:0:0:
192,192,78598,1,0,0:0:0:0:
64,192,78684,1,0,0:0:0:0:
192,192,78769,1,0,0:0:0:0:
448,192,78855,1,0,0:0:0:0:
320,192,78855,1,10,0:0:0:0:
192,192,79027,1,0,0:0:0:0:
448,192,79198,1,4,0:0:0:0:
64,192,79198,1,0,0:0:0:0:
448,192,79369,1,0,0:0:0:0:
192,192,79369,1,0,0:0:0:0:
448,192,79541,1,0,0:0:0:0:
320,192,79541,1,8,0:0:0:0:
64,192,79712,1,0,0:0:0:0:
192,192,79712,1,0,0:0:0:0:
448,192,79884,1,4,0:0:0:0:
320,192,79884,1,0,0:0:0:0:
192,192,79969,1,0,0:0:0:0:
64,192,80055,1,0,0:0:0:0:
192,192,80141,1,0,0:0:0:0:
64,192,80227,1,2,0:0:0:0:
320,192,80227,1,0,0:0:0:0:
192,192,80312,1,2,0:0:0:0:
320,192,80398,1,2,0:0:0:0:
448,192,80484,1,2,0:0:0:0:
192,192,80569,1,2,0:0:0:0:
320,192,80569,1,0,0:0:0:0:
64,192,80569,128,4,81941:0:0:0:0:
320,192,80741,1,0,0:0:0:0:
448,192,80912,1,0,0:0:0:0:
192,192,80912,1,10,0:0:0:0:
320,192,81084,1,0,0:0:0:0:
448,192,81255,1,2,0:0:0:0:
192,192,81427,1,0,0:0:0:0:
448,192,81598,1,10,0:0:0:0:
320,192,81598,1,0,0:0:0:0:
192,192,81769,1,0,0:0:0:0:
320,192,81941,128,2,82627:0:0:0:0:
448,192,81941,1,0,0:0:0:0:
192,192,82112,1,0,0:0:0:0:
64,192,82284,1,0,0:0:0:0:
448,192,82284,1,10,0:0:0:0:
448,192,82455,1,0,0:0:0:0:
192,192,82627,128,0,83312:0:0:0:0:
64,192,82627,1,2,0:0:0:0:
448,192,82798,1,0,0:0:0:0:
320,192,82969,1,0,0:0:0:0:
64,192,82969,1,10,0:0:0:0:
448,192,83141,1,0,0:0:0:0:
64,192,83312,128,2,84684:0:0:0:0:
320,192,83312,1,0,0:0:0:0:
192,192,83484,1,0,0:0:0:0:
320,192,83655,1,10,0:0:0:0:
448,192,83655,1,0,0:0:0:0:
192,192,83827,1,0,0:0:0:0:
448,192,83998,1,2,0:0:0:0:
320,192,84169,1,0,0:0:0:0:
192,192,84341,1,0,0:0:0:0:
448,192,84341,1,10,0:0:0:0:
320,192,84512,1,0,0:0:0:0:
192,192,84684,1,2,0:0:0:0:
448,192,84684,128,0,85369:0:0:0:0:
320,192,84855,1,0,0:0:0:0:
192,192,85027,1,10,0:0:0:0:
64,192,85027,1,0,0:0:0:0:
320,192,85198,1,0,0:0:0:0:
192,192,85369,128,2,86055:0:0:0:0:
64,192,85369,1,0,0:0:0:0:
320,192,85541,1,0,0:0:0:0:
448,192,85712,1,10,0:0:0:0:
64,192,85712,1,0,0:0:0:0:
320,192,85884,1,0,0:0:0:0:
64,192,86055,128,0,87427:0:0:0:0:
448,192,86055,1,2,0:0:0:0:
320,192,86227,1,0,0:0:0:0:
192,192,86398,1,0,0:0:0:0:
448,192,86398,1,10,0:0:0:0:
320,192,86569,1,0,0:0:0:0:
448,192,86741,1,2,0:0:0:0:
192,192,86912,1,0,0:0:0:0:
448,192,87084,1,10,0:0:0:0:
320,192,87084,1,0,0:0:0:0:
192,192,87255,1,0,0:0:0:0:
448,192,87427,1,0,0:0:0:0:
320,192,87427,128,2,88112:0:0:0:0:
192,192,87598,1,0,0:0:0:0:
448,192,87769,1,0,0:0:0:0:
64,192,87769,1,10,0:0:0:0:
192,192,87941,1,0,0:0:0:0:
448,192,88112,128,2,88798:0:0:0:0:
64,192,88112,1,2,0:0:0:0:
192,192,88284,1,0,0:0:0:0:
320,192,88455,1,10,0:0:0:0:
64,192,88455,1,0,0:0:0:0:
192,192,88627,1,0,0:0:0:0:
64,192,88798,128,2,90169:0:0:0:0:
320,192,88798,1,0,0:0:0:0:
192,192,88969,1,0,0:0:0:0:
448,192,89141,1,0,0:0:0:0:
320,192,89141,1,10,0:0:0:0:
192,192,89312,1,0,0:0:0:0:
448,192,89484,1,2,0:0:0:0:
320,192,89655,1,0,0:0:0:0:
192,192,89827,1,10,0:0:0:0:
448,192,89827,1,0,0:0:0:0:
320,192,89998,1,0,0:0:0:0:
448,192,90169,128,0,90855:0:0:0:0:
192,192,90169,1,2,0:0:0:0:
64,192,90341,1,0,0:0:0:0:
320,192,90512,1,10,0:0:0:0:
192,192,90512,1,0,0:0:0:0:
64,192,90684,1,0,0:0:0:0:
320,192,90855,128,2,91541:0:0:0:0:
192,192,90855,1,0,0:0:0:0:
192,192,91027,1,2,0:0:0:0:
64,192,91198,1,10,0:0:0:0:
448,192,91198,1,0,0:0:0:0:
448,192,91369,1,0,0:0:0:0:
192,192,91541,1,6,0:0:0:0:
64,192,91541,128,0,92912:0:0:0:0:
448,192,91541,1,0,0:0:0:0:
320,192,91712,1,0,0:0:0:0:
192,192,91884,1,10,0:0:0:0:
448,192,91884,1,0,0:0:0:0:
320,192,92055,1,0,0:0:0:0:
448,192,92227,1,2,0:0:0:0:
192,192,92398,1,0,0:0:0:0:
448,192,92569,1,0,0:0:0:0:
320,192,92569,1,10,0:0:0:0:
192,192,92741,1,0,0:0:0:0:
448,192,92912,1,2,0:0:0:0:
320,192,92912,128,0,93598:0:0:0:0:
192,192,93084,1,0,0:0:0:0:
64,192,93255,1,10,0:0:0:0:
448,192,93255,1,0,0:0:0:0:
192,192,93427,1,0,0:0:0:0:
448,192,93598,1,2,0:0:0:0:
192,192,93598,128,0,94284:0:0:0:0:
64,192,93769,1,0,0:0:0:0:
320,192,93941,1,10,0:0:0:0:
448,192,93941,1,0,0:0:0:0:
64,192,94112,1,0,0:0:0:0:
64,192,94284,128,2,94969:0:0:0:0:
320,192,94284,1,0,0:0:0:0:
192,192,94455,1,0,0:0:0:0:
320,192,94627,1,10,0:0:0:0:
448,192,94627,1,0,0:0:0:0:
192,192,94798,1,0,0:0:0:0:
448,192,94969,128,2,95655:0:0:0:0:
320,192,94969,1,0,0:0:0:0:
64,192,95141,1,0,0:0:0:0:
320,192,95312,1,10,0:0:0:0:
192,192,95312,1,0,0:0:0:0:
64,192,95484,1,0,0:0:0:0:
192,192,95655,128,2,96341:0:0:0:0:
320,192,95655,1,0,0:0:0:0:
64,192,95827,1,0,0:0:0:0:
448,192,95998,1,10,0:0:0:0:
320,192,95998,1,0,0:0:0:0:
64,192,96169,1,0,0:0:0:0:
320,192,96341,128,0,97027:0:0:0:0:
448,192,96341,1,2,0:0:0:0:
192,192,96512,1,0,0:0:0:0:
64,192,96684,1,0,0:0:0:0:
448,192,96684,1,10,0:0:0:0:
192,192,96855,1,2,0:0:0:0:
448,192,96941,1,2,0:0:0:0:
64,192,97027,128,6,98398:0:0:0:0:
192,192,97027,1,0,0:0:0:0:
320,192,97198,1,0,0:0:0:0:
192,192,97369,1,0,0:0:0:0:
448,192,97369,1,10,0:0:0:0:
320,192,97541,1,0,0:0:0:0:
448,192,97712,1,2,0:0:0:0:
192,192,97884,1,0,0:0:0:0:
448,192,98055,1,10,0:0:0:0:
320,192,98055,1,0,0:0:0:0:
192,192,98227,1,0,0:0:0:0:
320,192,98398,1,6,0:0:0:0:
448,192,98398,128,0,99084:0:0:0:0:
192,192,98398,1,0,0:0:0:0:
64,192,98569,1,0,0:0:0:0:
320,192,98741,1,10,0:0:0:0:
192,192,98741,1,0,0:0:0:0:
64,192,98912,1,0,0:0:0:0:
192,192,99084,1,4,0:0:0:0:
320,192,99084,128,0,99769:0:0:0:0:
64,192,99084,1,2,0:0:0:0:
448,192,99255,1,0,0:0:0:0:
192,192,99427,1,0,0:0:0:0:
64,192,99427,1,10,0:0:0:0:
448,192,99598,1,0,0:0:0:0:
192,192,99684,1,2,0:0:0:0:
64,192,99769,1,6,0:0:0:0:
448,192,99769,1,0,0:0:0:0:
320,192,99941,1,0,0:0:0:0:
192,192,99941,1,2,0:0:0:0:
64,192,100112,1,10,0:0:0:0:
448,192,100112,1,0,0:0:0:0:
320,192,100284,1,0,0:0:0:0:
192,192,100284,1,2,0:0:0:0:
64,192,100455,1,2,0:0:0:0:
448,192,100455,1,0,0:0:0:0:
192,192,100627,1,10,0:0:0:0:
320,192,100627,1,0,0:0:0:0:
64,192,100798,1,2,0:0:0:0:
448,192,100798,1,0,0:0:0:0:
192,192,100969,1,2,0:0:0:0:
320,192,100969,1,0,0:0:0:0:
64,192,101141,1,4,0:0:0:0:
448,192,101141,1,2,0:0:0:0:
320,192,101141,1,0,0:0:0:0:
192,192,101227,1,2,0:0:0:0:
448,192,101312,1,2,0:0:0:0:
320,192,101398,1,2,0:0:0:0:
448,192,101484,1,2,0:0:0:0:
64,192,101484,1,0,0:0:0:0:
320,192,101569,1,2,0:0:0:0:
64,192,101655,1,2,0:0:0:0:
192,192,101741,1,2,0:0:0:0:
64,192,101827,1,6,0:0:0:0:
448,192,101827,1,0,0:0:0:0:
192,192,101912,1,0,0:0:0:0:
448,192,101998,1,2,0:0:0:0:
320,192,102084,1,2,0:0:0:0:
448,192,102169,1,0,0:0:0:0:
64,192,102169,1,6,0:0:0:0:
320,192,102255,1,0,0:0:0:0:
64,192,102341,1,2,0:0:0:0:
192,192,102427,1,2,0:0:0:0:
320,192,102512,1,2,0:0:0:0:
448,192,102512,1,4,0:0:0:0:
64,192,102512,1,0,0:0:0:0:
448,192,102855,1,2,0:0:0:0:
192,192,102855,1,8,0:0:0:0:
64,192,102855,1,4,0:0:0:0:
