osu file format v14

[General]
AudioFilename: wa. remixed celas - Gin no Kaze.mp3
AudioLeadIn: 0
PreviewTime: 54856
Countdown: 0
SampleSet: Soft
StackLeniency: 0.7
Mode: 3
LetterboxInBreaks: 0
SpecialStyle: 0
WidescreenStoryboard: 0

[Editor]
DistanceSpacing: 1
BeatDivisor: 4
GridSize: 4
TimelineZoom: 1

[Metadata]
Title:Gin no Kaze
TitleUnicode:銀の風
Artist:wa. remixed celas
ArtistUnicode:wa. remixed celas
Creator:Marirose
Version:4K Beginner
Source:BMS
Tags:Silver Wind hard nrg TOHRU MiTSUHASHi
BeatmapID:752776
BeatmapSetID:340297

[Difficulty]
HPDrainRate:6
CircleSize:4
OverallDifficulty:6
ApproachRate:5
SliderMultiplier:1.4
SliderTickRate:1

[Events]
//Background and Video events
0,0,"BG.jpg",0,0
Video,0,"BGA.avi"
//Break Periods
//Storyboard Layer 0 (Background)
//Storyboard Layer 1 (Fail)
//Storyboard Layer 2 (Pass)
//Storyboard Layer 3 (Foreground)
//Storyboard Sound Samples

[TimingPoints]
2742,342.857142857143,4,2,1,30,1,0
58627,342.857142857143,4,2,1,30,1,1
58627,-100,4,2,1,30,0,1
79198,-100,4,2,1,30,0,0
80569,-100,4,2,1,30,0,1
102855,-100,4,2,1,30,0,0

[HitObjects]
320,192,2741,5,2,0:0:0:0:
64,192,3084,1,0,0:0:0:0:
192,192,3084,1,10,0:0:0:0:
448,192,3427,1,2,0:0:0:0:
320,192,3770,1,2,0:0:0:0:
192,192,4113,1,2,0:0:0:0:
448,192,4456,1,2,0:0:0:0:
64,192,4799,1,2,0:0:0:0:
448,192,5142,1,2,0:0:0:0:
192,192,5484,1,2,0:0:0:0:
64,192,5827,1,2,0:0:0:0:
448,192,6170,1,2,0:0:0:0:
320,192,6513,1,2,0:0:0:0:
192,192,6856,1,2,0:0:0:0:
448,192,7199,1,2,0:0:0:0:
64,192,7542,1,2,0:0:0:0:
192,192,7884,1,2,0:0:0:0:
320,192,8227,1,2,0:0:0:0:
64,192,8570,1,2,0:0:0:0:
448,192,8913,1,2,0:0:0:0:
320,192,9256,1,2,0:0:0:0:
192,192,9599,1,2,0:0:0:0:
64,192,9942,1,2,0:0:0:0:
320,192,10284,1,2,0:0:0:0:
192,192,10627,1,2,0:0:0:0:
320,192,10970,1,2,0:0:0:0:
448,192,11484,1,0,0:0:0:0:
192,192,11999,1,2,0:0:0:0:
448,192,12342,1,2,0:0:0:0:
320,192,12599,1,2,0:0:0:0:
192,192,12856,1,2,0:0:0:0:
64,192,13113,1,2,0:0:0:0:
448,192,13370,1,2,0:0:0:0:
320,192,13542,1,2,0:0:0:0:
64,192,13713,1,0,0:0:0:0:
192,192,13713,1,6,0:0:0:0:
448,192,14056,1,10,0:0:0:0:
320,192,14056,1,0,0:0:0:0:
64,192,14399,1,2,0:0:0:0:
192,192,14742,1,10,0:0:0:0:
320,192,15084,1,2,0:0:0:0:
64,192,15427,1,10,0:0:0:0:
448,192,15770,1,2,0:0:0:0:
64,192,16113,1,10,0:0:0:0:
320,192,16456,1,2,0:0:0:0:
448,192,16799,1,10,0:0:0:0:
64,192,17142,1,2,0:0:0:0:
192,192,17484,1,10,0:0:0:0:
320,192,17827,1,2,0:0:0:0:
64,192,18170,1,10,0:0:0:0:
448,192,18513,1,2,0:0:0:0:
320,192,18856,1,10,0:0:0:0:
192,192,19199,1,2,0:0:0:0:
448,192,19542,1,10,0:0:0:0:
64,192,19884,1,2,0:0:0:0:
192,192,20227,1,10,0:0:0:0:
320,192,20570,1,2,0:0:0:0:
448,192,20913,1,10,0:0:0:0:
192,192,21256,1,2,0:0:0:0:
320,192,21599,1,10,0:0:0:0:
192,192,21942,1,2,0:0:0:0:
64,192,22456,1,0,0:0:0:0:
448,192,22970,1,10,0:0:0:0:
64,192,23313,1,2,0:0:0:0:
320,192,23656,1,10,0:0:0:0:
448,192,23999,1,2,0:0:0:0:
192,192,24342,1,10,0:0:0:0:
320,192,24513,1,2,0:0:0:0:
64,192,24684,1,0,0:0:0:0:
448,192,24684,1,6,0:0:0:0:
192,192,25027,1,10,0:0:0:0:
320,192,25027,1,0,0:0:0:0:
448,192,25370,1,2,0:0:0:0:
320,192,25713,1,10,0:0:0:0:
192,192,26056,1,2,0:0:0:0:
448,192,26399,1,10,0:0:0:0:
64,192,26742,1,2,0:0:0:0:
448,192,27084,1,10,0:0:0:0:
192,192,27427,1,2,0:0:0:0:
64,192,27770,1,10,0:0:0:0:
448,192,28113,1,2,0:0:0:0:
320,192,28456,1,10,0:0:0:0:
192,192,28799,1,2,0:0:0:0:
448,192,29142,1,10,0:0:0:0:
64,192,29484,1,2,0:0:0:0:
320,192,29827,1,10,0:0:0:0:
64,192,29999,1,2,0:0:0:0:
192,192,30170,1,2,0:0:0:0:
448,192,30170,1,4,0:0:0:0:
64,192,30513,1,10,0:0:0:0:
448,192,30856,1,2,0:0:0:0:
320,192,31199,1,10,0:0:0:0:
192,192,31542,1,2,0:0:0:0:
64,192,31884,1,10,0:0:0:0:
192,192,32227,1,2,0:0:0:0:
320,192,32570,1,10,0:0:0:0:
448,192,32913,1,6,0:0:0:0:
64,192,32913,1,0,0:0:0:0:
192,192,33427,1,0,0:0:0:0:
320,192,33942,1,10,0:0:0:0:
192,192,34113,1,2,0:0:0:0:
448,192,34284,1,4,0:0:0:0:
64,192,34284,1,2,0:0:0:0:
320,192,34627,1,10,0:0:0:0:
192,192,34799,1,2,0:0:0:0:
448,192,34970,128,6,35656:0:0:0:0:
320,192,35313,128,2,35656:0:0:0:0:
64,192,35656,1,6,0:0:0:0:
192,192,35656,1,0,0:0:0:0:
64,192,35999,1,8,0:0:0:0:
64,192,36684,1,8,0:0:0:0:
64,192,37370,1,8,0:0:0:0:
64,192,38056,1,8,0:0:0:0:
448,192,38742,1,8,0:0:0:0:
448,192,39427,1,8,0:0:0:0:
448,192,40113,1,8,0:0:0:0:
448,192,40799,1,8,0:0:0:0:
192,192,41484,1,8,0:0:0:0:
192,192,42170,1,8,0:0:0:0:
192,192,42856,1,8,0:0:0:0:
192,192,43542,1,8,0:0:0:0:
320,192,44227,1,8,0:0:0:0:
320,192,44913,1,8,0:0:0:0:
320,192,45599,1,8,0:0:0:0:
320,192,46284,1,8,0:0:0:0:
448,192,46627,1,0,0:0:0:0:
192,192,46627,1,4,0:0:0:0:
64,192,46970,1,8,0:0:0:0:
448,192,47656,1,8,0:0:0:0:
64,192,48342,1,8,0:0:0:0:
448,192,49027,1,8,0:0:0:0:
192,192,49713,1,8,0:0:0:0:
320,192,50399,1,8,0:0:0:0:
192,192,51084,1,8,0:0:0:0:
320,192,51770,1,8,0:0:0:0:
448,192,52113,1,6,0:0:0:0:
64,192,52113,1,0,0:0:0:0:
64,192,52456,1,8,0:0:0:0:
64,192,53142,1,8,0:0:0:0:
448,192,53484,1,6,0:0:0:0:
64,192,53484,1,0,0:0:0:0:
448,192,53827,1,8,0:0:0:0:
448,192,54513,1,8,0:0:0:0:
64,192,54856,1,0,0:0:0:0:
448,192,54856,1,6,0:0:0:0:
64,192,55199,1,8,0:0:0:0:
448,192,55542,1,6,0:0:0:0:
64,192,55542,1,0,0:0:0:0:
448,192,55884,1,8,0:0:0:0:
448,192,56227,1,0,0:0:0:0:
64,192,56227,1,6,0:0:0:0:
192,192,56399,1,2,0:0:0:0:
320,192,56570,1,10,0:0:0:0:
448,192,56742,128,2,56913:0:0:0:0:
64,192,56913,1,2,0:0:0:0:
192,192,57084,1,2,0:0:0:0:
320,192,57256,1,10,0:0:0:0:
192,192,57427,1,2,0:0:0:0:
64,192,57599,128,0,57942:0:0:0:0:
448,192,57599,128,0,57942:0:0:0:0:
448,192,58627,1,0,0:0:0:0:
64,192,58627,1,6,0:0:0:0:
192,192,58969,1,10,0:0:0:0:
320,192,58969,1,0,0:0:0:0:
64,192,59312,1,2,0:0:0:0:
448,192,59655,1,10,0:0:0:0:
64,192,59998,1,2,0:0:0:0:
448,192,60341,1,10,0:0:0:0:
64,192,60684,1,2,0:0:0:0:
448,192,61027,1,10,0:0:0:0:
64,192,61369,1,2,0:0:0:0:
320,192,61712,1,10,0:0:0:0:
64,192,62055,1,2,0:0:0:0:
320,192,62398,1,10,0:0:0:0:
64,192,62741,1,2,0:0:0:0:
320,192,63084,1,10,0:0:0:0:
192,192,63427,1,2,0:0:0:0:
448,192,63769,1,10,0:0:0:0:
64,192,64112,1,2,0:0:0:0:
192,192,64455,1,10,0:0:0:0:
448,192,64798,1,2,0:0:0:0:
192,192,65141,1,10,0:0:0:0:
448,192,65484,1,2,0:0:0:0:
192,192,65827,1,10,0:0:0:0:
448,192,66169,1,2,0:0:0:0:
192,192,66512,1,10,0:0:0:0:
320,192,66855,1,2,0:0:0:0:
64,192,67198,1,10,0:0:0:0:
448,192,67541,1,2,0:0:0:0:
192,192,67884,1,10,0:0:0:0:
448,192,68227,1,2,0:0:0:0:
320,192,68569,1,10,0:0:0:0:
192,192,68912,1,2,0:0:0:0:
320,192,69169,1,2,0:0:0:0:
64,192,69255,1,10,0:0:0:0:
192,192,69427,1,2,0:0:0:0:
448,192,69598,1,6,0:0:0:0:
192,192,69598,1,0,0:0:0:0:
64,192,69941,1,0,0:0:0:0:
320,192,69941,1,10,0:0:0:0:
448,192,70284,1,2,0:0:0:0:
64,192,70627,1,10,0:0:0:0:
448,192,70969,1,2,0:0:0:0:
64,192,71312,1,10,0:0:0:0:
448,192,71655,1,2,0:0:0:0:
64,192,71998,1,10,0:0:0:0:
448,192,72341,1,2,0:0:0:0:
192,192,72684,1,10,0:0:0:0:
448,192,73027,1,2,0:0:0:0:
64,192,73369,1,10,0:0:0:0:
448,192,73712,1,2,0:0:0:0:
64,192,74055,1,10,0:0:0:0:
448,192,74398,1,2,0:0:0:0:
64,192,74741,1,10,0:0:0:0:
64,192,74912,1,2,0:0:0:0:
320,192,75084,1,2,0:0:0:0:
192,192,75427,1,10,0:0:0:0:
448,192,75769,1,2,0:0:0:0:
192,192,76112,1,10,0:0:0:0:
448,192,76455,1,2,0:0:0:0:
64,192,76798,1,10,0:0:0:0:
320,192,77141,1,2,0:0:0:0:
192,192,77484,1,10,0:0:0:0:
448,192,77827,1,2,0:0:0:0:
64,192,78169,1,10,0:0:0:0:
448,192,78512,1,2,0:0:0:0:
192,192,78855,1,10,0:0:0:0:
320,192,79198,1,4,0:0:0:0:
64,192,79198,1,0,0:0:0:0:
448,192,79541,1,8,0:0:0:0:
320,192,79884,1,4,0:0:0:0:
64,192,79884,1,0,0:0:0:0:
192,192,80227,128,2,80569:0:0:0:0:
320,192,80569,1,6,0:0:0:0:
448,192,80569,128,0,81941:0:0:0:0:
192,192,81941,128,2,82627:0:0:0:0:
320,192,82627,128,2,83312:0:0:0:0:
448,192,83312,128,2,84684:0:0:0:0:
64,192,84684,128,2,85369:0:0:0:0:
320,192,85369,128,2,86055:0:0:0:0:
448,192,86055,128,2,87427:0:0:0:0:
192,192,87427,128,2,88112:0:0:0:0:
64,192,88112,128,2,88798:0:0:0:0:
448,192,88798,128,2,90169:0:0:0:0:
64,192,90169,128,2,90855:0:0:0:0:
192,192,90855,128,2,91541:0:0:0:0:
320,192,91541,1,6,0:0:0:0:
448,192,91541,128,0,92912:0:0:0:0:
192,192,92912,128,2,93598:0:0:0:0:
320,192,93598,128,2,94284:0:0:0:0:
448,192,94284,128,2,94969:0:0:0:0:
64,192,94969,128,2,95655:0:0:0:0:
320,192,95655,128,2,96341:0:0:0:0:
192,192,96341,128,2,97027:0:0:0:0:
320,192,97027,1,6,0:0:0:0:
448,192,97027,128,0,98398:0:0:0:0:
192,192,98398,1,6,0:0:0:0:
64,192,98398,128,0,99084:0:0:0:0:
192,192,99084,128,0,99769:0:0:0:0:
320,192,99084,1,6,0:0:0:0:
448,192,99769,1,6,0:0:0:0:
320,192,99769,128,0,102169:0:0:0:0:
192,192,102169,1,6,0:0:0:0:
320,192,102512,1,0,0:0:0:0:
192,192,102512,1,6,0:0:0:0:
64,192,102855,1,6,0:0:0:0:
448,192,102855,1,8,0:0:0:0:
