osu file format v9

[General]
AudioFilename: silver_wind.mp3
AudioLeadIn: 0
PreviewTime: 54860
Countdown: 0
SampleSet: Normal
StackLeniency: 0.4
Mode: 0
LetterboxInBreaks: 1

[Editor]
Bookmarks: 75094,102522
DistanceSpacing: 1
BeatDivisor: 4
GridSize: 8

[Metadata]
Title:Gin no Kaze
Artist:wa. remixed celas
Creator:Fear
Version:Hyper
Source:BMS
Tags:rrtyui DeeN Natteke soulfear Silver Wind

[Difficulty]
HPDrainRate:6
CircleSize:4
OverallDifficulty:6
ApproachRate:8
SliderMultiplier:1.7
SliderTickRate:0.5

[Events]
//Background and Video events
Video,-260,"sw_bga.flv"
0,0,"title.jpg"
//Break Periods
//Storyboard Layer 0 (Background)
//Storyboard Layer 1 (Fail)
//Storyboard Layer 2 (Pass)
//Storyboard Layer 3 (Foreground)
//Storyboard Sound Samples
//Background Colour Transformations
3,100,163,162,255

[TimingPoints]
1375,342.857142857143,4,1,0,80,1,0
35832,-133.333333333333,4,1,0,80,0,0
40975,-100,4,2,0,80,0,0
46546,-100,4,1,0,80,0,0
46717,-100,4,2,0,80,0,0
52032,-100,4,1,0,80,0,0
52203,-100,4,2,0,80,0,0
53403,-100,4,1,0,80,0,0
53574,-100,4,2,0,80,0,0
54775,-100,4,1,0,80,0,0
57775,-100,4,2,0,80,0,0
58632,342.857142857143,4,1,0,85,1,0
79032,-100,4,2,0,85,0,0
80060,-100,4,1,0,85,0,0
83403,-100,4,2,0,85,0,0
83574,-100,4,1,0,85,0,0
83745,-100,4,2,0,85,0,0
84260,-100,4,1,0,85,0,0
84431,-100,4,2,0,85,0,0
84946,-100,4,1,0,85,0,0
85117,-100,4,2,0,85,0,0
85288,-100,4,1,0,85,0,0
88888,-100,4,2,0,85,0,0
89059,-100,4,1,0,85,0,0
89230,-100,4,2,0,85,0,0
89401,-100,4,1,0,85,0,0
89572,-100,4,2,0,85,0,0
89743,-100,4,1,0,85,0,0
89914,-100,4,2,0,85,0,0
90085,-100,4,1,0,85,0,0
90256,-100,4,2,0,85,0,0
90427,-100,4,1,0,85,0,0
90598,-100,4,2,0,85,0,0
90769,-100,4,1,0,85,0,0
94375,-100,4,2,0,85,0,0
94546,-100,4,1,0,85,0,0
94717,-100,4,2,0,85,0,0
94888,-100,4,1,0,85,0,0
95059,-100,4,2,0,85,0,0
95230,-100,4,1,0,85,0,0
95401,-100,4,2,0,85,0,0
95572,-100,4,1,0,85,0,0
95743,-100,4,2,0,85,0,0
95914,-100,4,1,0,85,0,0
96085,-100,4,2,0,85,0,0
96256,-100,4,1,0,85,0,0

[Colours]
Combo1 : 17,254,176
Combo2 : 173,255,95
Combo3 : 255,88,100
Combo4 : 255,94,55

[HitObjects]
68,304,2746,1,0
152,308,3089,1,0
240,312,3432,2,0,B|240:224,1,85
320,264,3775,2,0,B|320:352,1,85
400,312,4117,2,0,B|400:136,3,170
400,142,5489,5,0
320,104,5832,1,0
248,64,6175,2,0,B|144:64,1,85
128,144,6517,2,0,B|232:144,1,85
184,224,6860,2,0,B|104:280|28:217,1,170
168,320,7546,2,0,B|248:264|324:327,1,170
408,344,8060,1,0
390,259,8232,6,0,B|328:184|386:104,1,170
232,32,8917,1,0
216,112,9260,1,0
160,176,9603,1,0
88,216,9946,1,0
0,224,10289,1,0
48,296,10632,6,0,B|136:288|208:352,1,170
464,296,11317,2,0,B|376:288|304:352,1,170
256,280,12003,1,0
256,280,12346,6,0,B|192:264|184:176,1,127.5
256,280,12860,2,0,B|320:264|328:176,1,127.5
256,80,13375,1,0
256,80,13546,1,0
256,80,13717,6,0,B|176:128|88:80,1,170,4|8
93,83,14403,1,0
40,144,14575,1,0
24,224,14746,1,8
40,304,14917,1,0
96,368,15089,6,0,B|264:368,1,170,0|8
424,296,15775,2,0,B|256:296,1,170,0|8
254,296,16460,6,0,B|312:216|240:128,1,170,0|8
248,138,17146,1,0
160,136,17317,1,0
96,192,17489,1,8
64,272,17660,1,0
96,344,17832,6,0,B|184:320|200:208,1,170,0|8
197,220,18517,2,0,B|296:216,1,85
352,304,18860,2,0,B|253:308,1,85,8|0
368,224,19203,5,0
144,224,19546,1,8
320,136,19889,1,0
192,136,20232,1,8
256,64,20575,6,0,B|176:40,1,85
256,64,20917,2,0,B|336:40,1,85,8|0
192,136,21260,2,0,B|96:144,1,85
320,136,21603,2,0,B|416:144,1,85,8|0
480,240,21946,6,0,B|384:216|320:288,1,170,0|8
256,328,22460,2,0,B|160:351|101:284,1,170
56,208,22975,1,8
56,208,23317,6,0,B|80:168|64:120,1,85
144,224,23660,2,0,B|120:264|136:312,1,85,8|0
65,126,24003,6,0,B|88:40,1,85
165,141,24346,2,0,B|142:227,1,85,8|0
200,288,24689,5,4
256,352,24860,1,0
288,272,25032,2,0,B|360:216|448:248,1,170,8|0
288,272,25546,1,0
256,192,25718,2,0,B|184:136|96:168,1,170,8|0
256,192,26232,1,0
288,112,26404,2,0,B|360:56|448:88,1,170,8|0
288,112,26917,1,0
216,88,27089,2,0,B|136:64,1,85,8|0
80,128,27432,5,0
56,208,27603,1,0
56,208,27775,2,0,B|160:176|216:288,1,170,8|0
256,336,28289,1,0
256,336,28461,2,0,B|152:368|96:256,1,170,8|0
256,48,29146,5,8
256,336,29489,1,0
256,48,29832,1,8
312,112,30003,1,0
392,136,30175,6,0,B|432:160|488:144,1,85,4|0
488,240,30517,2,0,B|400:264|312:200,1,170,8|0
256,160,31032,1,0
184,208,31203,2,0,B|110:262|22:238,1,170,8|0
37,147,31717,2,0,B|80:160|120:136,1,85,0|8
256,312,32232,1,0
474,147,32575,2,0,B|432:160|392:136,1,85,8|0
360,56,32917,5,4
256,312,33260,1,8
152,56,33603,1,0
256,312,33946,1,8
256,312,34117,1,0
256,312,34289,1,4
96,264,34632,5,8
136,192,34803,1,0
216,160,34975,1,4
216,160,35060,1,8
296,160,35232,1,0
296,160,35317,1,8
376,192,35489,1,0
416,264,35660,1,4
96,264,36003,5,0
96,264,36517,2,0,B|96:200,1,63.749998100102
96,112,37032,1,0
200,208,37375,5,0
200,208,37889,2,0,B|200:272,1,63.749998100102
200,360,38404,1,0
280,272,38746,5,0
280,272,39260,2,0,B|280:208,1,63.749998100102
280,120,39775,1,0
384,216,40118,5,0
384,216,40632,2,0,B|384:280,1,63.749998100102
384,368,41147,1,0
304,336,41317,5,2
464,336,41660,1,2
304,336,42003,1,2
464,336,42346,1,2
304,248,42517,1,0
384,280,42689,5,2
224,280,43032,1,2
384,280,43375,1,2
224,280,43717,1,2
104,176,43889,1,0
24,208,44059,5,2
184,208,44402,1,2
24,208,44745,1,2
184,208,45088,1,2
352,240,45260,1,0
272,208,45432,5,2
432,208,45775,1,2
272,208,46116,1,2
432,208,46459,1,2
352,240,46632,6,0,B|352:72,1,170,4|0
160,144,47317,2,0,B|160:312,1,170
256,240,47832,1,2
400,240,48003,6,0,B|400:72,1,170
112,144,48689,2,0,B|112:312,1,170
256,240,49203,1,2
448,240,49375,6,0,B|448:72,1,170
64,144,50060,2,0,B|64:312,1,170
256,240,50575,1,2
480,240,50746,6,0,B|480:72,1,170
32,144,51432,2,0,B|32:312,1,170
256,240,51946,1,2
192,184,52117,6,0,B|128:112|120:24,1,170,4|0
16,328,52803,2,0,B|80:256|88:168,1,170
320,200,53489,6,0,B|384:272|392:360,1,170,4|0
496,56,54175,2,0,B|432:128|424:216,1,170
256,344,54860,5,4
256,344,55546,1,4
256,344,56146,5,0
256,344,56232,1,4
168,248,56403,1,0
336,192,56575,1,4
168,136,56746,2,0,B|144:136,4,21.25
256,40,57089,1,0
256,40,57260,1,0
256,40,57432,1,0
256,40,57517,1,0
312,296,57946,6,0,B|344:328,3,42.5,2|2|2|0
376,232,58289,2,0,B|408:200,3,42.5,2|2|2|0
296,216,58632,6,0,B|248:227|232:272,1,85,4|0
112,264,58975,2,0,B|160:253|176:208,1,85,8|0
174,211,59317,2,0,B|88:176,1,85
233,268,59660,2,0,B|320:304,1,85,8|0
400,328,60003,5,0
464,264,60175,1,0
376,248,60346,2,0,B|376:200|432:176,1,85,8|0
365,43,60689,2,0,B|384:88|432:88,1,85
265,139,61032,2,0,B|361:139,1,85,8|0
264,248,61375,5,0
176,264,61546,1,0
88,232,61717,1,8
40,152,61889,1,0
56,56,62060,5,0
456,328,62403,1,8
40,152,62746,1,0
472,232,63089,1,8
88,232,63432,5,0
176,168,63603,1,0
288,144,63775,1,8
400,152,63946,1,0
344,336,64117,6,0,B|312:304|312:256,1,85
176,168,64460,1,8
176,168,64632,2,0,B|256:216|224:336,1,170
288,144,65146,2,0,B|256:104|288:48,1,85,8|0
184,64,65489,6,0,B|8:64,1,170,0|8
176,168,66003,2,0,B|352:168,1,170
416,224,66517,2,0,B|442:261|432:304,1,85,8|0
344,328,66860,5,0
256,328,67032,1,0
168,328,67203,1,8
80,192,67546,5,0
168,192,67717,1,0
256,192,67889,1,8
344,192,68060,1,0
432,192,68232,5,0
256,48,68575,1,8
80,192,68917,1,0
256,336,69175,1,0
256,336,69260,1,8
256,336,69432,1,0
344,312,69603,6,0,B|432:304,1,85,4|0
456,216,69946,2,0,B|368:224,1,85,8|0
280,232,70289,2,0,B|195:239,1,85
222,151,70632,2,0,B|306:143,1,85,8|0
448,40,70975,6,0,B|376:104|272:48,1,170,0|8
192,56,71489,1,0
112,104,71660,2,0,B|80:136|80:184,1,85
128,264,72003,2,0,B|160:232|160:184,1,85,8|0
248,200,72346,6,0,B|352:200,2,85,0|0|8
304,288,72860,2,0,B|200:288,2,85,0|0|0
384,264,73375,1,8
424,192,73546,1,0
424,104,73717,1,0
392,24,73889,1,0
280,152,74232,1,0
280,152,74403,2,0,B|88:152,2,170,0|8|0
280,152,75432,6,0,B|352:96,1,85,8|0
392,168,75775,2,0,B|248:272,2,170,0|8|0
448,232,76632,1,0
472,152,76803,2,0,B|495:110|472:64,1,85,8|0
392,56,77146,2,0,B|351:75|310:57,1,85
280,136,77489,2,0,B|238:117|197:136,1,85,8|0
88,136,77832,6,0,B|136:64|232:56,1,170,0|8
424,248,78517,2,0,B|376:320|280:328,1,170,0|8
256,192,79203,5,4
256,192,79889,1,4
112,104,80232,1,0
101,117,80317,1,0
94,132,80403,1,0
91,148,80489,1,0
91,166,80575,6,0,B|128:256|51:329,1,170,4|8
184,136,81260,2,0,B|147:226|224:299,1,170,0|8
328,136,81946,2,0,B|365:226|288:299,1,170,0|8
421,166,82632,2,0,B|384:256|461:329,1,170,0|8
104,328,83317,5,0
160,264,83489,1,2
168,176,83660,1,8
136,96,83832,1,2
240,232,84175,5,2
320,208,84346,1,8
400,224,84517,1,2
304,88,84860,5,2
248,152,85032,1,8
168,176,85203,1,2
88,152,85375,2,0,B|32:184|40:264,1,127.5
39,261,85717,2,0,B|80:256|120:288,1,85,8|0
192,336,86060,6,0,B|280:336,1,85
360,256,86403,2,0,B|256:256,1,85,8|0
144,192,86746,2,0,B|232:192,1,85
312,112,87089,2,0,B|208:112,1,85,8|0
144,112,87432,6,0,B|152:64|112:32,1,85
144,192,87775,2,0,B|152:240|112:272,1,85,8|0
40,224,88117,2,0,B|32:176|72:144,1,85
40,304,88460,2,0,B|32:352|72:384,1,85,8|0
144,352,88803,5,0
224,328,88975,1,2
304,304,89146,1,8
384,280,89317,1,2
464,304,89489,5,0
384,280,89661,1,2
304,256,89832,1,8
224,232,90003,1,2
144,256,90175,5,0
224,232,90347,1,2
304,208,90518,1,8
384,184,90689,1,2
320,48,90860,5,0
256,104,91032,1,0
192,48,91203,1,0
256,336,91546,6,0,B|168:288|80:344,1,170,4|8
320,288,92232,2,0,B|272:213|320:125,1,170,0|8
192,288,92917,2,0,B|104:240|16:296,1,170,0|8
256,240,93603,2,0,B|208:165|256:77,1,170,0|8
432,325,94289,6,0,B|432:237,1,85,0|2
344,333,94632,2,0,B|344:229,1,85,8|2
256,325,94975,2,0,B|256:237,1,85,0|2
168,333,95318,2,0,B|168:229,1,85,8|2
96,200,95660,5,0
64,120,95832,1,2
144,96,96003,1,8
176,176,96175,1,2
56,216,96346,5,0
24,136,96517,1,0
104,112,96689,1,8
136,192,96860,1,0
141,203,96946,1,0
146,214,97032,6,0,B|320:214,3,170,4|8|0|8
344,48,98403,2,0,B|170:48,1,170,4|8
168,336,99089,2,0,B|342:336,1,170,0|8
424,192,99775,5,4
384,264,99946,1,0
344,192,100117,1,8
296,264,100289,1,0
256,192,100460,1,0
208,264,100632,1,0
168,192,100803,1,8
128,264,100975,1,0
88,192,101146,6,0,B|40:192,2,42.5
256,104,101489,2,0,B|256:56,2,42.5,8|0|0
424,192,101832,2,0,B|472:192,2,42.5
256,280,102175,2,0,B|256:328,4,42.5,8|0|0|0|4
256,32,102860,5,4
