osu file format v9

[General]
AudioFilename: silver_wind.mp3
AudioLeadIn: 0
PreviewTime: 54860
Countdown: 0
SampleSet: Normal
StackLeniency: 0.7
Mode: 0
LetterboxInBreaks: 1

[Editor]
DistanceSpacing: 0.8
BeatDivisor: 4
GridSize: 4

[Metadata]
Title:Gin no Kaze
Artist:wa. remixed celas
Creator:Fear
Version:Hard
Source:BMS
Tags:rrtyui DeeN Natteke soulfear Silver Wind

[Difficulty]
HPDrainRate:5
CircleSize:3
OverallDifficulty:4
ApproachRate:6
SliderMultiplier:1.4
SliderTickRate:1

[Events]
//Background and Video events
Video,-260,"sw_bga.flv"
0,0,"title.jpg"
//Break Periods
2,41345,45582
//Storyboard Layer 0 (Background)
//Storyboard Layer 1 (Fail)
//Storyboard Layer 2 (Pass)
//Storyboard Layer 3 (Foreground)
//Storyboard Sound Samples
//Background Colour Transformations
3,100,163,162,255

[TimingPoints]
1375,342.857142857143,4,2,0,70,1,0
12276,-100,4,1,0,70,0,0
13803,-100,4,2,0,70,0,0
52032,-100,4,1,0,70,0,0
52203,-100,4,2,0,70,0,0
53403,-100,4,1,0,70,0,0
53575,-100,4,2,0,70,0,0
54775,-100,4,1,0,70,0,0
54946,-100,4,2,0,70,0,0
55460,-100,4,1,0,70,0,0
55632,-100,4,2,0,70,0,0
56146,-100,4,1,0,70,0,0
57517,-100,4,2,0,70,0,0
58632,342.857142857143,4,2,0,70,1,0
69517,-100,4,1,0,70,0,0
69689,-100,4,2,0,70,0,0
80660,-100,4,2,0,80,0,0

[Colours]
Combo1 : 0,255,128
Combo2 : 255,255,128
Combo3 : 128,255,0
Combo4 : 192,192,192

[HitObjects]
80,80,2746,1,4
164,152,3089,1,2
260,96,3432,1,0
260,96,3603,1,2
260,96,3775,2,0,B|260:252,1,140,0|4
180,312,4460,2,0,B|76:196,1,140,2|0
88,208,5146,5,2
88,208,5489,2,0,B|170:169,1,70,0|2
180,128,5832,2,0,B|268:168,1,70,0|2
280,200,6175,2,0,B|364:164,1,70,0|2
368,120,6518,2,0,B|456:160,1,70,0|2
432,148,6860,1,4
256,288,7546,5,2
156,240,7889,1,0
88,232,8060,1,2
128,176,8232,2,0,B|168:120|256:108,1,140,0|4
384,208,8917,2,4,B|344:264|256:276,1,140,2|4
160,236,9603,1,2
212,96,9946,1,4
352,148,10289,1,2
300,288,10632,1,4
256,192,10975,12,0,12003
92,164,12346,5,0
144,72,12603,1,0
196,164,12860,1,0
248,72,13117,1,0
300,164,13375,2,0,B|340:124|340:124|380:164|380:164|400:144|400:144,1,140,0|4
292,256,14060,5,0
224,244,14232,2,0,B|80:208,1,140,2|2
88,140,14746,1,2
88,140,14917,1,2
88,140,15089,2,0,B|232:140,1,140,0|2
296,140,15603,1,2
360,164,15775,1,0
304,292,16117,1,2
176,252,16460,6,0,B|116:192|152:120,1,140,0|2
260,108,17146,2,0,B|328:140,2,70,0|2|0
272,220,17832,2,0,B|316:284,2,70,0|2|0
184,164,18517,5,0
132,140,18689,1,2
132,84,18860,1,0
188,68,19032,1,2
216,116,19203,1,0
440,124,19889,5,0
348,188,20232,1,2
296,288,20575,1,0
184,300,20917,1,2
108,220,21260,1,0
112,108,21603,1,2
220,136,21946,2,0,B|308:212,2,105,0|0|2
220,136,22632,1,0
112,108,22975,1,0
172,200,23317,6,0,B|244:232,1,70,0|2
188,260,23660,2,0,B|232:328,1,70,0|2
172,304,24003,2,0,B|144:376,1,70,0|2
128,316,24346,2,0,B|52:356,1,70,0|2
88,296,24689,5,4
72,184,25032,2,0,B|144:160|212:184,1,140,4|0
209,183,25546,1,2
244,124,25717,1,0
296,84,25889,1,2
364,76,26060,2,0,B|416:132|400:224,1,140,0|2
364,312,26746,2,0,B|312:256|328:164,1,140,0|2
228,128,27432,6,0,B|112:212,1,140,0|4
204,276,28117,1,0
296,212,28460,1,0
352,212,28632,1,2
364,96,28975,1,2
420,96,29146,1,0
308,96,29489,5,0
196,80,29832,1,0
124,164,30175,2,0,B|96:216|144:256|116:304,1,140,4|0
228,300,30860,2,0,B|256:248|208:208|236:160,1,140,0|2
348,168,31546,2,0,B|320:220|368:260|340:308,1,140,0|2
456,304,32232,2,0,B|484:252|436:212|464:164,1,140,0|2
372,104,32917,5,4
260,116,33260,1,0
216,152,33432,1,2
212,264,33775,1,2
256,296,33946,1,0
360,252,34289,1,4
412,152,34632,1,0
352,60,34975,1,4
284,76,35146,1,2
248,136,35317,2,0,B|180:164|100:128,1,140,4|4
111,132,36003,1,0
100,260,36346,6,0,B|168:260,1,70,0|2
176,196,36689,2,0,B|248:196,1,70,0|2
340,108,37203,1,2
144,144,37717,2,0,B|144:212,1,70,0|2
204,220,38060,2,0,B|204:296,1,70,0|2
324,256,38575,1,2
212,80,39089,1,0
212,80,39260,1,2
212,80,39432,6,0,B|352:80,1,140,0|2
296,192,40117,2,0,B|156:192,1,140,0|2
216,304,40803,2,0,B|376:304,1,140,0|6
132,104,46632,5,4
132,104,46975,5,0
132,104,47146,2,0,B|116:180,1,70,2|0
188,276,47660,2,0,B|184:200,1,70,0|2
224,84,48175,6,0,B|252:164,1,70,2|0
340,236,48689,2,0,B|316:172,1,70,0|2
368,152,49032,2,8,B|372:68,1,70,0|2
260,64,49546,6,0,B|188:64,1,70,2|0
136,164,50060,2,0,B|92:220,1,70,0|2
132,260,50403,2,8,B|120:332,1,70,0|2
184,240,50917,5,2
356,220,51432,2,0,B|392:208,2,35,0|0|2
320,176,51775,2,0,B|328:124,2,35,0|0|2
264,168,52117,5,4
172,232,52460,1,2
220,332,52803,1,0
332,336,53146,1,2
364,228,53489,5,4
272,160,53832,1,2
176,100,54175,1,0
268,40,54517,1,2
364,100,54860,5,4
456,160,55203,1,2
384,248,55546,5,4
272,252,55889,1,2
160,248,56232,5,4
112,232,56403,1,0
84,192,56575,1,4
80,148,56746,1,0
108,104,56917,1,4
156,80,57089,1,0
208,88,57260,1,4
208,88,57432,1,0
208,88,57603,1,6
56,180,58632,6,0,B|128:208|204:172,1,140,6|2
288,116,59317,2,0,B|320:144|324:180|324:180,2,70,0|2|0
224,84,59832,2,0,B|156:80|104:152,1,140,2|2
208,196,60517,5,2
288,276,60860,1,2
288,276,61032,1,0
312,168,61375,5,2
416,124,61717,1,0
412,236,62060,1,0
376,344,62403,1,0
376,344,62575,1,2
332,240,62917,1,2
316,188,63089,1,0
224,124,63432,2,4,B|360:76,1,140
432,160,64117,6,0,B|376:296,1,140,0|2
268,284,64803,2,0,B|220:208,2,70,0|2|0
336,292,65317,2,0,B|376:224|352:156,1,140,2|2
300,112,65832,1,0
236,136,66003,2,0,B|256:208|336:224,1,140,2|2
392,184,66517,1,0
392,184,66689,1,2
352,48,67032,5,2
228,164,67546,1,0
136,100,67889,1,2
68,188,68232,1,0
128,280,68575,1,4
236,256,68917,1,0
336,308,69260,1,4
412,224,69603,5,4
352,132,69946,1,0
296,132,70117,1,2
64,188,71146,6,0,B|92:280,2,70,2|0|2
76,132,71660,2,0,B|152:160|176:244,1,140,0|2
252,304,72346,5,0
224,256,72517,1,2
212,200,72689,1,0
224,144,72860,1,2
264,104,73032,2,0,B|332:76|400:108,1,140,0|2
448,208,73717,2,0,B|380:236|312:204,1,140,0|2
204,176,74403,6,4,B|244:92|244:88,1,70,0|2
272,156,74746,2,0,B|360:192,2,70,0|2|0
216,280,75432,5,0
204,224,75603,1,2
96,188,75946,1,2
100,244,76117,1,0
112,300,76289,1,0
136,348,76460,5,4
248,344,76803,1,2
348,296,77146,1,4
388,192,77489,1,2
224,160,78003,6,4,B|132:136,2,70,2|0|2
256,268,78689,6,4,B|348:244,2,70,2|0|2
224,160,79375,1,2
172,176,79546,1,0
128,208,79717,1,2
112,260,79889,6,0,B|108:304,8,35,2|2|2|2|2|2|2|2|6
64,228,80746,1,2
80,160,80917,1,2
144,132,81089,1,2
212,140,81260,2,0,B|280:176,1,70,2|2
324,220,81603,2,0,B|408:224,1,70,2|2
452,184,81946,5,2
412,128,82117,1,2
344,120,82289,2,0,B|264:148,1,70,2|2
208,152,82632,2,0,B|180:244|184:240,1,70,2|2
212,284,82975,2,0,B|280:316|356:280,1,140,2|2
364,216,83489,2,0,B|296:184|220:220,1,140,2|2
160,220,84003,6,0,B|148:136,1,70,2|2
132,84,84346,2,0,B|208:60,1,70,2|2
244,120,84689,2,0,B|292:184,1,70,2|2
324,236,85032,2,0,B|416:232,2,70,2|2|6
280,180,85546,1,2
240,240,85717,1,2
180,200,85889,6,0,B|100:316,1,140,2|2
52,264,86403,2,0,B|40:176,1,70,2|2
48,124,86746,2,8,B|96:64,1,70,2|2
160,84,87089,2,0,B|208:144,1,70,2|2
256,192,87432,6,0,B|372:132,2,105,2|2|2
196,224,88117,2,0,B|92:284,2,105,2|2|2
252,264,88803,2,0,B|312:364,2,105,2|2|2
220,204,89489,2,0,B|164:96,2,105,2|2|2
284,180,90175,1,6
424,196,90517,1,2
344,312,90860,1,6
208,284,91203,1,2
132,160,91546,6,0,B|204:144,1,70,6|2
204,216,91889,2,0,B|340:264,1,140,2|2
220,344,92575,2,0,B|152:340,1,70,2|2
160,272,92917,2,0,B|40:172,1,140,6|2
164,100,93603,6,0,B|232:64,1,70,6|2
248,132,93946,2,0,B|332:140,1,70,2|2
308,208,94289,2,8,B|412:316,1,140,6|2
412,168,94975,6,0,B|348:112|348:108,1,70,6|2
328,184,95317,2,0,B|256:176,1,70,2|2
264,248,95660,2,0,B|148:360,1,140,6|2
144,204,96346,5,6
144,204,96517,1,2
212,180,96689,1,2
212,180,96860,1,8
280,204,97032,6,0,B|300:168|280:124,2,70,6|2|2
160,276,97717,2,0,B|140:312|160:356,2,70,2|2|2
156,136,98403,6,4,B|164:92|196:76,2,70,6|2|2
236,252,99089,2,0,B|204:232|188:196,2,70,6|2|2
296,124,99775,6,0,B|328:96|368:96,2,70,6|2|2
340,256,100460,2,0,B|316:288|276:288,2,70,6|2|2
256,192,101146,12,6,102517
256,192,102860,5,4
