osu file format v9

[General]
AudioFilename: silver_wind.mp3
AudioLeadIn: 0
PreviewTime: 54860
Countdown: 0
SampleSet: Soft
StackLeniency: 0.7
Mode: 0
LetterboxInBreaks: 1

[Editor]
DistanceSpacing: 1
BeatDivisor: 4
GridSize: 4

[Metadata]
Title:Gin no Kaze
Artist:wa. remixed celas
Creator:Fear
Version:Another
Source:BMS
Tags:rrtyui DeeN Natteke soulfear Silver Wind

[Difficulty]
HPDrainRate:6
CircleSize:5
OverallDifficulty:8
ApproachRate:9
SliderMultiplier:1.9
SliderTickRate:1

[Events]
//Background and Video events
Video,-260,"sw_bga.flv"
0,0,"title.jpg"
//Break Periods
//Storyboard Layer 0 (Background)
//Storyboard Layer 1 (Fail)
//Storyboard Layer 2 (Pass)
//Storyboard Layer 3 (Foreground)
//Storyboard Sound Samples
//Background Colour Transformations
3,100,163,162,255

[TimingPoints]
1375,342.857142857143,4,2,0,80,1,0
2575,-100,4,1,0,50,0,0
12260,-100,4,1,0,75,0,0
13717,-57.1428571428571,4,2,0,80,0,0
14060,-100,4,2,0,80,0,0
24689,-57.1428571428571,4,2,0,80,0,0
25032,-100,4,2,0,80,0,0
34889,-100,4,1,0,80,0,0
35746,-100,4,2,0,80,0,0
56146,-100,4,1,0,80,0,0
57560,-100,4,2,0,80,0,0
57775,-100,4,2,0,70,0,0
58246,-100,4,2,0,75,0,0
58589,-100,4,2,0,80,0,0
58632,342.857142857143,4,2,0,80,1,0
68060,-100,4,1,0,80,0,0
68403,-100,4,2,0,80,0,0
68746,-100,4,1,0,80,0,0
69517,-100,4,2,0,80,0,0
80189,-100,4,1,0,90,0,0
80532,-100,4,2,0,80,0,0
94203,-100,4,2,0,85,0,0
94375,-100,4,2,0,80,0,0
94889,-100,4,2,0,90,0,0
95060,-100,4,2,0,80,0,0
95575,-100,4,2,0,95,0,0
95746,-100,4,2,0,80,0,0
96260,-100,4,2,0,100,0,0
96432,-100,4,2,0,80,0,0
99517,-100,4,1,0,80,0,0
100375,-100,4,1,0,85,0,0
101060,-100,4,1,0,90,0,0
102689,-100,4,2,0,95,0,0

[Colours]
Combo1 : 0,255,128
Combo2 : 255,255,128
Combo3 : 128,255,0
Combo4 : 192,192,192

[HitObjects]
256,192,2403,1,4
256,192,2746,1,0
160,192,2917,1,0
64,168,3089,1,0
200,40,3432,1,0
296,64,3603,1,0
208,104,3775,1,0
304,128,3946,1,0
216,168,4117,1,0
256,192,4460,5,0
256,192,4803,1,0
448,200,5146,1,0
416,288,5317,1,0
320,304,5489,1,0
256,128,5832,1,0
72,152,6174,5,0
120,72,6346,1,0
184,144,6517,1,0
200,240,6689,1,0
160,328,6860,1,0
296,192,7203,5,0
296,192,7546,1,0
200,168,7717,1,0
288,128,7889,1,0
192,104,8060,1,0
280,64,8232,1,0
384,256,8574,5,0
384,256,8746,1,0
384,256,8917,1,0
224,176,9260,1,0
40,176,9603,1,0
40,176,9946,1,0
40,176,10289,1,0
40,176,10632,5,0
120,120,10803,1,0
40,176,10975,1,0
216,160,11317,1,0
216,160,11489,1,0
384,224,11832,1,0
384,224,12003,1,0
288,240,12175,1,0
224,312,12346,5,4
48,184,12603,1,0
208,40,12860,1,4
416,96,13117,1,0
200,96,13375,1,4
88,184,13546,1,4
208,256,13717,2,0,B|456:256,1,249.374988852069,4|0
488,224,14060,1,4
160,264,14403,5,0
64,240,14575,1,2
152,200,14746,1,0
56,176,14917,1,2
144,136,15089,1,0
408,152,15432,1,0
440,240,15603,1,2
408,328,15775,1,0
144,288,16117,5,0
56,248,16289,1,2
40,152,16460,1,0
184,32,16803,1,0
384,184,17146,1,0
296,224,17317,1,2
392,248,17489,1,0
304,288,17660,1,2
400,312,17832,1,0
64,192,18175,1,0
240,40,18517,5,0
264,136,18689,1,2
360,160,18860,1,0
440,216,19032,1,2
416,304,19203,1,0
160,224,19546,1,0
64,160,19889,5,2
208,104,20232,1,2
400,104,20575,5,0
368,192,20746,1,2
400,104,20917,1,0
192,208,21260,5,0
104,240,21432,1,2
32,296,21603,1,0
104,240,21775,1,2
32,176,21946,6,0,B|88:120|160:120,1,142.5,4|0
176,160,22289,1,0
264,128,22460,1,2
328,200,22632,1,0
104,240,22975,1,0
48,312,23146,1,2
104,240,23317,1,0
408,128,23660,5,0
440,216,23832,1,2
408,304,24003,1,0
316,332,24175,1,2
228,300,24346,1,0
156,240,24517,1,2
88,88,24689,6,0,B|336:88,1,249.374988852069,4|0
300,144,25032,1,4
340,60,25203,5,2
432,88,25375,1,0
444,184,25546,1,2
412,272,25717,1,0
340,332,25889,1,2
248,352,26060,1,0
72,276,26403,1,0
156,104,26746,1,2
308,128,27089,5,0
392,128,27260,1,2
392,224,27432,1,2
392,224,27517,1,0
296,224,27689,1,0
296,224,27775,1,2
200,224,27946,1,2
64,224,28117,5,0
72,200,28203,1,0
84,180,28289,1,2
100,164,28375,1,0
120,156,28460,1,0
144,152,28546,1,0
168,156,28632,1,2
136,256,28803,5,2
136,256,28889,1,0
224,288,29060,1,0
224,288,29146,1,2
316,260,29317,1,2
376,168,29489,5,0
360,152,29575,1,0
340,140,29660,1,2
320,128,29746,1,0
296,120,29832,1,0
272,116,29917,1,0
248,120,30003,1,2
224,128,30089,1,0
204,140,30175,1,4
144,236,30346,1,2
92,136,30517,1,0
24,312,30860,5,0
96,256,31032,1,2
112,352,31203,1,0
192,296,31375,1,2
96,256,31546,1,0
408,168,31889,1,2
224,112,32232,5,0
128,88,32403,1,2
40,128,32575,1,0
32,224,32746,1,2
72,312,32917,1,4
288,232,33260,5,0
344,152,33432,1,2
288,232,33603,1,0
312,40,33946,1,0
384,104,34117,1,2
472,144,34289,1,4
472,184,34375,1,0
472,224,34460,1,2
416,304,34632,1,0
320,288,34803,1,2
224,296,34975,1,4
184,296,35060,1,0
88,296,35232,5,0
48,296,35317,1,0
64,200,35489,1,0
112,120,35660,5,0
184,184,35832,1,2
256,128,36003,1,2
256,128,36089,1,0
332,72,36260,1,0
332,72,36346,1,2
428,80,36517,1,2
440,176,36689,2,0,B|464:268,1,95,0|2
328,316,37032,5,0
236,336,37203,1,2
148,300,37375,1,2
148,300,37460,1,0
72,244,37632,1,0
72,244,37717,1,2
160,204,37889,1,2
76,156,38060,2,0,B|100:64,1,95,0|2
244,64,38403,5,0
324,116,38575,1,2
256,180,38746,1,2
256,180,38832,1,0
400,180,39003,1,0
400,180,39089,1,2
324,240,39260,1,2
400,300,39432,1,0
312,336,39603,1,2
232,284,39775,5,0
100,336,39946,1,2
160,248,40117,1,2
160,248,40203,1,0
60,284,40375,1,0
60,284,40460,1,2
36,144,40632,1,2
36,144,40717,1,0
116,64,40889,5,0
120,92,40975,1,2
124,120,41060,1,0
128,148,41146,1,0
208,64,41317,1,2
324,64,41489,5,0
348,68,41574,1,0
364,88,41660,1,2
372,112,41746,1,0
372,136,41832,1,0
472,192,42003,1,2
392,276,42175,1,0
288,320,42346,1,2
100,308,42517,5,0
256,200,42689,1,2
88,116,42860,1,0
108,104,42946,1,0
132,100,43032,1,2
156,100,43117,1,0
180,100,43203,1,0
148,288,43375,5,2
256,132,43546,1,0
76,192,43717,1,2
240,288,43889,5,0
296,120,44060,1,2
404,156,44232,1,0
404,180,44317,1,0
404,204,44403,1,2
404,228,44489,1,0
404,252,44575,1,0
228,180,44746,5,2
404,252,44917,1,0
244,356,45089,1,2
56,356,45260,5,0
208,240,45432,1,2
28,180,45603,1,0
48,164,45689,1,0
72,156,45775,1,2
96,164,45860,1,0
116,180,45946,1,0
72,264,46117,5,2
52,248,46203,1,0
40,228,46289,1,0
36,204,46375,1,0
40,180,46460,1,2
52,160,46546,1,0
72,144,46632,1,4
256,40,46889,5,2
420,180,47146,1,2
256,316,47403,1,0
256,316,47489,1,2
184,192,47660,1,0
256,316,47832,1,0
112,320,48003,5,2
32,120,48260,1,2
148,200,48517,1,2
224,80,48775,1,0
224,80,48860,1,2
320,80,49032,1,0
404,120,49203,1,2
464,192,49375,5,0
336,304,49632,1,2
164,304,49889,1,2
168,160,50146,1,0
168,160,50232,1,2
56,180,50403,1,0
96,72,50575,1,2
208,72,50746,5,0
332,144,51003,1,2
256,264,51260,1,2
256,264,51346,1,0
256,264,51432,1,0
256,168,51603,1,2
256,168,51689,2,0,B|256:72,1,95
256,24,51946,6,0,B|208:36,1,47.5,2|0
188,48,52117,2,0,B|148:72,1,47.5,4|0
128,88,52289,2,0,B|100:124,1,47.5,2|0
88,148,52460,2,0,B|68:192,1,47.5
60,216,52632,2,0,B|52:264,1,47.5,2|0
52,288,52803,2,0,B|64:332,1,47.5,0|0
84,348,52975,2,0,B|128:360,1,47.5,2|0
152,360,53146,2,0,B|200:360,1,47.5,0|0
224,360,53317,1,2
324,48,53489,6,0,B|364:72,1,47.5,4|0
384,88,53661,2,0,B|412:124,1,47.5,2|0
424,148,53832,2,0,B|444:192,1,47.5
452,216,54004,2,0,B|460:264,1,47.5,2|0
460,288,54175,2,0,B|448:332,1,47.5,0|0
428,348,54347,2,0,B|384:360,1,47.5,2|0
360,360,54518,2,0,B|312:360,1,47.5,0|0
288,360,54689,1,2
188,48,54860,6,0,B|148:72,1,47.5,4|0
128,88,55032,2,0,B|100:124,1,47.5,2|0
88,148,55203,2,0,B|68:192,1,47.5
60,216,55375,1,2
324,48,55546,6,0,B|364:72,1,47.5,4|0
384,88,55718,2,0,B|412:124,1,47.5,2|0
424,148,55889,2,0,B|444:192,1,47.5
452,216,56060,2,0,B|460:264,1,47.5,2|0
460,288,56232,5,0
352,256,56403,1,0
256,192,56574,1,0
160,256,56746,2,0,B|160:228,4,23.75
160,256,57089,1,0
256,192,57260,1,0
256,192,57432,1,0
256,192,57517,1,0
256,192,57603,1,4
376,340,57946,5,2
336,316,58032,1,2
296,292,58117,1,2
256,264,58203,1,2
300,244,58289,5,2
256,224,58375,1,2
216,200,58460,1,2
176,176,58546,1,2
136,148,58632,5,6
252,300,58975,1,0
316,228,59146,1,2
388,72,59489,1,2
296,48,59660,1,2
200,36,59832,1,2
68,148,60175,1,2
108,312,60517,1,2
280,312,60860,1,2
372,292,61032,1,2
468,152,61375,5,0
380,120,61546,1,2
284,120,61717,1,0
188,120,61889,1,2
256,188,62060,1,0
320,260,62232,1,2
224,256,62403,1,0
128,240,62575,1,2
24,80,62917,1,2
212,44,63260,1,2
304,64,63432,1,0
368,136,63603,1,2
408,224,63775,1,0
212,296,64117,5,0
24,264,64460,1,0
40,168,64632,1,2
168,24,64975,1,2
360,40,65317,1,2
440,216,65660,1,2
376,288,65832,1,0
288,320,66003,1,2
192,344,66175,1,0
104,312,66346,1,2
192,272,66517,1,0
104,232,66689,1,2
200,64,67032,5,2
296,64,67203,1,0
392,64,67375,1,2
448,136,67546,1,0
480,224,67717,1,2
200,280,68232,1,0
32,184,68575,1,2
152,40,68917,1,0
152,40,69003,2,0,B|248:40,1,95
247,40,69260,1,0
296,40,69432,1,0
408,112,69603,5,0
396,128,69689,1,0
380,140,69775,1,2
360,144,69860,1,0
340,144,69946,1,0
324,136,70032,1,0
308,124,70117,1,2
256,204,70289,5,0
240,216,70375,1,0
228,232,70461,1,2
224,252,70546,1,0
224,272,70632,1,0
232,288,70718,1,0
244,304,70803,1,2
168,220,70975,5,0
148,216,71061,1,0
129,209,71147,1,2
116,193,71232,1,0
106,176,71318,1,0
104,158,71404,1,0
107,138,71489,1,2
196,84,71661,5,0
208,68,71747,1,0
224,56,71833,1,2
244,52,71918,1,0
264,52,72004,1,0
280,60,72090,1,0
296,72,72175,1,2
288,176,72346,5,0
288,196,72432,1,0
288,216,72518,1,2
288,236,72603,1,0
288,256,72689,1,0
288,276,72775,1,0
288,296,72860,1,2
224,212,73032,5,0
224,192,73118,1,0
224,172,73204,1,2
224,152,73289,1,0
224,132,73375,1,0
224,112,73461,1,0
224,92,73546,1,2
352,176,73717,5,0
352,196,73803,1,0
352,216,73889,1,2
352,236,73974,1,0
352,256,74060,1,0
352,276,74146,1,0
352,296,74231,1,2
160,208,74403,5,0
160,188,74489,1,0
160,168,74575,1,2
160,148,74660,1,0
160,128,74746,1,0
160,108,74832,1,0
160,88,74917,1,2
316,196,75089,6,0,B|332:240,1,47.5,0|0
364,332,75260,2,0,B|380:288,1,47.5,2|0
416,196,75432,2,0,B|432:240,1,47.5,0|0
464,332,75603,1,2
268,144,75775,5,0
248,144,75861,1,0
228,144,75947,1,2
208,144,76032,1,0
188,144,76118,1,0
168,144,76204,1,0
148,144,76289,1,2
196,196,76460,6,0,B|180:240,1,47.5,0|0
148,332,76631,2,0,B|132:288,1,47.5,2|0
96,196,76803,2,0,B|80:240,1,47.5,0|0
48,332,76974,1,2
244,240,77146,5,0
264,240,77232,1,0
284,240,77318,1,2
304,240,77403,1,0
324,240,77489,1,0
344,240,77575,1,0
364,240,77660,1,2
224,144,77832,6,0,B|224:192,1,47.5,2|0
172,224,78003,2,0,B|172:176,1,47.5,2|0
112,164,78175,2,0,B|112:212,1,47.5,2|0
92,272,78346,2,0,B|92:320,1,47.5,2|0
160,304,78517,5,4
232,352,78689,1,2
256,356,78775,1,0
280,356,78860,1,0
304,356,78946,1,0
328,356,79032,1,2
256,192,79203,5,6
272,48,79889,6,0,B|236:84,1,47.5,2|2
144,60,80060,2,0,B|100:76,1,47.5,2|2
144,164,80232,2,0,B|108:200,1,47.5,0|0
20,224,80403,2,0,B|12:272,1,47.5
72,344,80574,6,0,B|148:288,1,95,6|2
240,316,80832,2,0,B|316:260,1,95,2|2
408,236,81089,1,2
472,60,81260,2,0,B|424:60,1,47.5,2|2
436,148,81432,1,2
436,147,81517,1,2
436,147,81603,1,2
268,56,81775,5,2
108,156,81946,2,0,B|204:156,1,95,2|2
108,56,82203,2,0,B|208:56,1,95,2|2
80,156,82460,1,2
108,268,82631,1,2
268,208,82803,1,2
228,232,82889,1,2
184,244,82974,1,2
96,96,83146,5,2
256,40,83317,1,2
156,204,83489,1,2
204,204,83574,2,0,B|300:204,1,95,2|2
340,292,83832,1,2
392,212,84003,1,2
408,120,84175,1,2
404,92,84260,1,2
396,64,84346,1,2
212,12,84518,5,2
264,196,84689,1,2
152,24,84860,1,2
128,36,84946,1,2
112,60,85032,1,2
104,88,85117,1,2
100,116,85203,1,2
168,180,85374,5,2
224,204,85460,2,0,B|128:204,1,95,2|2
33,204,85717,1,2
164,316,85889,1,2
192,340,85974,1,2
228,344,86060,1,6
340,272,86232,5,2
376,272,86317,1,2
340,144,86489,1,2
376,144,86574,1,2
475,180,86746,1,2
356,28,86917,1,2
316,28,87003,1,2
284,52,87089,1,2
168,116,87260,5,2
56,248,87432,2,0,B|156:248,1,95,2|2
228,192,87689,2,0,B|296:260,1,95,2|2
340,176,87946,2,0,B|388:176,1,47.5,2|2
484,176,88117,1,2
324,264,88289,1,2
288,264,88374,1,2
248,264,88460,1,2
284,100,88632,5,2
452,124,88803,1,2
384,280,88975,1,2
336,280,89060,2,0,B|304:280|304:280|284:260|284:260|248:260,1,95,2|2
192,184,89317,1,2
384,340,89489,1,2
196,340,89660,1,2
148,340,89745,2,0,B|116:340|116:340|96:320|96:320|60:320,1,95,2|2
4,244,90002,1,2
192,280,90175,5,6
96,112,90346,1,2
96,112,90432,2,0,B|188:144,1,95,2|2
184,76,90689,1,2
184,76,90775,1,2
184,76,90860,2,0,B|228:92,1,47.5,6|2
292,120,91032,1,2
324,132,91117,1,2
356,144,91203,1,6
220,280,91375,1,2
468,192,91546,5,6
332,292,91717,1,2
332,292,91803,1,2
212,144,91974,1,2
212,144,92060,1,2
188,276,92232,1,2
156,256,92317,1,2
132,224,92403,1,2
116,188,92489,1,2
112,152,92574,1,2
256,24,92746,1,2
256,208,92917,37,6
124,192,93089,1,2
124,192,93175,1,2
212,92,93346,1,2
212,92,93432,1,2
332,152,93603,1,6
324,184,93689,1,2
320,216,93774,1,2
320,248,93860,1,2
320,280,93946,1,2
256,164,94117,1,2
480,128,94289,5,6
388,224,94460,1,2
388,224,94546,1,2
280,304,94717,1,2
280,304,94803,1,2
124,192,94975,5,6
232,300,95146,1,2
232,300,95232,1,2
360,216,95403,1,2
360,216,95489,1,2
488,356,95660,5,6
352,252,95832,1,2
352,252,95917,1,2
200,332,96089,1,2
200,332,96175,1,2
456,136,96346,5,6
268,148,96517,2,0,B|268:100,2,47.5,2|2|2
332,328,96860,1,2
332,328,96946,1,2
332,328,97032,1,6
240,264,97203,5,2
240,264,97289,1,2
136,312,97460,1,2
136,312,97546,1,2
24,288,97717,1,2
40,176,97889,1,2
40,176,97975,1,2
40,176,98060,2,0,B|48:80,1,95,2|2
144,200,98403,5,6
216,96,98575,1,2
216,96,98660,2,0,B|312:80,1,95,2|2
309,80,98917,1,2
460,56,99089,5,6
376,160,99260,1,2
376,160,99346,1,2
376,160,99432,2,0,B|444:300,1,142.5
404,320,99775,5,0
296,284,99946,1,0
188,320,100117,1,0
76,264,100289,1,0
160,356,100460,5,0
248,256,100632,1,0
336,356,100803,1,0
432,248,100975,1,0
272,308,101146,5,0
244,280,101232,1,0
224,248,101317,1,0
212,212,101403,1,0
216,176,101489,1,0
232,140,101575,1,0
256,112,101660,2,0,B|256:88,4,23.75
128,176,102003,2,0,B|104:176,4,23.75
40,344,102346,5,0
40,344,102432,1,0
40,344,102517,1,0
256,52,102860,5,4
