osu file format v12

[General]
AudioFilename: geeIwonderwherethismp3isfrom.mp3
AudioLeadIn: 0
PreviewTime: 68009
Countdown: 0
SampleSet: Soft
StackLeniency: 0.7
Mode: 0
LetterboxInBreaks: 1

[Editor]
DistanceSpacing: 0.9
BeatDivisor: 4
GridSize: 4

[Metadata]
Title:Crystal World ~Fracture~
TitleUnicode:水晶世界 ~Fracture~
Artist:wa. remixed celas
ArtistUnicode:wa. remixed celas
Creator:Mr Color
Version:Beginner
Source:BMS
Tags:bof 2010 bms of fighters Suishou Sekai Hard NRG jomnhnk
BeatmapID:223858
BeatmapSetID:62962

[Difficulty]
HPDrainRate:1
CircleSize:3
OverallDifficulty:1
ApproachRate:3
SliderMultiplier:1
SliderTickRate:2

[Events]
//Background and Video events
0,0,"an_actual_new_background_holy_mackerel.png",0,0
//Break Periods
2,46875,55902
//Storyboard Layer 0 (Background)
//Storyboard Layer 1 (Fail)
//Storyboard Layer 2 (Pass)
//Storyboard Layer 3 (Foreground)
//Storyboard Sound Samples
//Background Colour Transformations
3,100,163,162,255

[TimingPoints]
2676,333.333333333333,4,2,1,80,1,0
14675,-100,4,2,0,80,0,0
14842,-100,4,2,1,80,0,0
20009,-100,4,2,0,80,0,0
20092,-100,4,2,1,80,0,0
22592,-100,4,2,0,80,0,0
22759,-100,4,2,1,80,0,0
25259,-100,4,2,0,80,0,0
25425,-100,4,2,2,80,0,0
36009,-100,4,2,0,80,0,0
36175,-100,4,2,2,80,0,0
45342,-100,4,2,0,80,0,0
45509,-100,4,2,2,80,0,0
46675,-100,4,2,0,80,0,0
57425,-100,4,2,2,80,0,0
66592,-100,4,2,0,80,0,0
68009,-100,4,2,0,80,0,0
68092,-100,4,2,2,80,0,0
78259,-100,4,2,0,80,0,0
78425,-100,4,2,2,80,0,0
78592,-100,4,2,0,80,0,0
78759,-100,4,2,2,80,0,0
88009,-100,4,2,0,80,0,0
89342,-100,4,2,0,80,0,0
90842,-100,4,2,2,80,0,0
101342,-100,4,2,0,80,0,0
101425,-100,4,2,2,80,0,0

[Colours]
Combo1 : 0,0,255
Combo2 : 0,255,0
Combo3 : 0,255,128
Combo4 : 0,255,255

[HitObjects]
256,192,4009,1,0,1:0:0:0:
332,240,4342,2,8,P|256:280|168:212,1,200,8|8,0:0|0:0,2:2:0:0:
192,132,5342,1,2,0:0:0:0:
104,156,5675,1,8,0:0:0:0:
40,324,6342,5,8,0:0:0:0:
128,344,6675,1,2,0:0:0:0:
208,304,7009,2,0,P|260:232|300:308,1,200,8|8,0:0|0:0,0:0:0:0:
384,344,8009,1,2,0:0:0:0:
472,324,8342,1,8,0:0:0:0:
428,148,9009,6,0,P|416:96|428:48,2,100,8|2|8,0:0|0:0|0:0,0:0:0:0:
256,200,10342,2,0,L|256:304,2,100,8|2|8,0:0|0:0|0:0,0:0:0:0:
84,148,11675,2,0,P|96:96|84:48,2,100,8|2|8,0:0|0:0|0:0,0:0:0:0:
44,324,13009,5,8,0:0:0:0:
124,368,13342,2,0,P|256:312|392:372,1,300,2|8,0:0|0:0,0:0:0:0:
468,324,14675,5,4,1:2:0:0:
496,240,15009,2,0,P|448:168|336:180,1,200,8|8,0:0|0:0,0:0:0:0:
256,192,16009,5,2,0:0:0:0:
168,210,16342,2,0,P|64:216|16:144,1,200,8|8,0:0|0:0,0:0:0:0:
52,60,17342,5,2,0:0:0:0:
108,132,17675,1,8,0:0:0:0:
172,300,18342,5,8,0:0:0:0:
256,268,18675,1,2,0:0:0:0:
340,300,19009,1,8,0:0:0:0:
404,132,19675,1,8,0:0:0:0:
336,72,20009,6,0,P|316:128|332:184,1,100,4|8,1:2|0:0,0:0:0:0:
392,224,20675,2,0,P|398:262|378:318,1,100,2|8,0:0|0:0,0:0:0:0:
304,260,21342,6,0,L|468:260,2,150,8|2|8,0:0|0:0|0:0,0:0:0:0:
208,260,22675,2,0,L|44:260,2,150,4|2|8,1:2|0:0|0:0,0:0:0:0:
256,192,24009,5,0,1:0:0:0:
180,144,24342,1,0,1:0:0:0:
256,104,24675,1,0,1:0:0:0:
336,140,25009,1,0,1:0:0:0:
416,196,25342,5,4,1:2:0:0:
432,110,25675,2,0,P|400:28|300:24,1,200,8|8,1:2|1:2,0:0:0:0:
212,24,26675,6,0,P|112:28|79:110,1,200,0|0,1:0|1:0,0:0:0:0:
120,192,27675,1,8,1:2:0:0:
79,273,28009,6,0,P|112:356|212:360,1,200,0|0,1:0|1:0,0:0:0:0:
300,336,29009,1,8,1:2:0:0:
376,288,29342,6,0,P|388:344|376:384,2,100,0|8|0,1:0|1:2|1:0,0:0:0:0:
296,244,30342,1,8,1:2:0:0:
216,284,30675,6,0,P|160:352|44:228,1,300,0|8,1:0|1:2,0:0:0:0:
40,146,32009,6,0,P|160:32|216:100,1,300,0|8,1:0|1:2,0:0:0:0:
128,116,33342,6,0,B|140:152|128:192|128:192|140:224|128:268,2,150,0|2|8,1:0|0:0|1:2,0:0:0:0:
44,148,34675,5,0,1:0:0:0:
24,328,35342,1,0,1:0:0:0:
112,352,35675,1,8,1:2:0:0:
196,316,36009,6,0,P|308:348|448:248,1,300,4|8,1:2|1:2,0:0:0:0:
448,136,37342,6,0,P|308:36|196:68,1,300,0|8,1:0|1:2,0:0:0:0:
264,128,38675,6,0,P|352:144|252:248,1,300,0|8,1:0|1:2,0:0:0:0:
180,212,40009,5,0,1:0:0:0:
180,300,40342,1,8,1:2:0:0:
102,263,40675,2,0,P|86:211|96:168,1,100,0|8,1:0|1:2,0:0:0:0:
172,124,41342,6,0,P|264:136|264:324,1,300,0|0,1:0|1:3,0:0:0:0:
203,355,42675,6,0,P|111:343|96:168,1,300,0|8,1:0|1:2,0:0:0:0:
36,100,44009,6,0,B|96:56|168:100|168:100|236:144|320:100,1,300,0|8,1:0|1:2,0:0:0:0:
256,192,45342,12,4,46675,1:2:0:0:
304,116,57342,5,4,1:2:0:0:
220,84,57675,2,0,P|132:76|80:164,1,200,8|8,1:2|1:2,0:0:0:0:
79,245,58675,6,0,P|131:331|219:323,1,200,0|0,1:0|1:0,2:0:0:0:
296,276,59675,1,8,1:2:0:0:
368,332,60009,6,0,P|384:276|376:236,1,100,0|8,1:0|1:2,0:0:0:0:
228,32,61009,1,8,1:2:0:0:
144,52,61342,6,0,P|128:108|136:148,1,100,0|8,1:0|1:2,0:0:0:0:
148,328,62342,1,8,1:2:0:0:
232,360,62675,5,0,1:0:0:0:
296,296,63009,2,0,P|388:336|440:260,1,200,8|8,1:2|1:2,0:0:0:0:
400,188,64009,5,0,1:0:0:0:
439,115,64342,2,0,P|388:48|296:88,1,200,8|8,1:2|1:2,0:0:0:0:
224,144,65342,6,0,P|172:132|120:156,1,100,0|8,1:0|1:2,0:0:0:0:
129,236,66009,2,0,P|172:252|224:240,1,100,0|8,1:0|1:2,0:0:0:0:
300,196,66675,5,4,0:0:0:0:
300,288,67009,1,4,0:0:0:0:
380,244,67342,1,4,0:0:0:0:
380,152,67675,1,4,0:0:0:0:
300,104,68009,6,0,P|372:60|448:92,2,150,4|2|8,1:0|0:0|1:2,0:0:0:0:
212,104,69342,2,0,P|140:60|64:92,2,150,0|2|8,1:0|0:0|1:2,0:0:0:0:
136,148,70675,6,0,L|136:256,1,100,0|8,1:0|1:2,0:0:0:0:
172,332,71342,1,0,1:0:0:0:
256,304,71676,1,8,1:2:0:0:
340,332,72009,1,0,1:0:0:0:
376,248,72342,2,0,L|376:148,2,100,8|0|8,1:2|1:0|1:2,0:0:0:0:
288,240,73342,6,0,P|240:284|156:276,2,150,0|2|8,1:0|0:0|1:2,0:0:0:0:
288,144,74675,2,0,P|240:100|156:108,2,150,0|2|8,1:0|0:0|1:2,0:0:0:0:
212,192,76009,6,0,L|96:192,1,100,0|8,1:0|1:2,0:0:0:0:
36,144,76675,1,0,1:0:0:0:
36,236,77009,1,8,1:2:0:0:
36,324,77342,2,0,P|88:344|144:332,1,100,0|8,1:0|1:2,0:0:0:0:
172,260,78009,2,0,P|214:254|266:274,1,100,0|4,1:0|1:2,0:0:0:0:
328,336,78675,6,0,L|480:336,2,150,4|2|8,1:2|0:0|1:2,0:0:0:0:
344,248,80009,2,0,L|496:248,2,150,0|2|8,1:0|0:0|1:2,0:0:0:0:
304,168,81342,5,0,1:0:0:0:
208,168,81675,1,8,1:2:0:0:
152,240,82009,2,0,L|48:240,1,100,0|8,1:0|1:2,0:0:0:0:
64,328,82675,6,0,L|168:328,1,100,0|8,1:0|1:2,0:0:0:0:
240,280,83342,2,0,P|296:268|332:296,1,100,0|8,1:2|1:2,0:0:0:0:
400,344,84009,5,0,1:0:0:0:
424,256,84342,2,0,B|448:204|428:160|428:160|404:116|428:64,1,200,8|8,1:2|1:2,0:0:0:0:
356,8,85342,6,0,P|272:0|196:88,1,200,0|0,1:0|1:2,0:0:0:0:
236,160,86342,1,8,1:2:0:0:
152,192,86675,5,0,1:0:0:0:
68,220,87009,1,8,1:2:0:0:
136,280,87342,1,0,1:0:0:0:
220,248,87675,1,8,1:2:0:0:
300,288,88009,6,0,P|392:192|292:96,1,300,4|4,1:2|1:2,0:0:0:0:
256,192,89342,12,4,90675,1:2:0:0:
184,200,91009,6,0,P|256:260|324:200,1,200,8|8,1:2|1:2,0:0:0:0:
324,112,92009,5,0,1:0:0:0:
388,48,92342,2,0,P|412:100|400:152,2,100,8|8|8,1:2|1:2|1:2,0:0:0:0:
300,24,93342,6,0,L|140:24,2,150,0|2|8,1:0|0:0|1:2,0:0:0:0:
388,12,94675,5,0,1:0:0:0:
472,40,95009,1,8,1:2:0:0:
404,100,95342,1,0,1:0:0:0:
488,132,95675,1,8,1:2:0:0:
416,188,96009,6,0,P|388:264|428:328,2,150,0|2|8,1:0|0:0|1:2,0:0:0:0:
476,256,97342,5,0,1:0:0:0:
316,340,98009,1,0,1:0:0:0:
228,320,98342,1,8,1:2:0:0:
140,336,98675,6,0,P|120:284|128:240,1,100,0|8,1:0|1:2,0:0:0:0:
127,142,99342,2,0,P|120:100|140:48,1,100,0|8,1:0|1:2,0:0:0:0:
212,104,100009,5,0,1:0:0:0:
256,32,100342,1,8,1:2:0:0:
300,104,100675,1,0,1:0:0:0:
256,180,101009,1,8,1:2:0:0:
256,268,101342,5,4,1:2:0:0:
208,344,101675,2,0,P|164:352|120:320,2,100,8|0|8,1:2|1:0|1:2,0:0:0:0:
300,348,102675,6,0,P|344:356|388:324,1,100,0|8,1:0|1:2,0:0:0:0:
360,244,103342,1,0,1:0:0:0:
436,192,103675,1,8,1:2:0:0:
352,160,104009,6,0,P|406:103|476:112,2,150,0|2|8,1:0|0:0|1:2,0:0:0:0:
268,192,105342,6,0,P|280:272|184:328,1,200,0|0,1:0|1:0,0:0:0:0:
108,292,106342,1,8,1:2:0:0:
28,252,106675,6,0,L|28:148,1,100,0|8,1:0|1:2,0:0:0:0:
0,68,107342,1,0,1:0:0:0:
68,8,107675,6,0,P|140:72|240:52,1,200,8|8,1:2|1:2,0:0:0:0:
316,12,108675,1,0,1:0:0:0:
340,100,109009,1,8,1:2:0:0:
404,36,109342,6,0,P|432:92|268:160,1,300,0|8,1:0|1:2,0:0:0:0:
256,192,110675,12,4,112009,1:0:0:0:
