osu file format v12

[General]
AudioFilename: lieselotte.mp3
AudioLeadIn: 1004
PreviewTime: 60013
Countdown: 0
SampleSet: Normal
StackLeniency: 0.7
Mode: 1
LetterboxInBreaks: 0

[Editor]
Bookmarks: 33933
DistanceSpacing: 1.2
BeatDivisor: 4
GridSize: 32

[Metadata]
Title:lieselotte
TitleUnicode:lieselotte
Artist:wa.
ArtistUnicode:wa.
Creator:rrtyui
Version:Taiko Muzukashii
Source:BMS
Tags:THE BMS OF FIGHTERS 2012 -EIN NEUER HEILIGER KRIEG- bof2012 Memoirs Gothic Lolita Memoir deadblue238 Regou inaba-tan inaba9510
BeatmapID:180923
BeatmapSetID:59988

[Difficulty]
HPDrainRate:5
CircleSize:5
OverallDifficulty:5
ApproachRate:5
SliderMultiplier:1.4
SliderTickRate:1

[Events]
//Background and Video events
0,0,"BG.png",0,0
//Break Periods
2,44213,48146
//Storyboard Layer 0 (Background)
//Storyboard Layer 1 (Fail)
//Storyboard Layer 2 (Pass)
//Storyboard Layer 3 (Foreground)
//Storyboard Sound Samples
//Background Colour Transformations
3,100,163,162,255

[TimingPoints]
1347,333.333333333333,4,1,0,70,1,0
11846,-100,4,1,0,60,0,0
22680,-100,4,1,0,75,0,0
65346,-100,4,1,0,90,0,1
86680,-100,4,1,0,70,0,0
113346,-100,4,1,0,90,0,0

[Colours]
Combo1 : 128,255,255
Combo2 : 255,128,128
Combo3 : 128,255,255
Combo4 : 255,128,128

[HitObjects]
256,192,1346,1,4,0:0:0:0:
256,192,3846,1,8,0:0:0:0:
256,192,4013,1,8,0:0:0:0:
256,192,6680,1,4,0:0:0:0:
256,192,9346,1,8,0:0:0:0:
256,192,12013,1,0,0:0:0:0:
256,192,12346,5,8,0:0:0:0:
256,192,12680,5,0,0:0:0:0:
256,192,13013,1,8,0:0:0:0:
256,192,13180,1,8,0:0:0:0:
256,192,13346,1,0,0:0:0:0:
256,192,13680,1,8,0:0:0:0:
256,192,14013,1,0,0:0:0:0:
256,192,14180,1,0,0:0:0:0:
256,192,14346,1,8,0:0:0:0:
256,192,14680,1,0,0:0:0:0:
256,192,15013,1,8,0:0:0:0:
256,192,15180,1,0,0:0:0:0:
256,192,15346,1,8,0:0:0:0:
256,192,15513,1,0,0:0:0:0:
256,192,15680,1,8,0:0:0:0:
256,192,15846,1,8,0:0:0:0:
256,192,16013,1,0,0:0:0:0:
256,192,16346,1,8,0:0:0:0:
256,192,16680,1,0,0:0:0:0:
256,192,16846,1,0,0:0:0:0:
256,192,16930,1,0,0:0:0:0:
256,192,17013,1,8,0:0:0:0:
256,192,17180,1,0,0:0:0:0:
256,192,17346,1,0,0:0:0:0:
256,192,17680,1,8,0:0:0:0:
256,192,18013,1,0,0:0:0:0:
256,192,18180,1,0,0:0:0:0:
256,192,18346,5,8,0:0:0:0:
256,192,18680,5,0,0:0:0:0:
256,192,18846,1,0,0:0:0:0:
256,192,18930,1,0,0:0:0:0:
256,192,19013,5,8,0:0:0:0:
256,192,19180,1,0,0:0:0:0:
256,192,19346,5,8,0:0:0:0:
256,192,19430,1,8,0:0:0:0:
256,192,19513,5,0,0:0:0:0:
256,192,19680,5,8,0:0:0:0:
256,192,19846,1,8,0:0:0:0:
256,192,20013,5,0,0:0:0:0:
256,192,20346,5,8,0:0:0:0:
256,192,20513,5,0,0:0:0:0:
256,192,20680,1,8,0:0:0:0:
256,192,20846,1,8,0:0:0:0:
256,192,21013,5,0,0:0:0:0:
256,192,21180,5,8,0:0:0:0:
256,192,21346,5,4,0:0:0:0:
256,192,22180,1,0,0:0:0:0:
256,192,22263,1,0,0:0:0:0:
256,192,22346,1,8,0:0:0:0:
256,192,22680,1,4,0:0:0:0:
256,192,22846,1,0,0:0:0:0:
256,192,22930,1,0,0:0:0:0:
256,192,23013,5,8,0:0:0:0:
256,192,23180,5,8,0:0:0:0:
256,192,23346,1,8,0:0:0:0:
256,192,23430,1,8,0:0:0:0:
256,192,23513,1,0,0:0:0:0:
256,192,23680,1,8,0:0:0:0:
256,192,23846,1,8,0:0:0:0:
256,192,24013,1,0,0:0:0:0:
256,192,24346,1,8,0:0:0:0:
256,192,24513,1,0,0:0:0:0:
256,192,24680,1,0,0:0:0:0:
256,192,24763,1,0,0:0:0:0:
256,192,24846,1,0,0:0:0:0:
256,192,24930,1,0,0:0:0:0:
256,192,25013,5,8,0:0:0:0:
256,192,25180,1,8,0:0:0:0:
256,192,25346,5,0,0:0:0:0:
256,192,25680,1,8,0:0:0:0:
256,192,25846,1,0,0:0:0:0:
256,192,25930,1,0,0:0:0:0:
256,192,26013,1,8,0:0:0:0:
256,192,26180,1,0,0:0:0:0:
256,192,26263,1,0,0:0:0:0:
256,192,26346,1,8,0:0:0:0:
256,192,26513,1,8,0:0:0:0:
256,192,26680,1,0,0:0:0:0:
256,192,27013,1,8,0:0:0:0:
256,192,27180,1,0,0:0:0:0:
256,192,27346,1,8,0:0:0:0:
256,192,27513,1,8,0:0:0:0:
256,192,27680,1,8,0:0:0:0:
256,192,27846,1,8,0:0:0:0:
256,192,28013,1,0,0:0:0:0:
256,192,28180,1,8,0:0:0:0:
256,192,28346,1,0,0:0:0:0:
256,192,28430,1,0,0:0:0:0:
256,192,28513,1,8,0:0:0:0:
256,192,28680,1,0,0:0:0:0:
256,192,28846,1,8,0:0:0:0:
256,192,29013,1,0,0:0:0:0:
256,192,29096,1,0,0:0:0:0:
256,192,29180,1,8,0:0:0:0:
256,192,29346,1,0,0:0:0:0:
256,192,29513,1,8,0:0:0:0:
256,192,29680,1,0,0:0:0:0:
256,192,29763,1,0,0:0:0:0:
256,192,29846,1,8,0:0:0:0:
256,192,30013,1,0,0:0:0:0:
256,192,30180,1,8,0:0:0:0:
256,192,30346,1,0,0:0:0:0:
256,192,30430,1,0,0:0:0:0:
256,192,30513,1,8,0:0:0:0:
256,192,30680,1,8,0:0:0:0:
256,192,30846,1,8,0:0:0:0:
256,192,30930,1,8,0:0:0:0:
256,192,31013,1,0,0:0:0:0:
256,192,31180,1,8,0:0:0:0:
256,192,31346,1,0,0:0:0:0:
256,192,31430,1,0,0:0:0:0:
256,192,31513,1,0,0:0:0:0:
256,192,31596,1,0,0:0:0:0:
256,192,31680,1,8,0:0:0:0:
256,192,31846,1,8,0:0:0:0:
256,192,32013,1,0,0:0:0:0:
256,192,32180,1,0,0:0:0:0:
256,192,32346,1,8,0:0:0:0:
256,192,32513,1,0,0:0:0:0:
256,192,32680,1,0,0:0:0:0:
256,192,32763,1,0,0:0:0:0:
256,192,32846,1,8,0:0:0:0:
256,192,33013,1,8,0:0:0:0:
256,192,33180,1,8,0:0:0:0:
256,192,33346,1,4,0:0:0:0:
256,192,33680,1,8,0:0:0:0:
256,192,33846,1,0,0:0:0:0:
256,192,33930,1,0,0:0:0:0:
256,192,34013,1,8,0:0:0:0:
256,192,34180,1,0,0:0:0:0:
256,192,34346,1,8,0:0:0:0:
256,192,34513,1,8,0:0:0:0:
256,192,34680,1,0,0:0:0:0:
256,192,35013,1,8,0:0:0:0:
256,192,35180,1,0,0:0:0:0:
256,192,35346,1,8,0:0:0:0:
256,192,35430,1,8,0:0:0:0:
256,192,35512,1,8,0:0:0:0:
256,192,35679,1,0,0:0:0:0:
256,192,35846,1,8,0:0:0:0:
256,192,36013,1,0,0:0:0:0:
256,192,36180,1,0,0:0:0:0:
256,192,36346,1,8,0:0:0:0:
256,192,36680,1,8,0:0:0:0:
256,192,36846,1,0,0:0:0:0:
256,192,37013,1,8,0:0:0:0:
256,192,37096,1,8,0:0:0:0:
256,192,37180,1,0,0:0:0:0:
256,192,37346,1,8,0:0:0:0:
256,192,37513,1,0,0:0:0:0:
256,192,37596,1,0,0:0:0:0:
256,192,37680,1,8,0:0:0:0:
256,192,37846,1,8,0:0:0:0:
256,192,38013,1,0,0:0:0:0:
256,192,38180,1,0,0:0:0:0:
256,192,38346,1,8,0:0:0:0:
256,192,38513,1,8,0:0:0:0:
256,192,38680,1,0,0:0:0:0:
256,192,39013,1,8,0:0:0:0:
256,192,39180,1,0,0:0:0:0:
256,192,39263,1,0,0:0:0:0:
256,192,39346,1,8,0:0:0:0:
256,192,39513,1,8,0:0:0:0:
256,192,39680,1,8,0:0:0:0:
256,192,39763,1,8,0:0:0:0:
256,192,39846,1,0,0:0:0:0:
256,192,39930,1,0,0:0:0:0:
256,192,40013,1,8,0:0:0:0:
256,192,40180,1,0,0:0:0:0:
256,192,40263,1,0,0:0:0:0:
256,192,40347,1,8,0:0:0:0:
256,192,40513,1,8,0:0:0:0:
256,192,40680,1,0,0:0:0:0:
256,192,40847,1,0,0:0:0:0:
256,192,41013,1,8,0:0:0:0:
256,192,41180,1,8,0:0:0:0:
256,192,41346,5,8,0:0:0:0:
256,192,41430,1,8,0:0:0:0:
256,192,41513,1,0,0:0:0:0:
256,192,41680,1,0,0:0:0:0:
256,192,41846,1,8,0:0:0:0:
256,192,41930,1,8,0:0:0:0:
256,192,42013,1,0,0:0:0:0:
256,192,42180,1,8,0:0:0:0:
256,192,42263,1,8,0:0:0:0:
256,192,42346,1,0,0:0:0:0:
256,192,42513,1,8,0:0:0:0:
256,192,42680,1,0,0:0:0:0:
256,192,42763,1,0,0:0:0:0:
256,192,42846,1,8,0:0:0:0:
256,192,42930,1,8,0:0:0:0:
256,192,43013,1,0,0:0:0:0:
256,192,43180,1,8,0:0:0:0:
256,192,43346,1,0,0:0:0:0:
256,192,43513,5,0,0:0:0:0:
256,192,43596,1,0,0:0:0:0:
256,192,43679,1,8,0:0:0:0:
256,192,43846,1,8,0:0:0:0:
256,192,44013,1,4,0:0:0:0:
256,192,49346,5,0,0:0:0:0:
256,192,49513,5,8,0:0:0:0:
256,192,49846,1,8,0:0:0:0:
256,192,50180,1,8,0:0:0:0:
256,192,50513,1,8,0:0:0:0:
256,192,50846,1,8,0:0:0:0:
256,192,51180,1,8,0:0:0:0:
256,192,51513,1,8,0:0:0:0:
256,192,51846,1,8,0:0:0:0:
256,192,52180,1,8,0:0:0:0:
256,192,52513,1,8,0:0:0:0:
256,192,52846,1,8,0:0:0:0:
256,192,53180,1,8,0:0:0:0:
256,192,53513,1,8,0:0:0:0:
256,192,53846,1,8,0:0:0:0:
256,192,54180,1,8,0:0:0:0:
256,192,54513,1,8,0:0:0:0:
256,192,54680,1,4,0:0:0:0:
256,192,54846,1,8,0:0:0:0:
256,192,55180,1,8,0:0:0:0:
256,192,55513,1,8,0:0:0:0:
256,192,55846,1,8,0:0:0:0:
256,192,56180,1,8,0:0:0:0:
256,192,56513,1,8,0:0:0:0:
256,192,56846,1,8,0:0:0:0:
256,192,57180,1,8,0:0:0:0:
256,192,57513,1,8,0:0:0:0:
256,192,57846,1,8,0:0:0:0:
256,192,58180,1,8,0:0:0:0:
256,192,58513,1,8,0:0:0:0:
256,192,58846,1,8,0:0:0:0:
256,192,59180,1,8,0:0:0:0:
256,192,59513,1,8,0:0:0:0:
256,192,59846,1,8,0:0:0:0:
256,192,60013,1,4,0:0:0:0:
256,192,60180,1,8,0:0:0:0:
256,192,60514,1,8,0:0:0:0:
256,192,60847,1,8,0:0:0:0:
256,192,61180,1,8,0:0:0:0:
256,192,61347,1,4,0:0:0:0:
256,192,61514,1,8,0:0:0:0:
256,192,61847,1,8,0:0:0:0:
256,192,62180,1,8,0:0:0:0:
256,192,62513,1,8,0:0:0:0:
256,192,62680,1,4,0:0:0:0:
256,192,62846,1,8,0:0:0:0:
256,192,63179,1,8,0:0:0:0:
256,192,63346,1,4,0:0:0:0:
256,192,63513,1,8,0:0:0:0:
256,192,63846,1,8,0:0:0:0:
256,192,64013,1,4,0:0:0:0:
256,192,64346,1,4,0:0:0:0:
256,192,64680,1,0,0:0:0:0:
256,192,64846,1,0,0:0:0:0:
256,192,65013,1,0,0:0:0:0:
256,192,65180,1,0,0:0:0:0:
256,192,65346,1,4,0:0:0:0:
256,192,65680,5,8,0:0:0:0:
256,192,66013,5,0,0:0:0:0:
256,192,66179,1,0,0:0:0:0:
256,192,66346,5,8,0:0:0:0:
256,192,66679,5,0,0:0:0:0:
256,192,66846,1,0,0:0:0:0:
256,192,67013,1,8,0:0:0:0:
256,192,67180,1,0,0:0:0:0:
256,192,67513,1,8,0:0:0:0:
256,192,67596,1,8,0:0:0:0:
256,192,67680,1,0,0:0:0:0:
256,192,67846,1,8,0:0:0:0:
256,192,68013,1,0,0:0:0:0:
256,192,68346,1,8,0:0:0:0:
256,192,68679,1,0,0:0:0:0:
256,192,68846,1,0,0:0:0:0:
256,192,69013,1,8,0:0:0:0:
256,192,69346,1,0,0:0:0:0:
256,192,69513,1,0,0:0:0:0:
256,192,69680,1,8,0:0:0:0:
256,192,69846,1,0,0:0:0:0:
256,192,70180,1,8,0:0:0:0:
256,192,70263,1,8,0:0:0:0:
256,192,70346,1,0,0:0:0:0:
256,192,70513,1,8,0:0:0:0:
256,192,70680,1,0,0:0:0:0:
256,192,71013,1,8,0:0:0:0:
256,192,71180,1,8,0:0:0:0:
256,192,71263,1,8,0:0:0:0:
256,192,71346,1,0,0:0:0:0:
256,192,71513,1,0,0:0:0:0:
256,192,71679,1,8,0:0:0:0:
256,192,71846,1,0,0:0:0:0:
256,192,71930,1,0,0:0:0:0:
256,192,72013,1,0,0:0:0:0:
256,192,72346,1,8,0:0:0:0:
256,192,72430,1,8,0:0:0:0:
256,192,72513,1,0,0:0:0:0:
256,192,72596,1,0,0:0:0:0:
256,192,72679,1,8,0:0:0:0:
256,192,72846,1,0,0:0:0:0:
256,192,72930,1,0,0:0:0:0:
256,192,73013,1,8,0:0:0:0:
256,192,73179,1,8,0:0:0:0:
256,192,73346,1,0,0:0:0:0:
256,192,73680,1,8,0:0:0:0:
256,192,73763,1,8,0:0:0:0:
256,192,73846,1,0,0:0:0:0:
256,192,74013,1,8,0:0:0:0:
256,192,74096,1,8,0:0:0:0:
256,192,74180,1,0,0:0:0:0:
256,192,74346,1,8,0:0:0:0:
256,192,74430,1,8,0:0:0:0:
256,192,74513,1,0,0:0:0:0:
256,192,74680,1,0,0:0:0:0:
256,192,74846,1,0,0:0:0:0:
256,192,75013,1,8,0:0:0:0:
256,192,75180,1,8,0:0:0:0:
256,192,75346,1,0,0:0:0:0:
256,192,75513,1,0,0:0:0:0:
256,192,75680,1,0,0:0:0:0:
256,192,75846,1,0,0:0:0:0:
256,192,76013,1,4,0:0:0:0:
256,192,76346,1,8,0:0:0:0:
256,192,76680,1,0,0:0:0:0:
256,192,76846,1,0,0:0:0:0:
256,192,77013,1,8,0:0:0:0:
256,192,77346,1,0,0:0:0:0:
256,192,77513,1,0,0:0:0:0:
256,192,77680,1,8,0:0:0:0:
256,192,77846,1,8,0:0:0:0:
256,192,78013,1,0,0:0:0:0:
256,192,78180,1,0,0:0:0:0:
256,192,78263,1,0,0:0:0:0:
256,192,78346,1,8,0:0:0:0:
256,192,78513,1,8,0:0:0:0:
256,192,78680,1,4,0:0:0:0:
256,192,78846,1,4,0:0:0:0:
256,192,79180,1,8,0:0:0:0:
256,192,79513,1,0,0:0:0:0:
256,192,79846,1,8,0:0:0:0:
256,192,80180,1,0,0:0:0:0:
256,192,80513,1,0,0:0:0:0:
256,192,80680,1,8,0:0:0:0:
256,192,81013,1,8,0:0:0:0:
256,192,81346,1,12,0:0:0:0:
256,192,81513,1,0,0:0:0:0:
256,192,81680,1,0,0:0:0:0:
256,192,81846,1,0,0:0:0:0:
256,192,82013,1,0,0:0:0:0:
256,192,82180,1,0,0:0:0:0:
256,192,82346,1,0,0:0:0:0:
256,192,82513,1,0,0:0:0:0:
256,192,82680,1,12,0:0:0:0:
256,192,82846,1,0,0:0:0:0:
256,192,83013,1,0,0:0:0:0:
256,192,83179,1,0,0:0:0:0:
256,192,83346,1,0,0:0:0:0:
256,192,83513,1,0,0:0:0:0:
256,192,83679,1,0,0:0:0:0:
256,192,83846,1,0,0:0:0:0:
256,192,84013,1,12,0:0:0:0:
256,192,84180,1,0,0:0:0:0:
256,192,84346,1,0,0:0:0:0:
256,192,84513,1,0,0:0:0:0:
256,192,84680,1,12,0:0:0:0:
256,192,84846,1,0,0:0:0:0:
256,192,85013,1,0,0:0:0:0:
256,192,85180,1,0,0:0:0:0:
128,192,85346,6,0,B|480:192|480:192|320:192,1,490
256,192,86680,5,4,0:0:0:0:
256,192,87013,5,8,0:0:0:0:
256,192,87180,1,0,0:0:0:0:
256,192,87513,1,0,0:0:0:0:
256,192,87680,1,8,0:0:0:0:
256,192,87846,1,8,0:0:0:0:
256,192,88013,1,0,0:0:0:0:
256,192,88346,1,8,0:0:0:0:
256,192,88513,1,0,0:0:0:0:
256,192,88680,1,8,0:0:0:0:
256,192,88930,1,8,0:0:0:0:
256,192,89180,1,8,0:0:0:0:
256,192,89346,1,4,0:0:0:0:
256,192,89680,1,8,0:0:0:0:
256,192,89846,1,0,0:0:0:0:
256,192,90180,1,0,0:0:0:0:
256,192,90346,1,8,0:0:0:0:
256,192,90513,1,0,0:0:0:0:
256,192,90846,1,8,0:0:0:0:
256,192,91180,1,0,0:0:0:0:
256,192,91346,1,8,0:0:0:0:
256,192,92013,5,4,0:0:0:0:
256,192,92180,1,0,0:0:0:0:
256,192,92346,5,8,0:0:0:0:
256,192,92513,1,0,0:0:0:0:
256,192,92846,1,0,0:0:0:0:
256,192,93013,1,8,0:0:0:0:
256,192,93179,1,8,0:0:0:0:
256,192,93346,1,0,0:0:0:0:
256,192,93679,1,8,0:0:0:0:
256,192,93846,1,0,0:0:0:0:
256,192,94013,1,8,0:0:0:0:
256,192,94263,1,8,0:0:0:0:
256,192,94513,1,8,0:0:0:0:
256,192,94679,1,4,0:0:0:0:
256,192,95013,1,8,0:0:0:0:
256,192,95179,1,0,0:0:0:0:
256,192,95513,1,0,0:0:0:0:
256,192,95679,1,8,0:0:0:0:
256,192,95846,1,0,0:0:0:0:
256,192,96179,1,8,0:0:0:0:
256,192,96513,1,0,0:0:0:0:
256,192,96679,1,8,0:0:0:0:
256,192,97346,1,4,0:0:0:0:
256,192,97680,1,0,0:0:0:0:
256,192,98013,1,0,0:0:0:0:
256,192,98346,1,0,0:0:0:0:
256,192,98680,1,0,0:0:0:0:
256,192,98846,1,8,0:0:0:0:
256,192,99013,1,0,0:0:0:0:
256,192,99180,1,8,0:0:0:0:
256,192,99346,1,0,0:0:0:0:
256,192,99513,1,8,0:0:0:0:
256,192,99680,1,0,0:0:0:0:
256,192,99846,1,8,0:0:0:0:
256,192,100013,1,0,0:0:0:0:
256,192,100346,1,0,0:0:0:0:
256,192,100680,1,8,0:0:0:0:
256,192,100846,1,0,0:0:0:0:
256,192,101013,1,0,0:0:0:0:
256,192,101346,1,8,0:0:0:0:
256,192,101430,1,8,0:0:0:0:
256,192,101513,1,0,0:0:0:0:
256,192,101680,1,8,0:0:0:0:
256,192,101846,1,0,0:0:0:0:
256,192,102013,1,0,0:0:0:0:
256,192,102180,1,8,0:0:0:0:
256,192,102346,1,8,0:0:0:0:
256,192,102513,1,8,0:0:0:0:
256,192,102680,1,12,0:0:0:0:
256,192,102846,1,0,0:0:0:0:
256,192,103013,1,0,0:0:0:0:
256,192,103180,1,0,0:0:0:0:
256,192,103346,1,0,0:0:0:0:
256,192,103513,1,0,0:0:0:0:
256,192,103680,1,0,0:0:0:0:
256,192,103846,1,0,0:0:0:0:
256,192,104013,1,12,0:0:0:0:
256,192,104180,1,0,0:0:0:0:
256,192,104346,1,0,0:0:0:0:
256,192,104513,1,0,0:0:0:0:
256,192,104680,1,0,0:0:0:0:
256,192,104846,1,0,0:0:0:0:
256,192,105013,1,0,0:0:0:0:
256,192,105180,1,0,0:0:0:0:
256,192,105346,1,12,0:0:0:0:
256,192,105513,1,0,0:0:0:0:
256,192,105680,1,0,0:0:0:0:
256,192,105846,1,0,0:0:0:0:
256,192,106013,1,12,0:0:0:0:
256,192,106180,1,0,0:0:0:0:
256,192,106346,1,0,0:0:0:0:
256,192,106513,1,0,0:0:0:0:
256,192,106680,2,0,B|64:192|64:192|384:192,1,490
256,192,108013,1,4,0:0:0:0:
256,192,108513,1,0,0:0:0:0:
256,192,109013,1,0,0:0:0:0:
256,192,109513,1,0,0:0:0:0:
256,192,110013,1,0,0:0:0:0:
256,192,110179,1,0,0:0:0:0:
256,192,110346,1,8,0:0:0:0:
256,192,110513,1,0,0:0:0:0:
256,192,110679,1,12,0:0:0:0:
256,192,112680,1,8,0:0:0:0:
256,192,112763,1,8,0:0:0:0:
256,192,112846,1,0,0:0:0:0:
256,192,112930,1,0,0:0:0:0:
256,192,113013,1,0,0:0:0:0:
256,192,113180,1,8,0:0:0:0:
256,192,113346,1,0,0:0:0:0:
