osu file format v12

[General]
AudioFilename: lieselotte.mp3
AudioLeadIn: 1004
PreviewTime: 60013
Countdown: 0
SampleSet: Soft
StackLeniency: 0.7
Mode: 0
LetterboxInBreaks: 0

[Editor]
Bookmarks: 33933
DistanceSpacing: 0.2
BeatDivisor: 4
GridSize: 4

[Metadata]
Title:lieselotte
TitleUnicode:lieselotte
Artist:wa.
ArtistUnicode:wa.
Creator:rrtyui
Version:Hyper
Source:BMS
Tags:THE BMS OF FIGHTERS 2012 -EIN NEUER HEILIGER KRIEG- bof2012 Memoirs Gothic Lolita Memoir deadblue238 Regou inaba-tan inaba9510
BeatmapID:179929
BeatmapSetID:59988

[Difficulty]
HPDrainRate:5
CircleSize:4
OverallDifficulty:6
ApproachRate:8
SliderMultiplier:1.6
SliderTickRate:1

[Events]
//Background and Video events
0,0,"BG.png",0,0
Video,0,"BGA.flv"
//Break Periods
2,1558,5941
2,44224,48608
//Storyboard Layer 0 (Background)
//Storyboard Layer 1 (Fail)
//Storyboard Layer 2 (Pass)
//Storyboard Layer 3 (Foreground)
//Storyboard Sound Samples
//Background Colour Transformations
3,100,163,162,255

[TimingPoints]
1358,333.333333333333,4,1,0,40,1,0
6857,-100,4,2,1,10,0,0
8358,-100,4,2,1,10,0,0
8691,-100,4,2,1,15,0,0
9024,-100,4,2,1,20,0,0
9358,-100,4,2,1,25,0,0
9691,-100,4,2,1,30,0,0
10024,-100,4,2,1,35,0,0
10358,-100,4,2,1,40,0,0
10691,-100,4,2,1,45,0,0
11024,-100,4,2,1,50,0,0
11358,-100,4,2,1,55,0,0
11691,-100,4,2,1,60,0,0
11982,-100,4,2,1,70,0,0
12066,-100,4,2,1,55,0,0
19274,-100,4,2,1,60,0,0
22357,-100,4,2,0,60,0,0
22691,-142.857142857143,4,2,1,60,0,0
23024,-136.986301369863,4,2,1,60,0,0
23274,-131.578947368421,4,2,1,60,0,0
23691,-126.582278481013,4,2,1,60,0,0
24191,-121.951219512195,4,2,1,60,0,0
24524,-117.647058823529,4,2,1,60,0,0
24857,-113.636363636364,4,2,1,60,0,0
25024,-109.89010989011,4,2,1,60,0,0
25524,-106.382978723404,4,2,1,60,0,0
26191,-103.092783505155,4,2,1,60,0,0
26524,-100,4,2,1,60,0,0
26774,-97.0873786407767,4,2,1,60,0,0
27274,-94.3396226415094,4,2,1,60,0,0
27691,-91.743119266055,4,2,1,60,0,0
28191,-89.2857142857143,4,2,1,60,0,0
28691,-86.9565217391304,4,2,1,60,0,0
29024,-84.7457627118644,4,2,1,60,0,0
29357,-80.6451612903226,4,2,1,60,0,0
30024,-78.7401574803149,4,2,1,60,0,0
32024,-76.9230769230769,4,2,1,60,0,0
32357,-75.187969924812,4,2,1,60,0,0
32691,-73.5294117647059,4,2,1,60,0,0
33024,-71.9424460431655,4,2,0,60,0,0
33274,-100,4,2,1,60,0,0
33857,-83.3333333333333,4,2,1,60,0,0
34191,-82.6446280991736,4,2,1,60,0,0
34691,-81.9672131147541,4,2,1,60,0,0
35691,-81.3008130081301,4,2,1,60,0,0
36191,-80.6451612903226,4,2,1,60,0,0
36524,-80,4,2,1,60,0,0
37024,-79.3650793650794,4,2,1,60,0,0
37357,-78.7401574803149,4,2,1,60,0,0
38024,-78.125,4,2,1,60,0,0
38857,-77.5193798449612,4,2,1,60,0,0
39191,-76.9230769230769,4,2,1,60,0,0
39691,-76.3358778625954,4,2,1,60,0,0
40191,-75.7575757575758,4,2,1,60,0,0
40691,-75.187969924812,4,2,1,60,0,0
41024,-74.6268656716418,4,2,1,60,0,0
42191,-74.0740740740741,4,2,1,60,0,0
42524,-73.5294117647059,4,2,1,60,0,0
43024,-72.992700729927,4,2,1,60,0,0
43357,-72.463768115942,4,2,1,60,0,0
43691,-71.9424460431655,4,2,1,60,0,0
52441,-133.333333333333,4,2,1,60,0,0
52691,-133.333333333333,4,2,1,5,0,0
52774,-133.333333333333,4,2,1,60,0,0
53024,-133.333333333333,4,2,1,5,0,0
53107,-133.333333333333,4,2,1,60,0,0
53357,-133.333333333333,4,2,1,5,0,0
53441,-133.333333333333,4,2,1,60,0,0
53691,-133.333333333333,4,2,1,5,0,0
53774,-133.333333333333,4,2,1,60,0,0
54024,-133.333333333333,4,2,1,5,0,0
54441,-133.333333333333,4,2,1,60,0,0
54649,-133.333333333333,4,1,0,60,0,0
54774,-133.333333333333,4,2,1,60,0,0
60024,-133.333333333333,4,1,0,60,0,0
60524,-133.333333333333,4,2,1,60,0,0
61316,-100,4,2,1,60,0,0
62399,-100,4,1,0,45,0,0
62482,-100,4,2,1,60,0,0
62566,-100,4,1,0,45,0,0
63232,-100,4,1,0,45,0,0
63566,-100,4,2,1,60,0,0
63649,-100,4,1,0,45,0,0
63816,-100,4,2,1,60,0,0
63899,-100,4,1,0,45,0,0
65357,-100,4,2,1,80,0,1
65441,-100,4,2,1,60,0,1
70482,-100,4,2,1,45,0,1
70566,-100,4,2,1,60,0,1
74649,-100,4,1,0,60,0,1
74857,-100,4,2,1,60,0,1
74941,-100,4,1,0,60,0,1
75941,-100,4,2,1,60,0,1
78649,-100,4,2,1,60,0,0
78691,-100,4,2,1,60,0,1
81316,-100,4,2,1,60,0,0
81357,-100,4,2,1,70,0,1
86649,-100,4,2,1,60,0,0
86691,-100,4,2,1,60,0,1
86732,-100,4,2,1,60,0,0
102774,-100,4,1,1,75,0,0
103941,-100,4,2,1,60,0,0
104107,-100,4,1,1,75,0,0
105316,-100,4,2,1,60,0,0
105399,-100,4,1,1,75,0,0
105691,-90.9090909090909,4,1,1,75,0,0
105982,-83.3333333333333,4,2,1,60,0,0
106066,-83.3333333333333,4,1,1,75,0,0
106357,-76.9230769230769,4,1,1,75,0,0
106649,-76.9230769230769,4,2,1,60,0,0
106857,-66.6666666666667,4,1,1,75,0,0
107024,-66.6666666666667,4,2,1,60,0,0
107107,-66.6666666666667,4,1,1,75,0,0
107399,-66.6666666666667,4,2,1,60,0,0
107482,-66.6666666666667,4,1,1,75,0,0
107691,-66.6666666666667,4,2,1,60,0,0
107774,-66.6666666666667,4,1,1,75,0,0
108024,-100,4,2,1,50,0,0
108482,-100,4,2,1,55,0,0
108982,-100,4,2,1,60,0,0
109482,-100,4,2,1,65,0,0
109982,-100,4,2,1,70,0,0
110732,-100,4,2,1,10,0,0
111024,-100,4,2,1,20,0,0
111357,-100,4,2,1,30,0,0
111691,-100,4,2,1,40,0,0
112024,-100,4,2,1,50,0,0
112357,-100,4,2,1,60,0,0
113357,-100,4,2,1,5,0,0

[Colours]
Combo1 : 169,128,200
Combo2 : 255,106,34
Combo3 : 120,0,240
Combo4 : 250,37,14
Combo5 : 0,122,181

[HitObjects]
256,192,1358,1,0,0:0:0:0:
256,192,6691,5,0,0:0:0:0:
256,192,8024,12,0,11691,0:0:0:0:
200,320,12024,6,0,B|12:272,2,160,12|8|8,0:0|0:0|0:0,0:0:0:0:
260,252,12858,1,0,0:0:0:0:
348,232,13024,1,8,0:0:0:0:
432,248,13191,5,0,0:0:0:0:
432,248,13274,1,0,0:0:0:0:
432,248,13358,2,0,B|492:172|444:80,1,160,8|8,0:0|0:0,0:0:0:0:
376,64,13858,1,0,0:0:0:0:
376,64,14024,2,0,B|284:56,1,80,8|0,0:0|0:0,0:0:0:0:
136,92,14358,2,0,B|224:100,1,80,8|0,0:0|0:0,0:0:0:0:
64,44,14691,6,0,B|40:100|64:168|136:176,2,160,8|8|8,0:0|0:0|0:0,0:0:0:0:
136,92,15524,1,0,0:0:0:0:
196,152,15691,1,8,0:0:0:0:
184,236,15858,1,0,0:0:0:0:
184,236,16024,6,0,B|120:268|56:236|56:236|16:236,1,160,8|8,0:0|0:0,0:0:0:0:
328,236,16691,2,0,B|392:268|456:236|456:236|496:236,1,160,8|8,0:0|0:0,0:0:0:0:
381,159,17191,1,8,0:0:0:0:
380,160,17358,6,0,B|356:128|360:76,1,80,8|0,0:0|0:0,0:0:0:0:
452,112,17691,2,0,L|532:136,2,80,8|0|8,0:0|0:0|0:0,0:0:0:0:
432,24,18191,1,0,0:0:0:0:
344,16,18358,1,8,0:0:0:0:
308,96,18524,6,0,B|324:140|304:192,1,80,0|8,0:0|0:0,0:0:0:0:
232,224,18858,2,0,B|152:208,1,80,0|8,0:0|0:0,0:0:0:0:
296,292,19191,2,0,B|380:308,1,80,0|8,0:0|0:0,0:0:0:0:
456,264,19524,1,0,0:0:0:0:
456,264,19691,1,8,0:0:0:0:
376,216,19857,1,0,0:0:0:0:
376,216,20024,6,0,B|352:160|376:112|376:112|376:40,1,160,8|8,0:0|0:0,0:0:0:0:
136,58,20691,2,0,B|136:112|136:112|160:160|136:216,1,160,8|8,0:0|0:0,0:0:0:0:
64,164,21191,5,0,0:0:0:0:
64,164,21274,1,0,0:0:0:0:
64,164,21357,1,10,0:0:0:0:
148,132,21524,1,0,0:0:0:0:
236,140,21691,1,2,0:0:0:0:
304,196,21857,1,0,0:0:0:0:
320,280,22024,2,0,B|312:332,4,40,2|8|8|8|12,0:0|0:0|0:0|0:0|0:0,0:0:0:0:
168,320,22691,6,0,B|136:312|96:320,1,55.9999982910157,12|0,0:0|0:0,0:0:0:0:
52,364,23024,1,8,0:0:0:0:
44,288,23191,2,0,B|20:228|40:156,1,116.800003208008
160,224,23691,1,8,0:0:0:0:
236,236,23857,6,0,B|312:244,1,63.2000015429688,0|8,0:0|0:0,0:0:0:0:
364,288,24191,2,0,B|392:256|392:212,1,65.6000010009766,0|8,0:0|0:0,0:0:0:0:
344,108,24524,2,0,B|332:188,1,68.0000012969971,0|8,0:0|0:0,0:0:0:0:
404,360,24857,1,0,0:0:0:0:
448,296,25024,2,0,B|532:296,2,72.8000024438477,8|8|8,0:0|0:0|0:0,0:0:0:0:
316,368,25524,5,0,0:0:0:0:
232,352,25691,2,0,B|160:328|52:344,1,150.399997705078,8|8,0:0|0:0,0:0:0:0:
36,264,26191,6,0,B|140:256,1,77.6000018353272,0|8,0:0|0:0,0:0:0:0:
84,176,26524,2,0,B|172:172,1,80,0|8,0:0|0:0,0:0:0:0:
28,96,26857,2,0,B|136:92,1,82.3999993084717,0|8,0:0|0:0,0:0:0:0:
196,92,27191,1,0,0:0:0:0:
248,164,27357,2,0,B|296:176|344:152,1,84.8000001293945,8|8,0:0|0:0,0:0:0:0:
480,252,27691,2,2,B|436:200|344:208|312:288,1,174.400001862793,8|8,0:0|0:0,0:0:0:0:
232,252,28191,5,0,0:0:0:0:
232,252,28357,2,0,B|236:308|284:340,1,89.60000109375,8|0,0:0|0:0,0:0:0:0:
152,200,28691,2,0,B|132:248|156:304,1,92.0000017547608,8|0,0:0|0:0,0:0:0:0:
96,128,29024,2,0,B|60:164|56:224,1,94.3999966870118,8|0,0:0|0:0,0:0:0:0:
156,60,29357,6,0,B|104:16|0:56|-8:140,1,198.399992128907,8|8,0:0|0:0,0:0:0:0:
340,64,30024,2,0,B|408:16|516:60|516:152,1,203.199998449707,8|8,0:0|0:0,0:0:0:0:
256,352,30691,5,8,0:0:0:0:
160,312,30857,1,0,0:0:0:0:
160,216,31024,1,8,0:0:0:0:
256,168,31191,1,0,0:0:0:0:
256,256,31357,5,8,0:0:0:0:
352,216,31524,1,0,0:0:0:0:
352,312,31691,1,8,0:0:0:0:
256,352,31857,1,8,0:0:0:0:
160,312,32024,6,0,B|24:292,1,103.999995239258,8|0,0:0|0:0,0:0:0:0:
160,216,32357,2,0,B|104:116,1,106.399995616455,8|0,0:0|0:0,0:0:0:0:
256,168,32691,2,0,B|280:56,1,108.800000664063,8|0,0:0|0:0,0:0:0:0:
352,216,33024,2,0,B|484:152,1,111.200003393555,14|0,0:0|0:0,0:0:0:0:
460,312,33357,6,0,B|388:372|304:320,1,160,12|8,0:0|0:0,0:0:0:0:
136,272,33857,6,0,B|248:272,1,95.9999970703126,0|8,0:0|0:0,0:0:0:0:
76,180,34191,2,0,B|188:180,1,96.7999972674561,0|8,0:0|0:0,0:0:0:0:
264,184,34524,1,0,0:0:0:0:
264,184,34691,2,0,B|332:156|348:64|288:4,2,195.199991958008,8|8|8,0:0|0:0|0:0,0:0:0:0:
232,92,35524,1,0,0:0:0:0:
232,92,35607,1,0,0:0:0:0:
232,92,35691,2,0,B|8:92,1,196.80000300293,8|8,0:0|0:0,0:0:0:0:
56,180,36191,6,0,B|24:272,1,95.9999970703126,0|8,0:0|0:0,0:0:0:0:
104,348,36524,2,0,B|140:236,1,100,0|8,0:0|0:0,0:0:0:0:
164,164,36857,1,0,0:0:0:0:
236,240,37024,2,0,B|292:268|348:252,1,100.799996923828,8|0,0:0|0:0,0:0:0:0:
384,344,37357,6,0,B|440:312|448:208|372:164,1,203.199998449707,8|8,0:0|0:0,0:0:0:0:
288,160,37857,1,0,0:0:0:0:
288,160,38024,2,0,B|76:152,2,204.8,8|8|8,0:0|0:0|0:0,0:0:0:0:
308,260,38857,6,0,B|188:256,1,103.200001574707,0|8,0:0|0:0,0:0:0:0:
332,356,39191,2,0,B|216:352,1,103.999995239258,0|8,0:0|0:0,0:0:0:0:
404,288,39524,1,0,0:0:0:0:
404,288,39691,2,0,B|480:204|408:80,1,209.600003837891,8|8,0:0|0:0,0:0:0:0:
332,40,40191,6,0,B|308:96|340:152,1,105.599999677734,0|8,0:0|0:0,0:0:0:0:
248,296,40524,1,0,0:0:0:0:
248,296,40608,1,0,0:0:0:0:
248,296,40691,2,0,B|272:240|240:168,1,106.399995616455,8|0,0:0|0:0,0:0:0:0:
160,40,41024,2,0,B|136:96|168:152,1,107.199994929199,8|8,0:0|0:0,0:0:0:0:
152,244,41358,5,8,0:0:0:0:
248,296,41524,1,0,0:0:0:0:
328,224,41691,1,8,0:0:0:0:
272,128,41858,1,0,0:0:0:0:
162,142,42024,1,8,0:0:0:0:
152,244,42191,2,0,B|144:300|80:332,1,107.199994929199,0|8,0:0|0:0,0:0:0:0:
48,232,42524,2,0,B|12:188|28:120,1,108.800000664063,0|8,0:0|0:0,0:0:0:0:
104,48,42858,5,0,0:0:0:0:
162,142,43024,2,8,B|276:160,1,109.600003093872,8|8,0:0|0:0,0:0:0:0:
336,348,43358,2,0,B|300:292|340:212,1,110.400000168457,8|8,0:0|0:0,0:0:0:0:
376,48,43691,2,0,B|412:104|368:184,1,111.200003393555,8|8,0:0|0:0,0:0:0:0:
228,256,44024,5,4,0:0:0:0:
104,128,49358,5,0,0:0:0:0:
104,128,49524,1,0,0:0:0:0:
168,184,49858,1,0,0:0:0:0:
248,196,50191,1,0,0:0:0:0:
324,168,50524,5,0,0:0:0:0:
388,120,50691,1,0,0:0:0:0:
464,136,50858,5,0,0:0:0:0:
496,208,51191,1,0,0:0:0:0:
460,280,51524,1,0,0:0:0:0:
376,288,51858,5,0,0:0:0:0:
300,264,52024,1,0,0:0:0:0:
224,292,52191,5,0,0:0:0:0:
224,292,52524,2,0,B|144:324,1,60.0000022888184
216,216,52858,2,0,B|224:152,1,60.0000022888184
140,240,53191,2,0,B|60:268,1,60.0000022888184
144,156,53524,2,0,B|152:76,1,60.0000022888184
84,44,53858,5,0,0:0:0:0:
84,44,54024,2,0,B|32:136|88:232,1,180.000006866455
84,304,54691,1,4,0:0:0:0:
440,292,55024,6,0,B|376:300,1,60.0000022888184
320,252,55524,1,0,0:0:0:0:
320,252,55858,5,0,0:0:0:0:
320,252,56024,2,0,B|240:264,1,60.0000022888184
196,216,56524,1,0,0:0:0:0:
196,216,56858,5,0,0:0:0:0:
196,216,57024,2,0,B|116:224,1,60.0000022888184
72,176,57524,5,0,0:0:0:0:
72,176,57858,1,0,0:0:0:0:
72,176,58024,2,0,B|56:144|68:92,1,60.0000022888184
112,56,58524,5,0,0:0:0:0:
112,56,58858,1,0,0:0:0:0:
112,56,59024,2,0,B|180:68,1,60.0000022888184
220,128,59524,5,0,0:0:0:0:
220,128,59858,1,0,0:0:0:0:
220,128,60024,2,4,B|296:180|396:136,1,180.000006866455,4|0,0:0|0:0,0:0:0:0:
391,137,60858,1,0,0:0:0:0:
391,137,61191,1,0,0:0:0:0:
456,200,61358,6,0,B|436:280,1,80,4|0,0:0|0:0,0:0:0:0:
360,324,61691,1,0,0:0:0:0:
280,316,61857,2,0,P|192:308|116:356,1,160
112,332,62274,1,0,0:0:0:0:
92,320,62358,2,0,B|92:260,3,40
88,260,62691,6,0,B|148:192|100:76,1,160,4|0,0:0|0:0,0:0:0:0:
180,44,63191,1,0,0:0:0:0:
180,44,63358,2,4,B|216:216,1,160
376,344,64024,5,4,0:0:0:0:
136,344,64358,1,4,0:0:0:0:
376,344,64691,1,4,0:0:0:0:
448,244,64858,1,0,0:0:0:0:
360,144,65024,1,0,0:0:0:0:
240,204,65191,1,0,0:0:0:0:
252,324,65358,6,0,B|160:300|72:324,1,160,10|8,0:0|0:0,0:0:0:0:
32,248,65858,1,0,0:0:0:0:
32,248,66024,2,0,B|52:64,2,160,10|8|10,0:0|0:0|0:0,0:0:0:0:
240,204,67024,1,8,0:0:0:0:
296,276,67191,1,0,0:0:0:0:
296,276,67274,1,0,0:0:0:0:
296,276,67358,2,0,B|336:296|384:280,1,80,10|0,0:0|0:0,0:0:0:0:
476,364,67691,2,0,B|432:352|384:368,1,80,8|0,0:0|0:0,0:0:0:0:
244,356,68024,6,0,B|80:336,1,160,10|8,0:0|0:0,0:0:0:0:
64,248,68524,1,0,0:0:0:0:
72,352,68691,6,0,B|231:372,1,160,10|8,0:0|0:0,0:0:0:0:
328,376,69191,1,0,0:0:0:0:
328,376,69358,2,0,B|376:300|340:204,1,160,10|8,0:0|0:0,0:0:0:0:
184,8,70024,2,0,B|136:84|172:180,1,160,10|8,0:0|0:0,0:0:0:0:
156,244,70524,1,8,0:0:0:0:
136,328,70691,6,0,B|56:312,1,80,10|0,0:0|0:0,0:0:0:0:
224,308,71024,2,0,B|328:328,1,80,8|0,0:0|0:0,0:0:0:0:
388,312,71358,1,10,0:0:0:0:
472,292,71524,2,0,B|484:252|480:204,2,80,0|8|0,0:0|0:0|0:0,0:0:0:0:
388,312,72024,6,0,B|372:272|368:232|368:232|380:196|416:152,2,160,10|8|10,0:0|0:0|0:0,0:0:0:0:
312,360,72858,1,0,0:0:0:0:
312,360,72941,1,0,0:0:0:0:
312,360,73024,2,0,B|272:340|228:356,1,80,8|0,0:0|0:0,0:0:0:0:
152,368,73358,6,0,B|76:200,1,160,10|8,0:0|0:0,0:0:0:0:
120,144,73858,1,0,0:0:0:0:
176,216,74024,2,0,B|220:248|300:224|312:156,2,160,10|8|0,0:0|0:0|0:0,0:0:0:0:
212,136,74858,5,0,0:0:0:0:
288,88,75024,2,0,B|328:84|392:112,1,80,0|0,0:0|2:0,0:0:0:0:
488,188,75358,2,0,B|444:188|392:172,1,80
456,104,75691,1,0,0:0:0:0:
488,188,75858,1,0,0:0:0:0:
432,264,76024,6,0,B|368:264|328:216|328:216|272:208,2,160,14|8|10,0:0|0:0|0:0,0:0:0:0:
452,352,76858,1,0,0:0:0:0:
452,352,77024,2,0,B|496:348|516:308,1,80,8|0,0:0|0:0,0:0:0:0:
368,332,77358,6,0,B|180:340,1,160,10|8,0:0|0:0,0:0:0:0:
124,368,77858,1,0,0:0:0:0:
132,284,78024,1,10,0:0:0:0:
132,284,78108,1,0,0:0:0:0:
132,284,78191,2,0,B|156:240|136:180,1,80,0|8,0:0|0:0,0:0:0:0:
32,72,78524,1,0,0:0:0:0:
32,72,78691,6,0,B|64:236,1,160,12|8,0:0|0:0,0:0:0:0:
224,236,79191,2,0,B|192:64,2,160,12|12|12,0:0|0:0|0:0,0:0:0:0:
224,236,80191,1,8,0:0:0:0:
308,264,80357,2,0,B|356:280|384:328,1,80,8|4,0:0|0:0,0:0:0:0:
224,236,80691,2,8,B|204:280|144:292,1,80,12|0,0:0|0:0,0:0:0:0:
288,180,81024,1,12,0:0:0:0:
280,156,81107,1,0,0:0:0:0:
280,132,81191,1,0,0:0:0:0:
288,108,81274,1,0,0:0:0:0:
304,96,81357,6,0,B|400:96,1,80,12|8,0:0|0:0,0:0:0:0:
448,156,81691,1,8,0:0:0:0:
400,228,81857,1,8,0:0:0:0:
412,316,82024,2,0,B|436:356|496:356,1,80,8|8,0:0|0:0,0:0:0:0:
332,288,82357,2,0,B|292:272|232:300,1,80,8|8,0:0|0:0,0:0:0:0:
176,328,82691,5,12,0:0:0:0:
96,376,82857,1,8,0:0:0:0:
28,316,83024,2,0,B|4:280|8:232,1,80,8|8,0:0|0:0,0:0:0:0:
96,180,83357,2,8,B|116:228|108:276,1,80
56,100,83691,1,8,0:0:0:0:
120,36,83857,1,8,0:0:0:0:
120,36,83941,1,0,0:0:0:0:
120,36,84024,6,8,B|176:48,3,40,12|8|8|8,0:0|0:0|0:0|0:0,0:0:0:0:
232,40,84357,2,8,B|280:52,3,40,8|8|8|8,0:0|0:0|0:0|0:0,0:0:0:0:
344,44,84691,2,8,B|400:56,3,40,12|8|8|8,0:0|0:0|0:0|0:0,0:0:0:0:
460,44,85024,2,8,B|512:56,3,40
460,44,85357,5,4,0:0:0:0:
423,117,85524,6,0,B|416:136,4,20
298,169,85857,6,0,B|316:160,4,20
412,243,86191,6,0,B|396:232,4,20
412,240,86524,5,0,0:0:0:0:
336,148,86691,6,0,B|260:92|156:124,1,160,12|8,0:0|0:0,0:0:0:0:
128,188,87191,2,0,B|176:376,1,160,12|0,0:0|0:0,0:0:0:0:
80,328,87691,1,8,0:0:0:0:
80,328,87857,2,0,B|52:244,1,80,12|0,0:0|0:0,0:0:0:0:
220,220,88191,5,0,0:0:0:0:
220,220,88274,1,0,0:0:0:0:
220,220,88357,2,0,B|244:304,1,80,8|0,0:0|0:0,0:0:0:0:
312,348,88691,2,0,B|368:364|440:340,2,120,8|8|8,0:0|0:0|0:0,0:0:0:0:
320,264,89357,6,0,B|344:76,1,160,12|0,0:0|0:0,0:0:0:0:
260,68,89857,2,0,B|212:136|244:244,1,160,12|12,0:0|0:0,0:0:0:0:
320,264,90357,1,0,0:0:0:0:
408,256,90524,2,0,B|456:188|429:102,1,160,12|0,0:0|0:0,0:0:0:0:
352,40,91024,5,0,0:0:0:0:
352,40,91357,1,0,0:0:0:0:
352,40,91691,1,0,0:0:0:0:
264,64,92024,6,0,B|204:60|132:60,1,120,12|0,0:0|0:0,0:0:0:0:
144,60,92357,1,0,0:0:0:0:
80,120,92524,2,0,B|104:208|68:292,1,160,12|12,0:0|0:0,0:0:0:0:
88,368,93024,1,0,0:0:0:0:
164,312,93191,6,0,B|232:288|280:320|280:320|328:352|404:324,1,240,12|0,0:0|0:0,0:0:0:0:
368,120,94024,2,0,B|336:264,2,120
448,156,94691,6,0,B|464:112|448:64,1,80,12|0,0:0|0:0,0:0:0:0:
368,120,95024,1,0,0:0:0:0:
280,120,95191,2,0,B|100:120,1,160,12|12,0:0|0:0,0:0:0:0:
92,40,95691,1,0,0:0:0:0:
92,40,95857,6,0,B|120:116|120:116|84:212,1,160,12|0,0:0|0:0,0:0:0:0:
48,260,96357,1,0,0:0:0:0:
48,260,96524,2,0,B|92:296|172:272|180:208,1,160,2|0,0:0|0:0,0:0:0:0:
177,218,97024,1,2,0:0:0:0:
464,124,97357,6,0,B|420:88|340:112|332:176,1,160,12|8,0:0|0:0,0:0:0:0:
304,248,97857,1,0,0:0:0:0:
304,248,97941,1,0,0:0:0:0:
304,248,98024,2,0,B|344:272|408:232,1,80,8|0,0:0|0:0,0:0:0:0:
248,172,98357,2,0,B|204:156|144:180,1,80,8|0,0:0|0:0,0:0:0:0:
104,228,98691,5,8,0:0:0:0:
116,248,98774,1,0,0:0:0:0:
128,268,98857,1,0,0:0:0:0:
140,288,98941,1,0,0:0:0:0:
152,308,99024,2,0,B|120:308|120:308|112:316|112:316|68:316,1,80,8|0,0:0|0:0,0:0:0:0:
232,360,99357,2,0,B|324:360,1,80,8|0,0:0|0:0,0:0:0:0:
104,228,99691,2,0,B|16:228,1,80,8|0,0:0|0:0,0:0:0:0:
60,140,100024,6,8,B|244:140,1,160
308,164,100524,2,0,B|292:212|248:224,2,80,0|8|0,0:0|0:0|0:0,0:0:0:0:
280,76,101024,2,0,B|232:48|176:48|176:48|112:48,2,160,8|8|8,0:0|0:0|0:0,0:0:0:0:
364,96,101857,1,0,0:0:0:0:
364,96,102024,2,0,B|380:192,1,80,8|8,0:0|0:0,0:0:0:0:
404,336,102357,2,0,B|388:244,1,80,8|8,0:0|0:0,0:0:0:0:
308,224,102691,5,4,0:0:0:0:
308,224,102857,1,0,0:0:0:0:
220,248,103024,1,0,0:0:0:0:
220,248,103191,1,0,0:0:0:0:
132,276,103357,1,0,0:0:0:0:
132,276,103524,1,0,0:0:0:0:
44,300,103691,1,0,0:0:0:0:
44,300,103857,1,0,0:0:0:0:
112,368,104024,5,4,0:0:0:0:
112,368,104191,1,0,0:0:0:0:
132,276,104357,1,0,0:0:0:0:
132,276,104524,1,0,0:0:0:0:
128,180,104691,1,0,0:0:0:0:
128,180,104857,1,0,0:0:0:0:
76,96,105024,1,0,0:0:0:0:
76,96,105191,1,0,0:0:0:0:
44,184,105357,6,0,B|72:248,3,40,4|0|0|0,0:0|0:0|0:0|0:0,0:0:0:0:
128,180,105691,2,0,B|152:248,3,44.0000013427735
224,221,106024,6,0,B|208:176,3,47.9999985351563,4|0|0|0,0:0|0:0|0:0|0:0,0:0:0:0:
306,216,106357,2,0,B|288:168,3,51.999997619629
364,148,106691,5,4,0:0:0:0:
232,72,106857,6,0,B|240:16,4,30.0000011444092
208,176,107191,6,0,B|168:196,4,30.0000011444092
372,152,107524,6,0,B|408:180,4,30.0000011444092
328,60,107857,6,0,B|336:4,4,30.0000011444092,0|0|0|0|4,0:0|0:0|0:0|0:0|0:0,0:0:0:0:
232,72,108357,5,0,0:0:0:0:
164,120,108524,2,0,B|-24:140,1,160,12|0,0:0|0:0,0:0:0:0:
24,212,109024,2,0,B|192:196,1,160,12|0,0:0|0:0,0:0:0:0:
200,276,109524,2,0,B|12:296,1,160,12|0,0:0|0:0,0:0:0:0:
112,368,110024,2,8,B|160:356|224:376,1,80
216,360,110274,1,0,0:0:0:0:
240,352,110357,2,8,B|271:363|319:351,1,80
340,344,110607,1,0,0:0:0:0:
360,336,110691,5,12,0:0:0:0:
256,192,110774,12,4,113357,0:0:0:0:
