osu file format v12

[General]
AudioFilename: lieselotte.mp3
AudioLeadIn: 1004
PreviewTime: 60013
Countdown: 0
SampleSet: Soft
StackLeniency: 0.7
Mode: 0
LetterboxInBreaks: 0

[Editor]
Bookmarks: 33933
DistanceSpacing: 1.2
BeatDivisor: 8
GridSize: 4

[Metadata]
Title:lieselotte
TitleUnicode:lieselotte
Artist:wa.
ArtistUnicode:wa.
Creator:rrtyui
Version:Beginner
Source:BMS
Tags:THE BMS OF FIGHTERS 2012 -EIN NEUER HEILIGER KRIEG- bof2012 Memoirs Gothic Lolita Memoir deadblue238 Regou inaba-tan inaba9510
BeatmapID:179789
BeatmapSetID:59988

[Difficulty]
HPDrainRate:2
CircleSize:3
OverallDifficulty:2
ApproachRate:3
SliderMultiplier:0.8
SliderTickRate:1

[Events]
//Background and Video events
0,0,"BG.png",0,0
Video,0,"BGA.flv"
//Break Periods
2,44224,50584
2,54891,58584
//Storyboard Layer 0 (Background)
//Storyboard Layer 1 (Fail)
//Storyboard Layer 2 (Pass)
//Storyboard Layer 3 (Foreground)
//Storyboard Sound Samples
//Background Colour Transformations
3,100,163,162,255

[TimingPoints]
1358,333.333333333333,4,2,1,70,1,0
12191,-100,4,2,1,60,0,0
21607,-100,4,1,1,60,0,0
21774,-100,4,2,1,60,0,0
22316,-100,4,2,0,60,0,0
22524,-100,4,2,1,60,0,0
34357,-100,4,1,0,60,0,0
34441,-100,4,2,1,60,0,0
35357,-100,4,1,0,60,0,0
35941,-100,4,2,1,60,0,0
36941,-100,4,1,0,60,0,0
37066,-100,4,2,1,60,0,0
37941,-100,4,1,0,60,0,0
38441,-100,4,2,1,60,0,0
39649,-100,4,1,0,60,0,0
39732,-100,4,2,1,60,0,0
40607,-100,4,1,0,60,0,0
41066,-100,4,2,1,60,0,0
42316,-100,4,1,0,60,0,0
42399,-100,4,2,1,60,0,0
43316,-100,4,1,0,60,0,0
43774,-100,4,2,1,60,0,0
51691,-100,4,2,1,30,0,0
52691,-100,4,2,1,40,0,0
53357,-100,4,2,1,50,0,0
54024,-100,4,2,1,65,0,0
65357,-100,4,1,1,80,0,1
65441,-100,4,2,1,60,0,1
78649,-100,4,2,1,60,0,0
78691,-100,4,2,1,60,0,1
79482,-100,4,2,0,100,0,1
79566,-100,4,2,1,60,0,1
80149,-100,4,2,0,100,0,1
80232,-100,4,2,1,60,0,1
81316,-100,4,2,1,60,0,0
81357,-100,4,2,1,70,0,1
83857,-100,4,1,0,60,0,1
84316,-100,4,2,1,50,0,1
84399,-100,4,1,0,60,0,1
85649,-100,4,2,1,50,0,1
85732,-100,4,1,0,60,0,1
86649,-100,4,2,1,60,0,0
86691,-100,4,2,1,60,0,1
86732,-100,4,2,1,60,0,0
87649,-100,4,2,2,70,0,0
87732,-100,4,2,1,70,0,0
88316,-100,4,2,2,70,0,0
88399,-100,4,1,1,60,0,0
89649,-100,4,2,2,60,0,0
89732,-100,4,2,1,60,0,0
90316,-100,4,2,2,60,0,0
90399,-100,4,2,1,60,0,0
91024,-100,4,1,1,60,0,0
91399,-100,4,2,0,5,0,0
92024,-100,4,2,1,60,0,0
92191,-100,4,1,1,60,0,0
92524,-100,4,2,1,60,0,0
92982,-100,4,2,2,70,0,0
93066,-100,4,2,1,70,0,0
93649,-100,4,2,2,60,0,0
93732,-100,4,1,1,60,0,0
94191,-100,4,2,1,60,0,0
94982,-100,4,2,2,60,0,0
95066,-100,4,2,1,60,0,0
95524,-100,4,1,1,60,0,0
95857,-100,4,2,1,60,0,0
96316,-100,4,2,0,5,0,0
96399,-100,4,1,1,60,0,0
96857,-100,4,2,1,60,0,0
102524,-100,4,2,1,70,0,0
106774,-100,4,1,1,70,0,0
107941,-100,4,2,1,70,0,0
110732,-100,4,2,1,10,0,0
111024,-100,4,2,1,20,0,0
111357,-100,4,2,1,30,0,0
111691,-100,4,2,1,40,0,0
112024,-100,4,2,1,50,0,0
112357,-100,4,2,1,60,0,0
112691,-100,4,2,1,70,0,0
113024,-100,4,2,1,80,0,0

[Colours]
Combo1 : 169,128,200
Combo2 : 255,106,34
Combo3 : 120,0,240
Combo4 : 250,37,14
Combo5 : 0,122,181

[HitObjects]
192,308,11691,2,0,B|232:296,2,40,0|2|4,0:0|0:0|0:0,0:0:0:0:
100,332,12357,1,8,0:0:0:0:
124,240,12691,2,8,B|88:164|124:84,1,160
212,52,13691,1,8,0:0:0:0:
300,84,14024,6,8,B|336:164|300:240,1,160
212,277,15024,1,8,0:0:0:0:
288,332,15357,2,8,B|341:258|440:280,2,160
200,368,17024,1,8,0:0:0:0:
124,308,17357,6,0,B|92:236,1,79.9999999999999,8|8,0:0|0:0,0:0:0:0:
188,236,18024,2,0,B|156:164,1,79.9999999999999,8|8,0:0|0:0,0:0:0:0:
68,128,18691,2,0,B|88:84|132:76,1,79.9999999999999,8|8,0:0|0:0,0:0:0:0:
212,104,19357,2,8,B|292:132,1,79.9999999999999
384,116,20024,6,8,B|408:200|360:268,2,160,8|8|12,0:0|0:0|0:0,0:0:0:0:
292,88,21691,1,8,0:0:0:0:
257,177,22024,1,8,0:0:0:0:
224,264,22357,1,10,0:0:0:0:
268,352,22691,6,8,B|220:372|156:360|132:300,1,160,12|8,0:0|0:0,0:0:0:0:
152,204,23691,1,8,0:0:0:0:
108,116,24024,2,8,B|156:96|220:108|244:168,1,160,8|8,0:0|0:0,0:0:0:0:
224,264,25024,1,8,0:0:0:0:
268,352,25357,6,0,B|424:312,1,160,8|8,0:0|0:0,0:0:0:0:
440,216,26357,1,8,0:0:0:0:
396,132,26691,2,0,B|241:171,1,160,8|8,0:0|0:0,0:0:0:0:
224,264,27691,1,8,0:0:0:0:
160,336,28024,6,8,B|116:308|112:228|160:192,2,160
224,264,29691,1,8,0:0:0:0:
308,312,30024,1,8,0:0:0:0:
392,264,30357,1,8,0:0:0:0:
384,168,30691,6,8,B|308:128|228:168,1,160
144,208,31691,1,8,0:0:0:0:
152,112,32024,2,8,B|212:60|300:60,1,160
396,72,33024,1,8,0:0:0:0:
384,168,33357,6,8,B|340:320,1,160,12|8,0:0|0:0,0:0:0:0:
256,368,34357,1,2,0:0:0:0:
172,321,34691,2,8,B|128:168,1,160,8|2,0:0|0:0,0:0:0:0:
148,76,35691,1,2,0:0:0:0:
240,96,36024,6,0,B|200:172|240:252,1,160,8|8,0:0|0:0,0:0:0:0:
320,304,37024,1,2,0:0:0:0:
400,252,37357,2,0,B|438:174|398:98,1,160,8|2,0:0|0:0,0:0:0:0:
320,44,38357,1,2,0:0:0:0:
240,96,38691,6,0,B|160:96,1,79.9999999999999,8|8,0:0|0:0,0:0:0:0:
120,184,39357,2,8,B|200:184,1,79.9999999999999,8|2,0:0|0:0,0:0:0:0:
240,272,40024,2,0,B|160:272,1,79.9999999999999,8|8,0:0|0:0,0:0:0:0:
120,360,40690,2,8,B|200:360,1,79.9999999999999,2|2,0:0|0:0,0:0:0:0:
296,360,41357,6,8,B|376:360,1,79.9999999999999,8|8,0:0|0:0,0:0:0:0:
336,272,42023,2,0,B|256:272,1,79.9999999999999,8|2,0:0|0:0,0:0:0:0:
296,184,42691,2,8,B|376:184,1,79.9999999999999,8|8,0:0|0:0,0:0:0:0:
336,96,43357,2,0,B|256:96,1,79.9999999999999,2|2,0:0|0:0,0:0:0:0:
164,96,44024,5,4,0:0:0:0:
256,192,52024,12,4,54691,0:0:0:0:
256,96,60024,5,4,0:0:0:0:
256,288,61357,1,4,0:0:0:0:
20,150,62691,5,4,0:0:0:0:
117,288,63357,1,4,0:0:0:0:
256,192,64024,5,4,0:0:0:0:
340,148,64357,1,4,0:0:0:0:
408,216,64691,1,4,0:0:0:0:
368,304,65024,1,4,0:0:0:0:
272,288,65357,6,0,B|192:324|116:288,1,160,4|10,0:0|0:0,0:0:0:0:
60,212,66357,1,8,0:0:0:0:
112,132,66691,2,0,B|188:96|268:132,1,160,10|10,0:0|0:0,0:0:0:0:
328,204,67691,1,8,0:0:0:0:
272,288,68024,6,0,B|236:308|196:308,1,79.9999999999999,10|8,0:0|0:0,0:0:0:0:
156,220,68691,2,0,B|192:200|232:200,1,79.9999999999999,10|8,0:0|0:0,0:0:0:0:
328,204,69357,2,0,B|368:120|312:40,1,160,10|10,0:0|0:0,0:0:0:0:
224,36,70357,1,8,0:0:0:0:
156,104,70691,6,0,B|116:187|171:268,1,160,10|8,0:0|0:0,0:0:0:0:
256,284,71691,1,8,0:0:0:0:
304,368,72024,2,8,B|332:316|384:300|444:324,1,160,10|8,0:0|0:0,0:0:0:0:
392,140,73357,6,8,B|364:192|312:208|252:184,1,160,10|8,0:0|0:0,0:0:0:0:
176,132,74357,1,8,0:0:0:0:
88,96,74691,2,8,B|116:44|168:28|228:52,1,160,10|8,0:0|0:0,0:0:0:0:
304,104,75691,1,8,0:0:0:0:
372,40,76024,5,12,0:0:0:0:
512,174,76691,1,8,0:0:0:0:
425,346,77357,1,8,0:0:0:0:
233,321,78025,1,8,0:0:0:0:
200,129,78691,5,12,0:0:0:0:
328,196,79191,2,4,B|360:284|320:360,2,160
200,129,81024,1,0,0:0:0:0:
108,160,81357,6,0,B|92:200|108:240,1,79.9999999999999,6|8,0:0|0:0,0:0:0:0:
188,300,82024,2,0,B|204:260|188:220,1,79.9999999999999,8|8,0:0|0:0,0:0:0:0:
200,128,82691,2,0,B|228:160|272:164,1,79.9999999999999,6|8,0:0|0:0,0:0:0:0:
357,119,83357,2,0,B|329:86|285:83,1,79.9999999999999,8|8,0:0|0:0,0:0:0:0:
208,36,84024,6,0,B|140:36|104:88|108:136,1,160,6|6,0:0|0:0,0:0:0:0:
208,300,85357,2,0,B|276:300|312:248|308:199,1,160,6|6,0:0|0:0,0:0:0:0:
280,108,86357,1,4,0:0:0:0:
208,172,86691,5,6,0:0:0:0:
88,320,87357,2,0,B|40:244|88:168,2,160,0|0|8,0:0|0:0|0:0,0:0:0:0:
280,320,89357,2,0,B|328:244|280:168,2,160
196,148,91357,6,0,B|212:88|276:68|324:92,1,160,8|4,0:0|0:0,0:0:0:0:
384,168,92357,1,8,0:0:0:0:
476,196,92691,2,0,B|456:252|404:276|336:256,2,160,0|0|8,0:0|0:0|0:0,0:0:0:0:
384,168,94357,1,0,0:0:0:0:
288,184,94691,6,0,B|136:228,1,160,4|0,0:0|0:0,0:0:0:0:
64,292,95691,1,8,0:0:0:0:
152,320,96024,2,0,B|304:276,1,160,0|8,0:0|0:0,0:0:0:0:
451,150,97357,6,0,B|411:134|371:150,1,79.9999999999999,12|8,0:0|0:0,0:0:0:0:
285,190,98024,2,0,B|246:205|206:189,1,79.9999999999999,8|8,0:0|0:0,0:0:0:0:
157,271,98691,1,8,0:0:0:0:
180,364,99024,1,8,0:0:0:0:
275,353,99358,2,0,B|315:337|360:355,1,80,8|8,0:0|0:0,0:0:0:0:
437,307,100024,6,8,B|376:248|289:260,2,160
416,112,102024,1,8,0:0:0:0:
344,176,102357,1,8,0:0:0:0:
248,188,102691,2,8,B|164:204|92:172,1,160,12|8,0:0|0:0,0:0:0:0:
260,96,104024,6,12,B|344:80|416:112,1,160,12|8,0:0|0:0,0:0:0:0:
416,304,105357,2,8,B|343:336|259:320,2,160,12|12|12,0:0|0:0|0:0,0:0:0:0:
444,252,106857,6,0,B|456:172,1,79.9999999999999,0|0,0:0|0:0,0:0:0:0:
368,140,107524,2,0,B|356:220,1,79.9999999999999,0|0,0:0|0:0,0:0:0:0:
348,268,108024,5,4,0:0:0:0:
212,312,108524,1,4,0:0:0:0:
96,228,109024,1,4,0:0:0:0:
116,84,109524,1,4,0:0:0:0:
256,52,110024,6,4,B|256:132,1,79.9999999999999
256,228,110691,1,4,0:0:0:0:
256,192,110857,12,4,113357,0:0:0:0:
