osu file format v13

[General]
AudioFilename: wa. - -fall into the Morion-.mp3
AudioLeadIn: 0
PreviewTime: 242777
Countdown: 0
SampleSet: Soft
StackLeniency: 0.7
Mode: 3
LetterboxInBreaks: 0
SpecialStyle: 0
WidescreenStoryboard: 0

[Editor]
DistanceSpacing: 1
BeatDivisor: 4
GridSize: 8
TimelineZoom: 2.5

[Metadata]
Title:The Nature of Happiness -fall into the Morion-
TitleUnicode:幸せの在り方 -fall into the Morion-
Artist:wa.
ArtistUnicode:wa.
Creator:Remillion Cross
Version:Happiness
Source:BMS
Tags:bof bms of fighters 2012 -ein neuer heiliger krieg- calming memoir nature artcore elegant relax groundbreaking album exusagi xloupgarou
BeatmapID:432829
BeatmapSetID:180074

[Difficulty]
HPDrainRate:8.5
CircleSize:7
OverallDifficulty:8
ApproachRate:8
SliderMultiplier:1.4
SliderTickRate:1

[Events]
//Background and Video events
0,0,"BG.jpg",0,0
//Break Periods
//Storyboard Layer 0 (Background)
//Storyboard Layer 1 (Fail)
//Storyboard Layer 2 (Pass)
//Storyboard Layer 3 (Foreground)
//Storyboard Sound Samples
//Background Colour Transformations
3,100,163,162,255

[TimingPoints]
2435,342.857142857143,4,2,0,20,1,0
2435,-200,4,2,0,20,0,0
46320,-133.333333333333,4,2,0,20,0,0
57291,-117.647058823529,4,2,0,20,0,0
62777,-100,4,2,0,20,0,0
134091,-100,4,2,0,20,0,1
156034,-100,4,2,0,20,0,0
156377,-100,4,2,0,20,0,1
178320,342.857142857143,4,2,0,20,1,0
222205,-125,4,2,0,20,0,0
231805,-111.111111111111,4,2,0,20,0,0
233177,-100,4,2,0,20,0,0
244148,-100,4,2,0,20,0,1
266091,-100,4,2,0,20,0,0
288377,-100,4,2,0,20,0,1
309977,-100,4,2,0,20,0,0

[HitObjects]
36,192,2435,5,0,0:0:0:0:
475,192,2777,1,0,0:0:0:0:
475,192,4835,1,0,0:0:0:0:
329,192,5177,1,0,0:0:0:0:
182,192,5520,1,0,0:0:0:0:
36,192,5863,1,0,0:0:0:0:
36,192,7920,1,0,0:0:0:0:
256,192,8092,1,0,0:0:0:0:
475,192,8263,1,0,0:0:0:0:
36,192,10320,1,0,0:0:0:0:
182,192,10663,1,0,0:0:0:0:
329,192,11006,1,0,0:0:0:0:
475,192,11349,1,0,0:0:0:0:
402,192,11406,1,0,0:0:0:0:
329,192,11463,1,0,0:0:0:0:
475,192,13406,1,0,0:0:0:0:
36,192,13749,1,0,0:0:0:0:
475,192,15806,1,0,0:0:0:0:
329,192,16149,1,0,0:0:0:0:
182,192,16492,1,0,0:0:0:0:
36,192,16835,1,0,0:0:0:0:
256,192,17177,1,0,0:0:0:0:
329,192,18549,1,0,0:0:0:0:
182,192,18892,1,0,0:0:0:0:
36,192,19235,1,0,0:0:0:0:
329,192,19577,1,0,0:0:0:0:
109,192,19920,1,0,0:0:0:0:
36,192,21292,1,0,0:0:0:0:
256,192,21635,1,0,0:0:0:0:
182,192,21692,1,0,0:0:0:0:
109,192,21749,1,0,0:0:0:0:
256,192,21977,1,0,0:0:0:0:
475,192,22320,1,0,0:0:0:0:
256,192,22663,1,0,0:0:0:0:
475,192,22663,128,0,24377:0:0:0:0:
256,192,24377,128,0,26777:0:0:0:0:
36,192,24720,128,0,26435:0:0:0:0:
36,192,26777,128,0,29177:0:0:0:0:
182,192,27120,128,0,29177:0:0:0:0:
329,192,27463,128,0,27806:0:0:0:0:
475,192,27806,128,0,29177:0:0:0:0:
329,192,28149,128,0,29177:0:0:0:0:
475,192,29863,128,0,32263:0:0:0:0:
36,192,30206,128,0,31920:0:0:0:0:
36,192,32263,128,0,32606:0:0:0:0:
182,192,32606,128,0,33292:0:0:0:0:
36,192,32949,128,0,35006:0:0:0:0:
329,192,33292,1,0,0:0:0:0:
475,192,33292,128,0,35006:0:0:0:0:
256,192,33377,1,0,0:0:0:0:
182,192,33463,1,0,0:0:0:0:
475,192,35349,128,0,35692:0:0:0:0:
329,192,35349,128,0,37749:0:0:0:0:
36,192,35692,128,0,37406:0:0:0:0:
182,192,35692,128,0,36035:0:0:0:0:
36,192,37749,128,0,38435:0:0:0:0:
182,192,37749,128,0,37920:0:0:0:0:
182,192,38092,128,0,38777:0:0:0:0:
329,192,38092,128,0,38263:0:0:0:0:
329,192,38435,128,0,39120:0:0:0:0:
475,192,38435,128,0,38606:0:0:0:0:
475,192,38777,128,0,40320:0:0:0:0:
36,192,38777,128,0,40492:0:0:0:0:
182,192,39120,1,0,0:0:0:0:
329,192,39292,1,0,0:0:0:0:
182,192,39463,1,0,0:0:0:0:
329,192,39635,1,0,0:0:0:0:
475,192,40492,128,0,45635:0:0:0:0:
329,192,40492,128,0,40835:0:0:0:0:
256,192,40835,128,0,41177:0:0:0:0:
402,192,40835,128,0,43235:0:0:0:0:
182,192,41177,128,0,41520:0:0:0:0:
329,192,41177,128,0,45635:0:0:0:0:
109,192,41520,128,0,43577:0:0:0:0:
256,192,41520,128,0,43577:0:0:0:0:
182,192,43235,128,0,45635:0:0:0:0:
36,192,43577,128,0,45635:0:0:0:0:
109,192,45635,128,0,46320:0:0:0:0:
402,192,45977,128,0,46320:0:0:0:0:
36,192,46320,1,0,0:0:0:0:
475,192,46320,1,0,0:0:0:0:
182,192,46320,128,0,47691:0:0:0:0:
329,192,46491,1,0,0:0:0:0:
36,192,46662,1,0,0:0:0:0:
402,192,46834,128,0,47691:0:0:0:0:
256,192,46834,1,0,0:0:0:0:
109,192,47005,1,0,0:0:0:0:
256,192,47177,1,0,0:0:0:0:
475,192,47348,1,0,0:0:0:0:
329,192,47520,1,0,0:0:0:0:
36,192,47691,1,0,0:0:0:0:
475,192,47691,1,0,0:0:0:0:
475,192,48034,128,0,49062:0:0:0:0:
182,192,48034,1,0,0:0:0:0:
36,192,48205,1,0,0:0:0:0:
329,192,48377,128,0,49062:0:0:0:0:
256,192,48377,1,0,0:0:0:0:
109,192,48548,1,0,0:0:0:0:
182,192,48720,128,0,49577:0:0:0:0:
402,192,48720,1,0,0:0:0:0:
256,192,48891,1,0,0:0:0:0:
36,192,49062,128,0,50777:0:0:0:0:
109,192,49062,1,0,0:0:0:0:
402,192,49234,1,0,0:0:0:0:
256,192,49405,1,0,0:0:0:0:
475,192,49577,128,0,51120:0:0:0:0:
329,192,49577,1,0,0:0:0:0:
182,192,49748,1,0,0:0:0:0:
402,192,49920,1,0,0:0:0:0:
256,192,50091,1,0,0:0:0:0:
109,192,50262,1,0,0:0:0:0:
329,192,50434,1,0,0:0:0:0:
182,192,50605,1,0,0:0:0:0:
256,192,50777,1,0,0:0:0:0:
402,192,50948,1,0,0:0:0:0:
36,192,51120,128,0,51805:0:0:0:0:
329,192,51120,1,0,0:0:0:0:
256,192,51291,1,0,0:0:0:0:
182,192,51462,128,0,51805:0:0:0:0:
475,192,51462,1,0,0:0:0:0:
402,192,51634,1,0,0:0:0:0:
329,192,51805,128,0,53520:0:0:0:0:
109,192,51805,1,0,0:0:0:0:
475,192,51977,1,0,0:0:0:0:
109,192,52148,1,0,0:0:0:0:
475,192,52320,128,0,53520:0:0:0:0:
256,192,52320,1,0,0:0:0:0:
36,192,52491,1,0,0:0:0:0:
182,192,52662,1,0,0:0:0:0:
402,192,52834,1,0,0:0:0:0:
256,192,53005,1,0,0:0:0:0:
36,192,53177,1,0,0:0:0:0:
182,192,53348,1,0,0:0:0:0:
36,192,53520,128,0,54205:0:0:0:0:
402,192,53520,1,0,0:0:0:0:
329,192,53691,1,0,0:0:0:0:
182,192,53862,128,0,54548:0:0:0:0:
475,192,53862,1,0,0:0:0:0:
402,192,54034,1,0,0:0:0:0:
329,192,54205,128,0,55062:0:0:0:0:
109,192,54205,1,0,0:0:0:0:
475,192,54377,1,0,0:0:0:0:
36,192,54548,128,0,55062:0:0:0:0:
256,192,54548,1,0,0:0:0:0:
402,192,54720,1,0,0:0:0:0:
109,192,54891,1,0,0:0:0:0:
475,192,55062,128,0,55920:0:0:0:0:
256,192,55062,1,0,0:0:0:0:
109,192,55234,1,0,0:0:0:0:
402,192,55405,1,0,0:0:0:0:
36,192,55577,128,0,57291:0:0:0:0:
329,192,55577,1,0,0:0:0:0:
256,192,55748,1,0,0:0:0:0:
182,192,55920,128,0,57291:0:0:0:0:
402,192,55920,1,0,0:0:0:0:
256,192,56091,1,0,0:0:0:0:
402,192,56262,1,0,0:0:0:0:
109,192,56434,1,0,0:0:0:0:
475,192,56434,128,0,56948:0:0:0:0:
256,192,56605,1,0,0:0:0:0:
402,192,56777,1,0,0:0:0:0:
329,192,56948,128,0,57291:0:0:0:0:
109,192,56948,1,0,0:0:0:0:
256,192,57120,1,0,0:0:0:0:
402,192,57291,1,0,0:0:0:0:
475,192,57291,1,0,0:0:0:0:
109,192,57291,128,0,58662:0:0:0:0:
256,192,57291,128,0,58662:0:0:0:0:
329,192,57462,1,0,0:0:0:0:
402,192,57634,1,0,0:0:0:0:
475,192,57805,128,0,58662:0:0:0:0:
182,192,57805,1,0,0:0:0:0:
329,192,57977,1,0,0:0:0:0:
36,192,58148,1,0,0:0:0:0:
182,192,58320,1,0,0:0:0:0:
402,192,58491,1,0,0:0:0:0:
329,192,58662,1,0,0:0:0:0:
109,192,58834,1,0,0:0:0:0:
475,192,59005,128,0,59520:0:0:0:0:
329,192,59005,128,0,59520:0:0:0:0:
109,192,59005,1,0,0:0:0:0:
402,192,59177,1,0,0:0:0:0:
36,192,59348,128,0,59862:0:0:0:0:
182,192,59348,128,0,59862:0:0:0:0:
109,192,59348,1,0,0:0:0:0:
402,192,59520,1,0,0:0:0:0:
109,192,59691,1,0,0:0:0:0:
475,192,59691,128,0,60034:0:0:0:0:
329,192,59691,128,0,60034:0:0:0:0:
402,192,59862,1,0,0:0:0:0:
256,192,60034,128,0,62091:0:0:0:0:
182,192,60034,1,0,0:0:0:0:
109,192,60034,128,0,62091:0:0:0:0:
329,192,60205,1,0,0:0:0:0:
475,192,60377,1,0,0:0:0:0:
402,192,60548,128,0,62091:0:0:0:0:
36,192,60548,1,0,0:0:0:0:
475,192,60720,1,0,0:0:0:0:
36,192,60891,1,0,0:0:0:0:
475,192,61062,1,0,0:0:0:0:
36,192,61234,1,0,0:0:0:0:
475,192,61405,1,0,0:0:0:0:
36,192,61577,1,0,0:0:0:0:
475,192,61748,1,0,0:0:0:0:
36,192,61920,1,0,0:0:0:0:
329,192,62091,128,0,62777:0:0:0:0:
475,192,62091,1,0,0:0:0:0:
36,192,62262,1,0,0:0:0:0:
182,192,62434,128,0,62777:0:0:0:0:
475,192,62434,1,0,0:0:0:0:
402,192,62434,1,0,0:0:0:0:
36,192,62605,1,0,0:0:0:0:
109,192,62605,1,0,0:0:0:0:
402,192,62777,1,0,0:0:0:0:
475,192,62777,1,0,0:0:0:0:
36,192,62777,128,0,64148:0:0:0:0:
182,192,62948,1,0,0:0:0:0:
256,192,63120,1,0,0:0:0:0:
402,192,63120,1,0,0:0:0:0:
475,192,63291,128,0,64148:0:0:0:0:
109,192,63291,1,0,0:0:0:0:
182,192,63462,1,0,0:0:0:0:
329,192,63462,1,0,0:0:0:0:
402,192,63634,1,0,0:0:0:0:
256,192,63805,1,0,0:0:0:0:
109,192,63805,1,0,0:0:0:0:
329,192,63977,1,0,0:0:0:0:
182,192,64148,1,0,0:0:0:0:
402,192,64148,1,0,0:0:0:0:
36,192,64320,1,0,0:0:0:0:
475,192,64491,128,0,66034:0:0:0:0:
109,192,64491,1,0,0:0:0:0:
256,192,64491,1,0,0:0:0:0:
182,192,64662,1,0,0:0:0:0:
329,192,64834,128,0,66548:0:0:0:0:
36,192,64834,1,0,0:0:0:0:
256,192,64834,1,0,0:0:0:0:
109,192,65005,1,0,0:0:0:0:
182,192,65177,128,0,65520:0:0:0:0:
36,192,65177,1,0,0:0:0:0:
402,192,65177,1,0,0:0:0:0:
109,192,65348,1,0,0:0:0:0:
36,192,65520,128,0,66891:0:0:0:0:
402,192,65520,1,0,0:0:0:0:
182,192,65691,1,0,0:0:0:0:
256,192,65691,1,0,0:0:0:0:
402,192,65862,1,0,0:0:0:0:
109,192,65862,1,0,0:0:0:0:
182,192,66034,128,0,66891:0:0:0:0:
109,192,66034,1,0,0:0:0:0:
402,192,66205,1,0,0:0:0:0:
475,192,66205,1,0,0:0:0:0:
256,192,66377,1,0,0:0:0:0:
475,192,66548,128,0,68262:0:0:0:0:
402,192,66548,1,0,0:0:0:0:
329,192,66720,1,0,0:0:0:0:
256,192,66720,1,0,0:0:0:0:
329,192,66891,128,0,68262:0:0:0:0:
109,192,66891,1,0,0:0:0:0:
256,192,66977,1,0,0:0:0:0:
402,192,67062,1,0,0:0:0:0:
36,192,67148,1,0,0:0:0:0:
182,192,67234,1,0,0:0:0:0:
402,192,67320,1,0,0:0:0:0:
256,192,67405,1,0,0:0:0:0:
36,192,67491,1,0,0:0:0:0:
109,192,67577,1,0,0:0:0:0:
402,192,67577,1,0,0:0:0:0:
182,192,67662,1,0,0:0:0:0:
36,192,67748,1,0,0:0:0:0:
256,192,67748,1,0,0:0:0:0:
182,192,67834,1,0,0:0:0:0:
109,192,67920,1,0,0:0:0:0:
402,192,67920,1,0,0:0:0:0:
36,192,68005,1,0,0:0:0:0:
256,192,68091,1,0,0:0:0:0:
109,192,68091,1,0,0:0:0:0:
182,192,68177,1,0,0:0:0:0:
36,192,68262,1,0,0:0:0:0:
256,192,68262,1,0,0:0:0:0:
402,192,68262,1,0,0:0:0:0:
109,192,68262,128,0,68434:0:0:0:0:
329,192,68434,128,0,68605:0:0:0:0:
475,192,68434,1,0,0:0:0:0:
36,192,68434,1,0,0:0:0:0:
182,192,68605,128,0,68777:0:0:0:0:
329,192,68777,128,0,68948:0:0:0:0:
36,192,68777,1,0,0:0:0:0:
475,192,68777,1,0,0:0:0:0:
475,192,68948,128,0,69634:0:0:0:0:
182,192,68948,1,0,0:0:0:0:
36,192,69120,1,0,0:0:0:0:
402,192,69120,1,0,0:0:0:0:
109,192,69205,1,0,0:0:0:0:
182,192,69291,1,0,0:0:0:0:
36,192,69462,1,0,0:0:0:0:
402,192,69462,1,0,0:0:0:0:
329,192,69548,1,0,0:0:0:0:
256,192,69634,1,0,0:0:0:0:
475,192,69805,128,0,70148:0:0:0:0:
36,192,69805,1,0,0:0:0:0:
402,192,69805,1,0,0:0:0:0:
109,192,69891,1,0,0:0:0:0:
329,192,69977,128,0,70320:0:0:0:0:
182,192,69977,1,0,0:0:0:0:
182,192,70148,128,0,70491:0:0:0:0:
36,192,70148,1,0,0:0:0:0:
402,192,70148,1,0,0:0:0:0:
475,192,70320,128,0,70662:0:0:0:0:
329,192,70491,128,0,71005:0:0:0:0:
36,192,70491,1,0,0:0:0:0:
256,192,70491,1,0,0:0:0:0:
182,192,70662,128,0,70834:0:0:0:0:
36,192,70834,128,0,71005:0:0:0:0:
256,192,70834,1,0,0:0:0:0:
475,192,70834,1,0,0:0:0:0:
182,192,71005,128,0,71177:0:0:0:0:
329,192,71177,128,0,71348:0:0:0:0:
475,192,71177,1,0,0:0:0:0:
36,192,71177,1,0,0:0:0:0:
109,192,71262,1,0,0:0:0:0:
256,192,71348,128,0,71520:0:0:0:0:
182,192,71348,1,0,0:0:0:0:
36,192,71520,1,0,0:0:0:0:
475,192,71520,1,0,0:0:0:0:
402,192,71520,128,0,71691:0:0:0:0:
329,192,71691,128,0,71862:0:0:0:0:
475,192,71862,128,0,72377:0:0:0:0:
182,192,71862,1,0,0:0:0:0:
36,192,71862,1,0,0:0:0:0:
256,192,71948,1,0,0:0:0:0:
329,192,72034,1,0,0:0:0:0:
36,192,72205,1,0,0:0:0:0:
182,192,72205,1,0,0:0:0:0:
475,192,72548,128,0,73234:0:0:0:0:
36,192,72548,1,0,0:0:0:0:
256,192,72548,1,0,0:0:0:0:
329,192,72720,128,0,73234:0:0:0:0:
182,192,72891,128,0,73234:0:0:0:0:
36,192,72891,1,0,0:0:0:0:
402,192,72891,1,0,0:0:0:0:
36,192,73062,128,0,73234:0:0:0:0:
109,192,73234,1,0,0:0:0:0:
402,192,73234,1,0,0:0:0:0:
329,192,73320,1,0,0:0:0:0:
182,192,73320,1,0,0:0:0:0:
36,192,73405,1,0,0:0:0:0:
475,192,73405,1,0,0:0:0:0:
256,192,73405,1,0,0:0:0:0:
256,192,73577,1,0,0:0:0:0:
36,192,73748,1,0,0:0:0:0:
475,192,73748,1,0,0:0:0:0:
109,192,73748,128,0,73920:0:0:0:0:
256,192,73748,1,0,0:0:0:0:
402,192,73920,128,0,74091:0:0:0:0:
182,192,73920,1,0,0:0:0:0:
329,192,73920,1,0,0:0:0:0:
256,192,74005,1,0,0:0:0:0:
182,192,74091,128,0,74262:0:0:0:0:
36,192,74091,1,0,0:0:0:0:
475,192,74091,1,0,0:0:0:0:
475,192,74262,128,0,74434:0:0:0:0:
329,192,74262,1,0,0:0:0:0:
109,192,74262,1,0,0:0:0:0:
256,192,74348,1,0,0:0:0:0:
329,192,74434,128,0,74605:0:0:0:0:
182,192,74434,1,0,0:0:0:0:
36,192,74434,1,0,0:0:0:0:
182,192,74605,128,0,75120:0:0:0:0:
475,192,74605,1,0,0:0:0:0:
109,192,74605,1,0,0:0:0:0:
402,192,74691,1,0,0:0:0:0:
36,192,74777,1,0,0:0:0:0:
329,192,74777,1,0,0:0:0:0:
475,192,74948,1,0,0:0:0:0:
109,192,74948,1,0,0:0:0:0:
329,192,75034,1,0,0:0:0:0:
36,192,75120,1,0,0:0:0:0:
475,192,75120,1,0,0:0:0:0:
475,192,75291,128,0,75462:0:0:0:0:
402,192,75291,1,0,0:0:0:0:
182,192,75291,1,0,0:0:0:0:
109,192,75377,1,0,0:0:0:0:
329,192,75462,128,0,75634:0:0:0:0:
36,192,75462,1,0,0:0:0:0:
256,192,75462,1,0,0:0:0:0:
182,192,75634,128,0,75805:0:0:0:0:
402,192,75634,1,0,0:0:0:0:
36,192,75634,1,0,0:0:0:0:
256,192,75720,1,0,0:0:0:0:
36,192,75805,128,0,76148:0:0:0:0:
329,192,75805,1,0,0:0:0:0:
475,192,75805,1,0,0:0:0:0:
182,192,75977,128,0,76148:0:0:0:0:
256,192,75977,1,0,0:0:0:0:
475,192,75977,1,0,0:0:0:0:
402,192,76062,1,0,0:0:0:0:
475,192,76148,128,0,76491:0:0:0:0:
329,192,76148,1,0,0:0:0:0:
109,192,76148,1,0,0:0:0:0:
329,192,76320,128,0,76491:0:0:0:0:
256,192,76320,1,0,0:0:0:0:
109,192,76320,1,0,0:0:0:0:
182,192,76405,1,0,0:0:0:0:
256,192,76491,1,0,0:0:0:0:
36,192,76491,1,0,0:0:0:0:
475,192,76662,128,0,76834:0:0:0:0:
109,192,76662,1,0,0:0:0:0:
329,192,76662,1,0,0:0:0:0:
256,192,76748,1,0,0:0:0:0:
329,192,76834,128,0,77005:0:0:0:0:
182,192,76834,1,0,0:0:0:0:
36,192,76834,1,0,0:0:0:0:
182,192,77005,128,0,77177:0:0:0:0:
402,192,77005,1,0,0:0:0:0:
475,192,77005,1,0,0:0:0:0:
109,192,77091,1,0,0:0:0:0:
36,192,77177,128,0,77348:0:0:0:0:
256,192,77177,1,0,0:0:0:0:
402,192,77177,1,0,0:0:0:0:
475,192,77348,128,0,77862:0:0:0:0:
182,192,77348,1,0,0:0:0:0:
402,192,77348,1,0,0:0:0:0:
329,192,77434,1,0,0:0:0:0:
36,192,77520,1,0,0:0:0:0:
182,192,77520,1,0,0:0:0:0:
256,192,77691,1,0,0:0:0:0:
329,192,77691,1,0,0:0:0:0:
109,192,77777,1,0,0:0:0:0:
182,192,77862,128,0,78291:0:0:0:0:
36,192,77862,1,0,0:0:0:0:
402,192,77862,1,0,0:0:0:0:
329,192,77948,128,0,78377:0:0:0:0:
109,192,78034,128,0,78462:0:0:0:0:
402,192,78120,128,0,78548:0:0:0:0:
36,192,78205,128,0,78377:0:0:0:0:
475,192,78291,128,0,78462:0:0:0:0:
182,192,78377,128,0,78634:0:0:0:0:
329,192,78462,128,0,78634:0:0:0:0:
109,192,78548,128,0,78891:0:0:0:0:
475,192,78548,128,0,78720:0:0:0:0:
402,192,78720,128,0,78891:0:0:0:0:
182,192,78720,128,0,78891:0:0:0:0:
36,192,78720,1,0,0:0:0:0:
329,192,78720,1,0,0:0:0:0:
475,192,78891,128,0,79234:0:0:0:0:
256,192,78891,128,0,79062:0:0:0:0:
109,192,79062,128,0,79234:0:0:0:0:
329,192,79062,128,0,79234:0:0:0:0:
36,192,79062,1,0,0:0:0:0:
402,192,79062,1,0,0:0:0:0:
36,192,79234,1,0,0:0:0:0:
182,192,79234,128,0,79405:0:0:0:0:
329,192,79405,128,0,79577:0:0:0:0:
402,192,79405,1,0,0:0:0:0:
109,192,79405,1,0,0:0:0:0:
182,192,79491,1,0,0:0:0:0:
475,192,79577,128,0,79748:0:0:0:0:
36,192,79577,1,0,0:0:0:0:
256,192,79577,1,0,0:0:0:0:
256,192,79748,128,0,80091:0:0:0:0:
402,192,79748,1,0,0:0:0:0:
182,192,79748,1,0,0:0:0:0:
329,192,79834,1,0,0:0:0:0:
36,192,79920,1,0,0:0:0:0:
475,192,79920,1,0,0:0:0:0:
109,192,79920,1,0,0:0:0:0:
475,192,80091,128,0,80262:0:0:0:0:
329,192,80091,1,0,0:0:0:0:
402,192,80091,1,0,0:0:0:0:
182,192,80177,1,0,0:0:0:0:
329,192,80262,128,0,80434:0:0:0:0:
256,192,80262,1,0,0:0:0:0:
36,192,80262,1,0,0:0:0:0:
182,192,80434,128,0,80777:0:0:0:0:
475,192,80434,1,0,0:0:0:0:
109,192,80434,1,0,0:0:0:0:
329,192,80520,1,0,0:0:0:0:
402,192,80605,1,0,0:0:0:0:
36,192,80605,1,0,0:0:0:0:
475,192,80777,128,0,81120:0:0:0:0:
402,192,80777,1,0,0:0:0:0:
256,192,80777,1,0,0:0:0:0:
182,192,80862,1,0,0:0:0:0:
329,192,80948,128,0,81120:0:0:0:0:
36,192,80948,1,0,0:0:0:0:
109,192,80948,1,0,0:0:0:0:
182,192,81120,128,0,81462:0:0:0:0:
36,192,81120,1,0,0:0:0:0:
402,192,81120,1,0,0:0:0:0:
256,192,81205,1,0,0:0:0:0:
36,192,81291,128,0,81634:0:0:0:0:
475,192,81291,1,0,0:0:0:0:
329,192,81291,1,0,0:0:0:0:
475,192,81462,128,0,81634:0:0:0:0:
256,192,81462,128,0,81720:0:0:0:0:
402,192,81462,1,0,0:0:0:0:
329,192,81548,1,0,0:0:0:0:
182,192,81634,128,0,81891:0:0:0:0:
402,192,81634,128,0,81805:0:0:0:0:
109,192,81634,1,0,0:0:0:0:
36,192,81805,128,0,81977:0:0:0:0:
256,192,81805,128,0,81977:0:0:0:0:
475,192,81805,1,0,0:0:0:0:
475,192,81977,1,0,0:0:0:0:
329,192,81977,1,0,0:0:0:0:
182,192,81977,128,0,82320:0:0:0:0:
329,192,82148,128,0,82320:0:0:0:0:
475,192,82148,1,0,0:0:0:0:
402,192,82148,1,0,0:0:0:0:
109,192,82234,1,0,0:0:0:0:
475,192,82320,128,0,82662:0:0:0:0:
36,192,82320,1,0,0:0:0:0:
402,192,82320,1,0,0:0:0:0:
329,192,82491,128,0,82662:0:0:0:0:
109,192,82491,1,0,0:0:0:0:
256,192,82491,1,0,0:0:0:0:
182,192,82577,1,0,0:0:0:0:
36,192,82662,1,0,0:0:0:0:
402,192,82662,1,0,0:0:0:0:
36,192,82834,128,0,83005:0:0:0:0:
475,192,82834,1,0,0:0:0:0:
256,192,82834,1,0,0:0:0:0:
329,192,82920,1,0,0:0:0:0:
182,192,83005,128,0,83177:0:0:0:0:
475,192,83005,1,0,0:0:0:0:
109,192,83005,1,0,0:0:0:0:
329,192,83177,128,0,83520:0:0:0:0:
402,192,83177,1,0,0:0:0:0:
109,192,83177,1,0,0:0:0:0:
36,192,83262,1,0,0:0:0:0:
182,192,83348,1,0,0:0:0:0:
475,192,83348,1,0,0:0:0:0:
475,192,83520,128,0,83691:0:0:0:0:
402,192,83520,1,0,0:0:0:0:
109,192,83520,1,0,0:0:0:0:
182,192,83605,1,0,0:0:0:0:
329,192,83691,128,0,83862:0:0:0:0:
36,192,83691,1,0,0:0:0:0:
256,192,83691,1,0,0:0:0:0:
182,192,83862,128,0,84034:0:0:0:0:
402,192,83862,1,0,0:0:0:0:
36,192,83862,1,0,0:0:0:0:
329,192,83948,1,0,0:0:0:0:
36,192,84034,128,0,84720:0:0:0:0:
475,192,84034,1,0,0:0:0:0:
256,192,84034,1,0,0:0:0:0:
182,192,84205,128,0,84720:0:0:0:0:
256,192,84205,1,0,0:0:0:0:
475,192,84205,1,0,0:0:0:0:
329,192,84291,1,0,0:0:0:0:
475,192,84377,128,0,84720:0:0:0:0:
402,192,84377,1,0,0:0:0:0:
109,192,84377,1,0,0:0:0:0:
329,192,84548,128,0,84720:0:0:0:0:
109,192,84548,1,0,0:0:0:0:
402,192,84548,1,0,0:0:0:0:
109,192,84720,1,0,0:0:0:0:
402,192,84720,1,0,0:0:0:0:
36,192,84891,128,0,85062:0:0:0:0:
182,192,84891,1,0,0:0:0:0:
329,192,84891,1,0,0:0:0:0:
402,192,84977,1,0,0:0:0:0:
182,192,85062,128,0,85234:0:0:0:0:
475,192,85062,1,0,0:0:0:0:
329,192,85234,128,0,85577:0:0:0:0:
475,192,85234,1,0,0:0:0:0:
36,192,85234,1,0,0:0:0:0:
109,192,85320,1,0,0:0:0:0:
402,192,85405,1,0,0:0:0:0:
182,192,85405,1,0,0:0:0:0:
109,192,85577,128,0,85748:0:0:0:0:
475,192,85577,1,0,0:0:0:0:
256,192,85577,1,0,0:0:0:0:
402,192,85662,1,0,0:0:0:0:
256,192,85748,128,0,85920:0:0:0:0:
36,192,85748,1,0,0:0:0:0:
329,192,85748,1,0,0:0:0:0:
402,192,85920,128,0,86262:0:0:0:0:
109,192,85920,1,0,0:0:0:0:
329,192,86005,1,0,0:0:0:0:
256,192,86091,1,0,0:0:0:0:
36,192,86091,1,0,0:0:0:0:
182,192,86262,128,0,86434:0:0:0:0:
329,192,86262,1,0,0:0:0:0:
109,192,86262,1,0,0:0:0:0:
256,192,86348,1,0,0:0:0:0:
329,192,86434,128,0,86605:0:0:0:0:
475,192,86434,1,0,0:0:0:0:
36,192,86434,1,0,0:0:0:0:
475,192,86605,128,0,86948:0:0:0:0:
109,192,86605,1,0,0:0:0:0:
402,192,86605,1,0,0:0:0:0:
256,192,86691,1,0,0:0:0:0:
329,192,86777,128,0,87120:0:0:0:0:
182,192,86777,1,0,0:0:0:0:
36,192,86777,1,0,0:0:0:0:
182,192,86948,128,0,87291:0:0:0:0:
36,192,86948,1,0,0:0:0:0:
475,192,87120,128,0,87462:0:0:0:0:
109,192,87120,1,0,0:0:0:0:
36,192,87120,1,0,0:0:0:0:
329,192,87291,128,0,87462:0:0:0:0:
36,192,87291,1,0,0:0:0:0:
109,192,87291,1,0,0:0:0:0:
36,192,87462,1,0,0:0:0:0:
182,192,87462,1,0,0:0:0:0:
402,192,87462,128,0,87805:0:0:0:0:
256,192,87634,128,0,87977:0:0:0:0:
109,192,87634,1,0,0:0:0:0:
182,192,87634,1,0,0:0:0:0:
329,192,87720,1,0,0:0:0:0:
109,192,87805,128,0,87977:0:0:0:0:
36,192,87805,1,0,0:0:0:0:
475,192,87805,1,0,0:0:0:0:
475,192,87977,128,0,88320:0:0:0:0:
402,192,87977,1,0,0:0:0:0:
329,192,87977,1,0,0:0:0:0:
182,192,88062,1,0,0:0:0:0:
36,192,88148,1,0,0:0:0:0:
256,192,88148,1,0,0:0:0:0:
109,192,88320,128,0,88491:0:0:0:0:
182,192,88320,1,0,0:0:0:0:
329,192,88320,1,0,0:0:0:0:
402,192,88405,1,0,0:0:0:0:
256,192,88491,128,0,88662:0:0:0:0:
475,192,88491,1,0,0:0:0:0:
36,192,88491,1,0,0:0:0:0:
402,192,88662,128,0,88834:0:0:0:0:
182,192,88662,1,0,0:0:0:0:
109,192,88662,1,0,0:0:0:0:
329,192,88748,1,0,0:0:0:0:
256,192,88834,1,0,0:0:0:0:
36,192,88834,1,0,0:0:0:0:
475,192,88834,1,0,0:0:0:0:
36,192,89005,128,0,89348:0:0:0:0:
256,192,89005,128,0,89348:0:0:0:0:
475,192,89005,1,0,0:0:0:0:
109,192,89177,128,0,89520:0:0:0:0:
402,192,89177,128,0,89520:0:0:0:0:
182,192,89348,128,0,89691:0:0:0:0:
475,192,89348,128,0,89691:0:0:0:0:
329,192,89520,128,0,89862:0:0:0:0:
36,192,89520,128,0,89862:0:0:0:0:
402,192,89691,128,0,90034:0:0:0:0:
256,192,89691,128,0,90034:0:0:0:0:
182,192,89777,1,0,0:0:0:0:
182,192,89862,1,0,0:0:0:0:
475,192,89862,128,0,90205:0:0:0:0:
109,192,89862,128,0,90205:0:0:0:0:
182,192,90034,1,0,0:0:0:0:
329,192,90034,1,0,0:0:0:0:
36,192,90205,1,0,0:0:0:0:
256,192,90205,1,0,0:0:0:0:
329,192,90205,128,0,90891:0:0:0:0:
402,192,90205,128,0,90891:0:0:0:0:
109,192,90377,1,0,0:0:0:0:
182,192,90462,1,0,0:0:0:0:
256,192,90548,1,0,0:0:0:0:
36,192,90548,1,0,0:0:0:0:
109,192,90720,1,0,0:0:0:0:
182,192,90805,1,0,0:0:0:0:
475,192,90891,128,0,91577:0:0:0:0:
256,192,90891,1,0,0:0:0:0:
36,192,90891,1,0,0:0:0:0:
402,192,91062,1,0,0:0:0:0:
256,192,91234,1,0,0:0:0:0:
36,192,91234,128,0,91320:0:0:0:0:
182,192,91234,1,0,0:0:0:0:
402,192,91320,1,0,0:0:0:0:
109,192,91320,128,0,91405:0:0:0:0:
182,192,91405,128,0,91491:0:0:0:0:
329,192,91405,1,0,0:0:0:0:
256,192,91491,128,0,91577:0:0:0:0:
109,192,91577,128,0,91662:0:0:0:0:
36,192,91577,128,0,92262:0:0:0:0:
402,192,91577,1,0,0:0:0:0:
182,192,91662,128,0,91748:0:0:0:0:
256,192,91748,128,0,91834:0:0:0:0:
475,192,91748,1,0,0:0:0:0:
329,192,91834,128,0,91920:0:0:0:0:
475,192,91920,128,0,92005:0:0:0:0:
182,192,91920,1,0,0:0:0:0:
109,192,91920,1,0,0:0:0:0:
256,192,92005,128,0,92091:0:0:0:0:
402,192,92091,128,0,92177:0:0:0:0:
329,192,92091,1,0,0:0:0:0:
182,192,92177,128,0,92262:0:0:0:0:
329,192,92262,128,0,92948:0:0:0:0:
475,192,92262,128,0,92948:0:0:0:0:
109,192,92262,1,0,0:0:0:0:
402,192,92262,1,0,0:0:0:0:
109,192,92434,1,0,0:0:0:0:
182,192,92520,1,0,0:0:0:0:
36,192,92605,128,0,92948:0:0:0:0:
256,192,92605,1,0,0:0:0:0:
402,192,92605,1,0,0:0:0:0:
109,192,92777,1,0,0:0:0:0:
256,192,92862,1,0,0:0:0:0:
402,192,92948,1,0,0:0:0:0:
109,192,92948,128,0,93634:0:0:0:0:
182,192,92948,128,0,93634:0:0:0:0:
329,192,93120,1,0,0:0:0:0:
402,192,93205,1,0,0:0:0:0:
475,192,93291,1,0,0:0:0:0:
256,192,93291,1,0,0:0:0:0:
402,192,93462,1,0,0:0:0:0:
329,192,93548,1,0,0:0:0:0:
36,192,93634,128,0,94320:0:0:0:0:
256,192,93634,1,0,0:0:0:0:
475,192,93634,1,0,0:0:0:0:
182,192,93805,1,0,0:0:0:0:
256,192,93891,1,0,0:0:0:0:
475,192,93977,128,0,94062:0:0:0:0:
329,192,93977,1,0,0:0:0:0:
109,192,93977,1,0,0:0:0:0:
256,192,94062,128,0,94148:0:0:0:0:
402,192,94148,128,0,94234:0:0:0:0:
329,192,94148,1,0,0:0:0:0:
182,192,94234,128,0,94320:0:0:0:0:
475,192,94320,128,0,94405:0:0:0:0:
109,192,94320,1,0,0:0:0:0:
402,192,94320,1,0,0:0:0:0:
329,192,94405,128,0,94491:0:0:0:0:
182,192,94491,128,0,94577:0:0:0:0:
256,192,94491,1,0,0:0:0:0:
36,192,94577,128,0,94662:0:0:0:0:
475,192,94662,128,0,94834:0:0:0:0:
402,192,94662,1,0,0:0:0:0:
109,192,94662,1,0,0:0:0:0:
329,192,94834,128,0,95005:0:0:0:0:
182,192,94834,1,0,0:0:0:0:
109,192,94920,1,0,0:0:0:0:
182,192,95005,128,0,95177:0:0:0:0:
36,192,95005,1,0,0:0:0:0:
475,192,95005,1,0,0:0:0:0:
475,192,95177,128,0,95691:0:0:0:0:
329,192,95177,1,0,0:0:0:0:
256,192,95262,1,0,0:0:0:0:
329,192,95348,128,0,95691:0:0:0:0:
182,192,95348,1,0,0:0:0:0:
36,192,95348,1,0,0:0:0:0:
36,192,95520,1,0,0:0:0:0:
182,192,95520,1,0,0:0:0:0:
36,192,95691,1,0,0:0:0:0:
182,192,95691,1,0,0:0:0:0:
109,192,95691,128,0,96377:0:0:0:0:
402,192,95691,128,0,96205:0:0:0:0:
256,192,95862,1,0,0:0:0:0:
329,192,95948,1,0,0:0:0:0:
475,192,96034,1,0,0:0:0:0:
36,192,96034,1,0,0:0:0:0:
329,192,96205,1,0,0:0:0:0:
182,192,96291,1,0,0:0:0:0:
402,192,96377,128,0,97062:0:0:0:0:
256,192,96377,1,0,0:0:0:0:
36,192,96377,1,0,0:0:0:0:
109,192,96548,1,0,0:0:0:0:
182,192,96634,1,0,0:0:0:0:
36,192,96720,128,0,96805:0:0:0:0:
256,192,96720,1,0,0:0:0:0:
475,192,96720,1,0,0:0:0:0:
182,192,96805,128,0,96891:0:0:0:0:
109,192,96891,128,0,96977:0:0:0:0:
329,192,96891,1,0,0:0:0:0:
256,192,96977,128,0,97062:0:0:0:0:
36,192,97062,128,0,97148:0:0:0:0:
329,192,97062,1,0,0:0:0:0:
109,192,97062,1,0,0:0:0:0:
182,192,97148,128,0,97234:0:0:0:0:
329,192,97234,128,0,97320:0:0:0:0:
475,192,97234,1,0,0:0:0:0:
109,192,97320,128,0,97405:0:0:0:0:
256,192,97405,128,0,97491:0:0:0:0:
329,192,97405,1,0,0:0:0:0:
36,192,97405,1,0,0:0:0:0:
402,192,97491,128,0,97577:0:0:0:0:
182,192,97577,128,0,97662:0:0:0:0:
36,192,97577,1,0,0:0:0:0:
329,192,97662,128,0,97748:0:0:0:0:
475,192,97748,128,0,97920:0:0:0:0:
182,192,97748,1,0,0:0:0:0:
36,192,97748,1,0,0:0:0:0:
329,192,97920,128,0,98434:0:0:0:0:
256,192,97920,1,0,0:0:0:0:
402,192,97920,128,0,98434:0:0:0:0:
109,192,98005,1,0,0:0:0:0:
36,192,98091,1,0,0:0:0:0:
475,192,98091,1,0,0:0:0:0:
182,192,98262,1,0,0:0:0:0:
109,192,98348,1,0,0:0:0:0:
256,192,98434,1,0,0:0:0:0:
36,192,98434,1,0,0:0:0:0:
475,192,98434,128,0,99120:0:0:0:0:
182,192,98605,1,0,0:0:0:0:
256,192,98691,1,0,0:0:0:0:
36,192,98777,128,0,98948:0:0:0:0:
329,192,98777,1,0,0:0:0:0:
109,192,98777,1,0,0:0:0:0:
182,192,98948,128,0,99120:0:0:0:0:
402,192,98948,1,0,0:0:0:0:
109,192,99034,1,0,0:0:0:0:
256,192,99120,128,0,99805:0:0:0:0:
329,192,99120,128,0,99291:0:0:0:0:
36,192,99120,1,0,0:0:0:0:
402,192,99120,1,0,0:0:0:0:
475,192,99291,128,0,99462:0:0:0:0:
36,192,99291,1,0,0:0:0:0:
109,192,99377,1,0,0:0:0:0:
36,192,99462,128,0,99548:0:0:0:0:
182,192,99462,1,0,0:0:0:0:
329,192,99462,1,0,0:0:0:0:
402,192,99548,128,0,99634:0:0:0:0:
109,192,99634,128,0,99720:0:0:0:0:
182,192,99634,1,0,0:0:0:0:
475,192,99720,128,0,99805:0:0:0:0:
36,192,99805,128,0,99891:0:0:0:0:
402,192,99805,1,0,0:0:0:0:
329,192,99805,1,0,0:0:0:0:
256,192,99891,128,0,99977:0:0:0:0:
109,192,99977,128,0,100062:0:0:0:0:
475,192,99977,1,0,0:0:0:0:
329,192,100062,128,0,100148:0:0:0:0:
475,192,100148,128,0,100234:0:0:0:0:
256,192,100148,1,0,0:0:0:0:
36,192,100148,1,0,0:0:0:0:
182,192,100234,128,0,100320:0:0:0:0:
402,192,100320,128,0,100405:0:0:0:0:
329,192,100320,1,0,0:0:0:0:
109,192,100405,128,0,100491:0:0:0:0:
329,192,100491,128,0,100577:0:0:0:0:
256,192,100491,128,0,101177:0:0:0:0:
402,192,100491,1,0,0:0:0:0:
182,192,100491,1,0,0:0:0:0:
36,192,100577,128,0,100662:0:0:0:0:
402,192,100662,128,0,100748:0:0:0:0:
182,192,100748,128,0,100834:0:0:0:0:
475,192,100748,1,0,0:0:0:0:
36,192,100748,1,0,0:0:0:0:
475,192,100834,1,0,0:0:0:0:
36,192,100834,1,0,0:0:0:0:
109,192,101005,1,0,0:0:0:0:
402,192,101005,1,0,0:0:0:0:
475,192,101177,1,0,0:0:0:0:
329,192,101177,1,0,0:0:0:0:
182,192,101177,1,0,0:0:0:0:
36,192,101177,1,0,0:0:0:0:
36,192,101348,128,0,101520:0:0:0:0:
329,192,101348,1,0,0:0:0:0:
402,192,101434,1,0,0:0:0:0:
182,192,101520,128,0,101691:0:0:0:0:
475,192,101520,1,0,0:0:0:0:
256,192,101520,1,0,0:0:0:0:
329,192,101691,128,0,101862:0:0:0:0:
36,192,101691,1,0,0:0:0:0:
109,192,101777,1,0,0:0:0:0:
475,192,101862,128,0,102034:0:0:0:0:
182,192,101862,1,0,0:0:0:0:
402,192,101862,1,0,0:0:0:0:
36,192,102034,128,0,102120:0:0:0:0:
329,192,102034,1,0,0:0:0:0:
256,192,102120,128,0,102205:0:0:0:0:
402,192,102120,1,0,0:0:0:0:
109,192,102205,128,0,102291:0:0:0:0:
475,192,102205,1,0,0:0:0:0:
182,192,102205,1,0,0:0:0:0:
329,192,102291,128,0,102377:0:0:0:0:
182,192,102377,128,0,102462:0:0:0:0:
36,192,102377,1,0,0:0:0:0:
402,192,102462,128,0,102548:0:0:0:0:
256,192,102548,128,0,102634:0:0:0:0:
182,192,102548,1,0,0:0:0:0:
36,192,102548,1,0,0:0:0:0:
475,192,102634,128,0,102720:0:0:0:0:
109,192,102720,128,0,102805:0:0:0:0:
402,192,102720,1,0,0:0:0:0:
329,192,102805,128,0,102891:0:0:0:0:
182,192,102891,128,0,102977:0:0:0:0:
475,192,102891,1,0,0:0:0:0:
36,192,102891,1,0,0:0:0:0:
402,192,102977,128,0,103062:0:0:0:0:
256,192,103062,128,0,103148:0:0:0:0:
329,192,103062,1,0,0:0:0:0:
475,192,103148,128,0,103234:0:0:0:0:
109,192,103234,128,0,103405:0:0:0:0:
402,192,103234,1,0,0:0:0:0:
36,192,103234,1,0,0:0:0:0:
182,192,103320,128,0,103491:0:0:0:0:
329,192,103405,128,0,103577:0:0:0:0:
475,192,103405,1,0,0:0:0:0:
402,192,103491,128,0,103577:0:0:0:0:
109,192,103577,128,0,103920:0:0:0:0:
256,192,103577,1,0,0:0:0:0:
36,192,103577,1,0,0:0:0:0:
402,192,103748,128,0,103920:0:0:0:0:
329,192,103748,1,0,0:0:0:0:
256,192,103834,1,0,0:0:0:0:
182,192,103920,1,0,0:0:0:0:
475,192,103920,1,0,0:0:0:0:
36,192,104091,128,0,104262:0:0:0:0:
329,192,104091,1,0,0:0:0:0:
402,192,104177,1,0,0:0:0:0:
182,192,104262,128,0,104434:0:0:0:0:
475,192,104262,1,0,0:0:0:0:
256,192,104262,1,0,0:0:0:0:
475,192,104434,128,0,104605:0:0:0:0:
36,192,104434,128,0,104520:0:0:0:0:
256,192,104434,1,0,0:0:0:0:
109,192,104520,128,0,104605:0:0:0:0:
402,192,104605,128,0,104777:0:0:0:0:
182,192,104605,128,0,104691:0:0:0:0:
329,192,104605,1,0,0:0:0:0:
36,192,104605,1,0,0:0:0:0:
256,192,104691,128,0,104777:0:0:0:0:
36,192,104777,128,0,104862:0:0:0:0:
475,192,104777,1,0,0:0:0:0:
109,192,104862,128,0,104948:0:0:0:0:
182,192,104948,128,0,105034:0:0:0:0:
475,192,104948,1,0,0:0:0:0:
329,192,104948,1,0,0:0:0:0:
256,192,105034,128,0,105120:0:0:0:0:
402,192,105120,128,0,105205:0:0:0:0:
109,192,105120,1,0,0:0:0:0:
182,192,105205,128,0,105291:0:0:0:0:
329,192,105291,128,0,105377:0:0:0:0:
36,192,105291,1,0,0:0:0:0:
475,192,105291,1,0,0:0:0:0:
109,192,105377,128,0,105462:0:0:0:0:
402,192,105462,128,0,105548:0:0:0:0:
256,192,105462,1,0,0:0:0:0:
36,192,105548,128,0,105634:0:0:0:0:
475,192,105634,128,0,105720:0:0:0:0:
329,192,105634,1,0,0:0:0:0:
182,192,105634,1,0,0:0:0:0:
109,192,105720,128,0,105805:0:0:0:0:
329,192,105805,128,0,105891:0:0:0:0:
256,192,105805,1,0,0:0:0:0:
182,192,105891,128,0,105977:0:0:0:0:
402,192,105977,128,0,106062:0:0:0:0:
36,192,105977,1,0,0:0:0:0:
475,192,105977,1,0,0:0:0:0:
109,192,106062,128,0,106148:0:0:0:0:
329,192,106148,128,0,106234:0:0:0:0:
256,192,106148,1,0,0:0:0:0:
182,192,106234,128,0,106320:0:0:0:0:
475,192,106320,128,0,106662:0:0:0:0:
402,192,106320,1,0,0:0:0:0:
109,192,106320,1,0,0:0:0:0:
109,192,106491,1,0,0:0:0:0:
36,192,106491,128,0,106662:0:0:0:0:
256,192,106577,1,0,0:0:0:0:
402,192,106662,1,0,0:0:0:0:
109,192,106662,1,0,0:0:0:0:
475,192,106834,128,0,107005:0:0:0:0:
36,192,106834,1,0,0:0:0:0:
109,192,106920,1,0,0:0:0:0:
329,192,107005,128,0,107177:0:0:0:0:
182,192,107005,1,0,0:0:0:0:
402,192,107005,1,0,0:0:0:0:
182,192,107177,128,0,107348:0:0:0:0:
475,192,107177,1,0,0:0:0:0:
329,192,107262,1,0,0:0:0:0:
475,192,107348,128,0,107434:0:0:0:0:
256,192,107348,1,0,0:0:0:0:
36,192,107348,1,0,0:0:0:0:
329,192,107434,128,0,107520:0:0:0:0:
475,192,107520,128,0,107605:0:0:0:0:
182,192,107520,1,0,0:0:0:0:
329,192,107605,128,0,107691:0:0:0:0:
402,192,107691,128,0,107777:0:0:0:0:
36,192,107691,1,0,0:0:0:0:
182,192,107691,1,0,0:0:0:0:
256,192,107777,128,0,107862:0:0:0:0:
402,192,107862,128,0,107948:0:0:0:0:
109,192,107862,1,0,0:0:0:0:
256,192,107948,128,0,108034:0:0:0:0:
329,192,108034,128,0,108120:0:0:0:0:
475,192,108034,1,0,0:0:0:0:
36,192,108034,1,0,0:0:0:0:
182,192,108120,128,0,108205:0:0:0:0:
329,192,108205,128,0,108291:0:0:0:0:
36,192,108205,1,0,0:0:0:0:
182,192,108291,128,0,108377:0:0:0:0:
256,192,108377,128,0,108462:0:0:0:0:
402,192,108377,1,0,0:0:0:0:
475,192,108462,1,0,0:0:0:0:
109,192,108462,128,0,108548:0:0:0:0:
256,192,108548,128,0,108634:0:0:0:0:
402,192,108548,1,0,0:0:0:0:
109,192,108634,128,0,108720:0:0:0:0:
329,192,108720,128,0,108805:0:0:0:0:
475,192,108720,1,0,0:0:0:0:
36,192,108720,1,0,0:0:0:0:
182,192,108805,128,0,108891:0:0:0:0:
402,192,108891,128,0,108977:0:0:0:0:
36,192,108891,1,0,0:0:0:0:
256,192,108977,128,0,109062:0:0:0:0:
475,192,109062,128,0,109405:0:0:0:0:
182,192,109062,1,0,0:0:0:0:
36,192,109062,1,0,0:0:0:0:
36,192,109234,128,0,109405:0:0:0:0:
402,192,109234,1,0,0:0:0:0:
329,192,109320,1,0,0:0:0:0:
182,192,109405,128,0,109491:0:0:0:0:
402,192,109405,1,0,0:0:0:0:
109,192,109405,1,0,0:0:0:0:
329,192,109491,128,0,109577:0:0:0:0:
256,192,109577,128,0,109662:0:0:0:0:
36,192,109577,1,0,0:0:0:0:
475,192,109577,1,0,0:0:0:0:
402,192,109662,128,0,109748:0:0:0:0:
329,192,109748,128,0,109834:0:0:0:0:
36,192,109748,1,0,0:0:0:0:
182,192,109748,1,0,0:0:0:0:
475,192,109834,128,0,109920:0:0:0:0:
329,192,109920,128,0,110005:0:0:0:0:
182,192,109920,1,0,0:0:0:0:
36,192,109920,1,0,0:0:0:0:
402,192,110005,128,0,110091:0:0:0:0:
256,192,110091,128,0,110177:0:0:0:0:
475,192,110091,1,0,0:0:0:0:
36,192,110091,1,0,0:0:0:0:
329,192,110177,128,0,110262:0:0:0:0:
182,192,110262,128,0,110348:0:0:0:0:
475,192,110262,1,0,0:0:0:0:
36,192,110262,1,0,0:0:0:0:
256,192,110348,128,0,110434:0:0:0:0:
109,192,110434,128,0,110520:0:0:0:0:
475,192,110434,1,0,0:0:0:0:
36,192,110434,1,0,0:0:0:0:
182,192,110520,128,0,110605:0:0:0:0:
36,192,110605,128,0,110691:0:0:0:0:
475,192,110605,1,0,0:0:0:0:
329,192,110605,1,0,0:0:0:0:
109,192,110691,128,0,110777:0:0:0:0:
475,192,110777,128,0,112148:0:0:0:0:
329,192,110777,1,0,0:0:0:0:
256,192,110777,128,0,110862:0:0:0:0:
109,192,110862,128,0,110948:0:0:0:0:
182,192,110948,128,0,111034:0:0:0:0:
36,192,111034,128,0,111120:0:0:0:0:
182,192,111120,1,0,0:0:0:0:
256,192,111205,1,0,0:0:0:0:
329,192,111291,1,0,0:0:0:0:
402,192,111377,1,0,0:0:0:0:
36,192,111462,128,0,112148:0:0:0:0:
182,192,111462,1,0,0:0:0:0:
329,192,111548,1,0,0:0:0:0:
182,192,111634,1,0,0:0:0:0:
329,192,111720,1,0,0:0:0:0:
182,192,111805,128,0,112148:0:0:0:0:
256,192,111805,1,0,0:0:0:0:
402,192,111891,1,0,0:0:0:0:
256,192,111977,1,0,0:0:0:0:
402,192,112062,1,0,0:0:0:0:
329,192,112148,1,0,0:0:0:0:
256,192,112148,1,0,0:0:0:0:
109,192,112148,1,0,0:0:0:0:
109,192,112491,128,0,112662:0:0:0:0:
475,192,112491,1,0,0:0:0:0:
402,192,112662,128,0,113177:0:0:0:0:
36,192,112662,1,0,0:0:0:0:
475,192,112662,1,0,0:0:0:0:
256,192,112662,1,0,0:0:0:0:
36,192,113005,1,0,0:0:0:0:
475,192,113005,1,0,0:0:0:0:
256,192,113005,1,0,0:0:0:0:
256,192,113177,128,0,113348:0:0:0:0:
36,192,113348,128,0,114034:0:0:0:0:
329,192,113348,1,0,0:0:0:0:
475,192,113348,1,0,0:0:0:0:
109,192,113348,1,0,0:0:0:0:
182,192,113691,1,0,0:0:0:0:
402,192,113691,1,0,0:0:0:0:
475,192,114034,128,0,114891:0:0:0:0:
329,192,114034,1,0,0:0:0:0:
182,192,114034,1,0,0:0:0:0:
36,192,114205,1,0,0:0:0:0:
182,192,114205,1,0,0:0:0:0:
329,192,114377,128,0,114891:0:0:0:0:
109,192,114377,1,0,0:0:0:0:
182,192,114548,128,0,114891:0:0:0:0:
36,192,114548,1,0,0:0:0:0:
402,192,114548,1,0,0:0:0:0:
36,192,114720,128,0,114891:0:0:0:0:
256,192,114720,1,0,0:0:0:0:
109,192,114891,128,0,115234:0:0:0:0:
402,192,114891,1,0,0:0:0:0:
329,192,115234,1,0,0:0:0:0:
36,192,115405,128,0,115748:0:0:0:0:
182,192,115405,1,0,0:0:0:0:
329,192,115405,1,0,0:0:0:0:
475,192,115405,1,0,0:0:0:0:
182,192,115748,128,0,115920:0:0:0:0:
475,192,115748,1,0,0:0:0:0:
402,192,115748,1,0,0:0:0:0:
256,192,115748,1,0,0:0:0:0:
329,192,115920,128,0,116262:0:0:0:0:
36,192,116091,1,0,0:0:0:0:
182,192,116091,1,0,0:0:0:0:
475,192,116091,1,0,0:0:0:0:
36,192,116434,1,0,0:0:0:0:
256,192,116434,1,0,0:0:0:0:
36,192,116605,1,0,0:0:0:0:
256,192,116605,1,0,0:0:0:0:
402,192,116777,1,0,0:0:0:0:
329,192,116862,1,0,0:0:0:0:
475,192,116948,128,0,117291:0:0:0:0:
256,192,116948,1,0,0:0:0:0:
36,192,116948,1,0,0:0:0:0:
109,192,117034,1,0,0:0:0:0:
329,192,117034,1,0,0:0:0:0:
36,192,117120,1,0,0:0:0:0:
256,192,117120,1,0,0:0:0:0:
402,192,117205,1,0,0:0:0:0:
182,192,117205,1,0,0:0:0:0:
256,192,117291,128,0,117634:0:0:0:0:
329,192,117291,1,0,0:0:0:0:
109,192,117291,1,0,0:0:0:0:
36,192,117377,1,0,0:0:0:0:
475,192,117377,1,0,0:0:0:0:
182,192,117462,1,0,0:0:0:0:
402,192,117462,1,0,0:0:0:0:
109,192,117548,1,0,0:0:0:0:
329,192,117548,1,0,0:0:0:0:
36,192,117634,1,0,0:0:0:0:
475,192,117634,1,0,0:0:0:0:
402,192,117634,128,0,118491:0:0:0:0:
36,192,117977,1,0,0:0:0:0:
36,192,118148,128,0,118491:0:0:0:0:
182,192,118148,1,0,0:0:0:0:
256,192,118148,1,0,0:0:0:0:
475,192,118148,1,0,0:0:0:0:
182,192,118491,128,0,118662:0:0:0:0:
329,192,118491,1,0,0:0:0:0:
475,192,118491,1,0,0:0:0:0:
109,192,118491,1,0,0:0:0:0:
329,192,118662,128,0,118834:0:0:0:0:
475,192,118834,128,0,119691:0:0:0:0:
36,192,118834,1,0,0:0:0:0:
182,192,118834,1,0,0:0:0:0:
256,192,118834,1,0,0:0:0:0:
36,192,119177,128,0,119348:0:0:0:0:
182,192,119177,1,0,0:0:0:0:
329,192,119348,128,0,120205:0:0:0:0:
109,192,119348,1,0,0:0:0:0:
402,192,119348,1,0,0:0:0:0:
182,192,119520,128,0,119862:0:0:0:0:
256,192,119520,1,0,0:0:0:0:
36,192,119691,1,0,0:0:0:0:
109,192,119691,1,0,0:0:0:0:
36,192,119862,128,0,120205:0:0:0:0:
256,192,119862,1,0,0:0:0:0:
182,192,120034,128,0,120377:0:0:0:0:
402,192,120034,1,0,0:0:0:0:
475,192,120034,1,0,0:0:0:0:
475,192,120205,128,0,120377:0:0:0:0:
109,192,120205,1,0,0:0:0:0:
36,192,120377,1,0,0:0:0:0:
329,192,120377,1,0,0:0:0:0:
109,192,120548,1,0,0:0:0:0:
182,192,120634,1,0,0:0:0:0:
256,192,120720,1,0,0:0:0:0:
36,192,120891,128,0,121234:0:0:0:0:
475,192,120891,1,0,0:0:0:0:
109,192,120891,1,0,0:0:0:0:
402,192,120891,1,0,0:0:0:0:
475,192,121234,128,0,121577:0:0:0:0:
109,192,121234,1,0,0:0:0:0:
256,192,121234,1,0,0:0:0:0:
402,192,121234,1,0,0:0:0:0:
329,192,121405,128,0,121748:0:0:0:0:
182,192,121577,128,0,121748:0:0:0:0:
36,192,121577,1,0,0:0:0:0:
109,192,121577,1,0,0:0:0:0:
402,192,121577,1,0,0:0:0:0:
36,192,121748,128,0,122434:0:0:0:0:
109,192,121834,1,0,0:0:0:0:
402,192,121834,1,0,0:0:0:0:
475,192,121920,1,0,0:0:0:0:
182,192,121920,1,0,0:0:0:0:
109,192,122091,1,0,0:0:0:0:
475,192,122091,1,0,0:0:0:0:
329,192,122091,1,0,0:0:0:0:
182,192,122262,1,0,0:0:0:0:
256,192,122348,1,0,0:0:0:0:
475,192,122434,128,0,123120:0:0:0:0:
329,192,122434,1,0,0:0:0:0:
109,192,122434,1,0,0:0:0:0:
182,192,122520,1,0,0:0:0:0:
402,192,122520,1,0,0:0:0:0:
256,192,122605,1,0,0:0:0:0:
36,192,122605,1,0,0:0:0:0:
109,192,122691,1,0,0:0:0:0:
329,192,122691,1,0,0:0:0:0:
36,192,122777,128,0,123120:0:0:0:0:
182,192,122777,1,0,0:0:0:0:
402,192,122777,1,0,0:0:0:0:
256,192,122862,1,0,0:0:0:0:
329,192,122862,1,0,0:0:0:0:
109,192,122948,1,0,0:0:0:0:
402,192,122948,1,0,0:0:0:0:
182,192,123034,1,0,0:0:0:0:
256,192,123034,1,0,0:0:0:0:
109,192,123120,1,0,0:0:0:0:
329,192,123120,1,0,0:0:0:0:
402,192,123120,1,0,0:0:0:0:
109,192,123291,1,0,0:0:0:0:
36,192,123462,1,0,0:0:0:0:
475,192,123462,1,0,0:0:0:0:
329,192,123462,1,0,0:0:0:0:
182,192,123634,128,0,124148:0:0:0:0:
475,192,123634,1,0,0:0:0:0:
402,192,123720,1,0,0:0:0:0:
329,192,123805,1,0,0:0:0:0:
36,192,123977,1,0,0:0:0:0:
475,192,123977,1,0,0:0:0:0:
256,192,123977,1,0,0:0:0:0:
329,192,124148,128,0,124320:0:0:0:0:
256,192,124148,1,0,0:0:0:0:
475,192,124320,128,0,125005:0:0:0:0:
36,192,124320,1,0,0:0:0:0:
182,192,124320,1,0,0:0:0:0:
329,192,124491,1,0,0:0:0:0:
36,192,124662,1,0,0:0:0:0:
109,192,124748,1,0,0:0:0:0:
182,192,124834,1,0,0:0:0:0:
329,192,124834,1,0,0:0:0:0:
109,192,125005,128,0,125520:0:0:0:0:
256,192,125005,1,0,0:0:0:0:
329,192,125091,1,0,0:0:0:0:
402,192,125177,1,0,0:0:0:0:
36,192,125177,1,0,0:0:0:0:
182,192,125262,1,0,0:0:0:0:
402,192,125348,128,0,125691:0:0:0:0:
256,192,125348,1,0,0:0:0:0:
36,192,125348,1,0,0:0:0:0:
475,192,125348,1,0,0:0:0:0:
256,192,125520,128,0,125862:0:0:0:0:
36,192,125520,1,0,0:0:0:0:
182,192,125605,1,0,0:0:0:0:
109,192,125691,128,0,125862:0:0:0:0:
475,192,125691,1,0,0:0:0:0:
402,192,125777,1,0,0:0:0:0:
329,192,125862,1,0,0:0:0:0:
36,192,125862,1,0,0:0:0:0:
475,192,125862,1,0,0:0:0:0:
329,192,126034,1,0,0:0:0:0:
109,192,126205,1,0,0:0:0:0:
256,192,126205,1,0,0:0:0:0:
475,192,126205,1,0,0:0:0:0:
475,192,126377,128,0,126720:0:0:0:0:
36,192,126377,1,0,0:0:0:0:
109,192,126462,1,0,0:0:0:0:
182,192,126548,1,0,0:0:0:0:
256,192,126634,1,0,0:0:0:0:
329,192,126720,128,0,127062:0:0:0:0:
36,192,126720,1,0,0:0:0:0:
182,192,126720,1,0,0:0:0:0:
402,192,126720,1,0,0:0:0:0:
182,192,126891,128,0,127062:0:0:0:0:
475,192,126891,1,0,0:0:0:0:
36,192,127062,128,0,127405:0:0:0:0:
109,192,127062,1,0,0:0:0:0:
402,192,127062,1,0,0:0:0:0:
475,192,127234,128,0,127405:0:0:0:0:
182,192,127234,1,0,0:0:0:0:
329,192,127405,128,0,127577:0:0:0:0:
256,192,127405,1,0,0:0:0:0:
182,192,127491,1,0,0:0:0:0:
109,192,127577,1,0,0:0:0:0:
475,192,127577,1,0,0:0:0:0:
36,192,127748,1,0,0:0:0:0:
256,192,127748,1,0,0:0:0:0:
402,192,127748,1,0,0:0:0:0:
475,192,127920,128,0,128262:0:0:0:0:
36,192,127920,1,0,0:0:0:0:
109,192,128005,1,0,0:0:0:0:
329,192,128091,128,0,128262:0:0:0:0:
182,192,128091,1,0,0:0:0:0:
36,192,128262,128,0,128605:0:0:0:0:
109,192,128262,1,0,0:0:0:0:
256,192,128262,1,0,0:0:0:0:
402,192,128262,1,0,0:0:0:0:
182,192,128434,128,0,128605:0:0:0:0:
402,192,128434,1,0,0:0:0:0:
475,192,128605,1,0,0:0:0:0:
329,192,128605,1,0,0:0:0:0:
109,192,128605,128,0,128777:0:0:0:0:
256,192,128777,128,0,128948:0:0:0:0:
329,192,128777,1,0,0:0:0:0:
402,192,128948,128,0,129120:0:0:0:0:
36,192,128948,1,0,0:0:0:0:
182,192,128948,1,0,0:0:0:0:
475,192,128948,1,0,0:0:0:0:
36,192,129120,128,0,129291:0:0:0:0:
256,192,129120,1,0,0:0:0:0:
329,192,129205,1,0,0:0:0:0:
182,192,129291,128,0,129462:0:0:0:0:
402,192,129291,1,0,0:0:0:0:
36,192,129377,1,0,0:0:0:0:
329,192,129462,128,0,129634:0:0:0:0:
109,192,129462,1,0,0:0:0:0:
475,192,129462,1,0,0:0:0:0:
402,192,129462,1,0,0:0:0:0:
182,192,129548,1,0,0:0:0:0:
109,192,129634,128,0,129805:0:0:0:0:
475,192,129634,1,0,0:0:0:0:
36,192,129634,1,0,0:0:0:0:
256,192,129805,128,0,129977:0:0:0:0:
36,192,129805,1,0,0:0:0:0:
475,192,129805,1,0,0:0:0:0:
329,192,129805,1,0,0:0:0:0:
475,192,129977,128,0,130148:0:0:0:0:
36,192,129977,1,0,0:0:0:0:
329,192,130148,128,0,130320:0:0:0:0:
182,192,130148,1,0,0:0:0:0:
109,192,130234,1,0,0:0:0:0:
182,192,130320,128,0,130491:0:0:0:0:
36,192,130320,1,0,0:0:0:0:
475,192,130320,1,0,0:0:0:0:
402,192,130320,1,0,0:0:0:0:
402,192,130491,128,0,130662:0:0:0:0:
36,192,130491,1,0,0:0:0:0:
109,192,130491,1,0,0:0:0:0:
256,192,130662,128,0,130834:0:0:0:0:
475,192,130662,1,0,0:0:0:0:
329,192,130748,1,0,0:0:0:0:
109,192,130834,128,0,131005:0:0:0:0:
475,192,130834,1,0,0:0:0:0:
182,192,130834,1,0,0:0:0:0:
36,192,130834,1,0,0:0:0:0:
402,192,130920,1,0,0:0:0:0:
329,192,131005,128,0,131177:0:0:0:0:
36,192,131005,1,0,0:0:0:0:
256,192,131005,1,0,0:0:0:0:
182,192,131177,128,0,131348:0:0:0:0:
475,192,131177,1,0,0:0:0:0:
402,192,131262,1,0,0:0:0:0:
475,192,131348,1,0,0:0:0:0:
36,192,131348,1,0,0:0:0:0:
256,192,131348,1,0,0:0:0:0:
109,192,131348,128,0,131862:0:0:0:0:
402,192,131520,128,0,131862:0:0:0:0:
329,192,131520,1,0,0:0:0:0:
36,192,131691,128,0,132720:0:0:0:0:
182,192,131691,1,0,0:0:0:0:
475,192,131691,1,0,0:0:0:0:
182,192,131862,128,0,132205:0:0:0:0:
256,192,131862,1,0,0:0:0:0:
329,192,131862,1,0,0:0:0:0:
329,192,132034,128,0,132205:0:0:0:0:
475,192,132034,1,0,0:0:0:0:
402,192,132120,1,0,0:0:0:0:
475,192,132205,128,0,132720:0:0:0:0:
109,192,132205,1,0,0:0:0:0:
256,192,132205,1,0,0:0:0:0:
329,192,132377,128,0,132720:0:0:0:0:
182,192,132377,1,0,0:0:0:0:
182,192,132548,128,0,132720:0:0:0:0:
402,192,132548,1,0,0:0:0:0:
109,192,132548,1,0,0:0:0:0:
256,192,132720,128,0,133234:0:0:0:0:
109,192,132720,1,0,0:0:0:0:
402,192,132720,1,0,0:0:0:0:
182,192,132891,128,0,133234:0:0:0:0:
402,192,132891,1,0,0:0:0:0:
109,192,132891,1,0,0:0:0:0:
329,192,133062,128,0,133577:0:0:0:0:
36,192,133062,1,0,0:0:0:0:
402,192,133234,128,0,133748:0:0:0:0:
36,192,133234,1,0,0:0:0:0:
475,192,133234,1,0,0:0:0:0:
256,192,133405,128,0,134091:0:0:0:0:
182,192,133405,128,0,133920:0:0:0:0:
109,192,133405,1,0,0:0:0:0:
36,192,133577,128,0,134091:0:0:0:0:
109,192,133577,1,0,0:0:0:0:
475,192,133748,128,0,134091:0:0:0:0:
329,192,133748,1,0,0:0:0:0:
329,192,133920,128,0,134091:0:0:0:0:
402,192,133920,1,0,0:0:0:0:
109,192,134091,1,0,0:0:0:0:
402,192,134091,1,0,0:0:0:0:
182,192,134091,128,0,134262:0:0:0:0:
256,192,134177,1,0,0:0:0:0:
329,192,134262,128,0,134434:0:0:0:0:
402,192,134262,1,0,0:0:0:0:
109,192,134348,1,0,0:0:0:0:
256,192,134434,1,0,0:0:0:0:
475,192,134434,128,0,134605:0:0:0:0:
36,192,134434,1,0,0:0:0:0:
402,192,134520,1,0,0:0:0:0:
109,192,134605,128,0,134777:0:0:0:0:
182,192,134605,1,0,0:0:0:0:
329,192,134691,1,0,0:0:0:0:
256,192,134777,128,0,134948:0:0:0:0:
36,192,134777,1,0,0:0:0:0:
475,192,134777,1,0,0:0:0:0:
182,192,134862,1,0,0:0:0:0:
402,192,134948,128,0,135120:0:0:0:0:
36,192,134948,1,0,0:0:0:0:
329,192,135034,1,0,0:0:0:0:
36,192,135120,128,0,135291:0:0:0:0:
182,192,135120,1,0,0:0:0:0:
475,192,135120,1,0,0:0:0:0:
329,192,135205,1,0,0:0:0:0:
182,192,135291,128,0,135462:0:0:0:0:
475,192,135291,1,0,0:0:0:0:
256,192,135377,1,0,0:0:0:0:
329,192,135462,128,0,135634:0:0:0:0:
36,192,135462,1,0,0:0:0:0:
402,192,135462,1,0,0:0:0:0:
182,192,135548,1,0,0:0:0:0:
109,192,135634,128,0,135805:0:0:0:0:
475,192,135634,1,0,0:0:0:0:
329,192,135720,1,0,0:0:0:0:
256,192,135805,128,0,135977:0:0:0:0:
475,192,135805,1,0,0:0:0:0:
36,192,135805,1,0,0:0:0:0:
182,192,135891,1,0,0:0:0:0:
402,192,135977,128,0,136148:0:0:0:0:
329,192,135977,1,0,0:0:0:0:
182,192,136062,1,0,0:0:0:0:
36,192,136148,128,0,136320:0:0:0:0:
109,192,136148,1,0,0:0:0:0:
475,192,136148,1,0,0:0:0:0:
329,192,136234,1,0,0:0:0:0:
256,192,136320,128,0,136491:0:0:0:0:
402,192,136320,1,0,0:0:0:0:
182,192,136405,1,0,0:0:0:0:
475,192,136491,128,0,136662:0:0:0:0:
36,192,136491,1,0,0:0:0:0:
402,192,136491,1,0,0:0:0:0:
329,192,136577,1,0,0:0:0:0:
182,192,136662,128,0,136834:0:0:0:0:
109,192,136662,1,0,0:0:0:0:
256,192,136748,1,0,0:0:0:0:
36,192,136834,1,0,0:0:0:0:
402,192,136834,1,0,0:0:0:0:
329,192,136834,128,0,137005:0:0:0:0:
475,192,136920,1,0,0:0:0:0:
182,192,137005,128,0,137177:0:0:0:0:
256,192,137005,1,0,0:0:0:0:
36,192,137091,1,0,0:0:0:0:
402,192,137177,128,0,137348:0:0:0:0:
475,192,137177,1,0,0:0:0:0:
109,192,137177,1,0,0:0:0:0:
36,192,137262,1,0,0:0:0:0:
329,192,137348,128,0,137520:0:0:0:0:
256,192,137348,1,0,0:0:0:0:
182,192,137434,1,0,0:0:0:0:
475,192,137520,128,0,137691:0:0:0:0:
36,192,137520,1,0,0:0:0:0:
256,192,137520,1,0,0:0:0:0:
109,192,137605,1,0,0:0:0:0:
402,192,137691,128,0,137862:0:0:0:0:
256,192,137691,1,0,0:0:0:0:
182,192,137777,1,0,0:0:0:0:
256,192,137862,128,0,138034:0:0:0:0:
109,192,137862,1,0,0:0:0:0:
36,192,137862,1,0,0:0:0:0:
475,192,137948,1,0,0:0:0:0:
109,192,138034,128,0,138205:0:0:0:0:
402,192,138034,1,0,0:0:0:0:
256,192,138120,1,0,0:0:0:0:
36,192,138205,1,0,0:0:0:0:
182,192,138205,1,0,0:0:0:0:
402,192,138205,128,0,138377:0:0:0:0:
475,192,138291,1,0,0:0:0:0:
256,192,138377,128,0,138548:0:0:0:0:
109,192,138377,1,0,0:0:0:0:
402,192,138462,1,0,0:0:0:0:
109,192,138548,128,0,138720:0:0:0:0:
475,192,138548,1,0,0:0:0:0:
36,192,138548,1,0,0:0:0:0:
256,192,138634,1,0,0:0:0:0:
182,192,138720,128,0,138891:0:0:0:0:
402,192,138720,1,0,0:0:0:0:
256,192,138805,1,0,0:0:0:0:
329,192,138891,128,0,139234:0:0:0:0:
36,192,138891,1,0,0:0:0:0:
109,192,138977,1,0,0:0:0:0:
182,192,139062,1,0,0:0:0:0:
475,192,139062,128,0,139405:0:0:0:0:
256,192,139234,128,0,139577:0:0:0:0:
36,192,139234,1,0,0:0:0:0:
109,192,139234,1,0,0:0:0:0:
402,192,139405,128,0,139577:0:0:0:0:
109,192,139405,1,0,0:0:0:0:
36,192,139405,1,0,0:0:0:0:
36,192,139577,1,0,0:0:0:0:
182,192,139577,128,0,139748:0:0:0:0:
475,192,139577,1,0,0:0:0:0:
109,192,139662,1,0,0:0:0:0:
329,192,139748,128,0,139920:0:0:0:0:
402,192,139748,1,0,0:0:0:0:
109,192,139834,1,0,0:0:0:0:
475,192,139920,128,0,140091:0:0:0:0:
36,192,139920,1,0,0:0:0:0:
256,192,139920,1,0,0:0:0:0:
329,192,140005,1,0,0:0:0:0:
182,192,140091,128,0,140262:0:0:0:0:
109,192,140091,1,0,0:0:0:0:
402,192,140177,1,0,0:0:0:0:
329,192,140262,128,0,140434:0:0:0:0:
256,192,140262,1,0,0:0:0:0:
475,192,140262,1,0,0:0:0:0:
36,192,140348,128,0,140605:0:0:0:0:
182,192,140348,1,0,0:0:0:0:
475,192,140434,128,0,140605:0:0:0:0:
402,192,140434,1,0,0:0:0:0:
329,192,140520,1,0,0:0:0:0:
109,192,140605,128,0,140777:0:0:0:0:
256,192,140605,1,0,0:0:0:0:
402,192,140605,1,0,0:0:0:0:
475,192,140691,1,0,0:0:0:0:
256,192,140777,128,0,140948:0:0:0:0:
402,192,140777,1,0,0:0:0:0:
36,192,140862,1,0,0:0:0:0:
475,192,140948,128,0,141120:0:0:0:0:
109,192,140948,1,0,0:0:0:0:
329,192,140948,1,0,0:0:0:0:
256,192,141034,1,0,0:0:0:0:
36,192,141120,128,0,141291:0:0:0:0:
182,192,141120,1,0,0:0:0:0:
475,192,141205,1,0,0:0:0:0:
109,192,141291,128,0,141462:0:0:0:0:
256,192,141291,1,0,0:0:0:0:
402,192,141291,1,0,0:0:0:0:
182,192,141377,1,0,0:0:0:0:
402,192,141462,128,0,141634:0:0:0:0:
329,192,141462,1,0,0:0:0:0:
256,192,141548,1,0,0:0:0:0:
36,192,141634,128,0,141805:0:0:0:0:
182,192,141634,1,0,0:0:0:0:
475,192,141634,1,0,0:0:0:0:
329,192,141720,1,0,0:0:0:0:
182,192,141805,128,0,141977:0:0:0:0:
402,192,141805,1,0,0:0:0:0:
475,192,141891,1,0,0:0:0:0:
36,192,141977,128,0,142320:0:0:0:0:
256,192,141977,1,0,0:0:0:0:
402,192,141977,1,0,0:0:0:0:
109,192,142062,1,0,0:0:0:0:
475,192,142148,128,0,142320:0:0:0:0:
182,192,142148,1,0,0:0:0:0:
329,192,142234,1,0,0:0:0:0:
402,192,142320,1,0,0:0:0:0:
109,192,142320,1,0,0:0:0:0:
182,192,142320,128,0,142405:0:0:0:0:
329,192,142405,128,0,142491:0:0:0:0:
109,192,142491,128,0,142577:0:0:0:0:
475,192,142491,1,0,0:0:0:0:
256,192,142577,128,0,142662:0:0:0:0:
36,192,142662,128,0,142748:0:0:0:0:
329,192,142662,1,0,0:0:0:0:
402,192,142662,1,0,0:0:0:0:
182,192,142748,128,0,142834:0:0:0:0:
329,192,142834,128,0,142920:0:0:0:0:
256,192,142834,1,0,0:0:0:0:
475,192,142920,128,0,143005:0:0:0:0:
36,192,143005,128,0,143091:0:0:0:0:
109,192,143005,1,0,0:0:0:0:
402,192,143005,1,0,0:0:0:0:
256,192,143091,128,0,143177:0:0:0:0:
109,192,143177,128,0,143262:0:0:0:0:
475,192,143177,1,0,0:0:0:0:
329,192,143262,128,0,143348:0:0:0:0:
182,192,143348,128,0,143434:0:0:0:0:
36,192,143348,1,0,0:0:0:0:
256,192,143348,1,0,0:0:0:0:
402,192,143434,128,0,143520:0:0:0:0:
256,192,143520,128,0,143605:0:0:0:0:
109,192,143520,1,0,0:0:0:0:
475,192,143605,128,0,143691:0:0:0:0:
36,192,143691,128,0,143862:0:0:0:0:
182,192,143691,1,0,0:0:0:0:
329,192,143691,1,0,0:0:0:0:
402,192,143777,128,0,143862:0:0:0:0:
109,192,143862,128,0,144034:0:0:0:0:
256,192,143862,1,0,0:0:0:0:
475,192,143948,128,0,144034:0:0:0:0:
329,192,144034,1,0,0:0:0:0:
36,192,144034,1,0,0:0:0:0:
182,192,144034,128,0,144205:0:0:0:0:
402,192,144120,128,0,144291:0:0:0:0:
109,192,144205,128,0,144377:0:0:0:0:
256,192,144205,1,0,0:0:0:0:
329,192,144291,128,0,144377:0:0:0:0:
36,192,144377,1,0,0:0:0:0:
256,192,144377,1,0,0:0:0:0:
475,192,144377,1,0,0:0:0:0:
329,192,144634,1,0,0:0:0:0:
36,192,144634,1,0,0:0:0:0:
475,192,144634,1,0,0:0:0:0:
182,192,144634,1,0,0:0:0:0:
36,192,144891,1,0,0:0:0:0:
182,192,144891,1,0,0:0:0:0:
329,192,144891,1,0,0:0:0:0:
475,192,144891,1,0,0:0:0:0:
182,192,145062,128,0,145234:0:0:0:0:
329,192,145234,128,0,145405:0:0:0:0:
36,192,145405,1,0,0:0:0:0:
182,192,145405,1,0,0:0:0:0:
475,192,145405,1,0,0:0:0:0:
402,192,145405,128,0,145577:0:0:0:0:
256,192,145491,128,0,145577:0:0:0:0:
36,192,145577,1,0,0:0:0:0:
109,192,145577,128,0,145748:0:0:0:0:
402,192,145662,128,0,145748:0:0:0:0:
256,192,145748,128,0,145920:0:0:0:0:
475,192,145748,1,0,0:0:0:0:
182,192,145748,1,0,0:0:0:0:
36,192,145834,128,0,145920:0:0:0:0:
402,192,145920,128,0,146091:0:0:0:0:
109,192,145920,1,0,0:0:0:0:
182,192,146005,128,0,146091:0:0:0:0:
36,192,146091,128,0,146262:0:0:0:0:
256,192,146091,1,0,0:0:0:0:
475,192,146091,1,0,0:0:0:0:
329,192,146177,128,0,146262:0:0:0:0:
182,192,146262,128,0,146434:0:0:0:0:
402,192,146262,1,0,0:0:0:0:
475,192,146348,128,0,146434:0:0:0:0:
329,192,146434,128,0,146605:0:0:0:0:
109,192,146434,1,0,0:0:0:0:
256,192,146434,1,0,0:0:0:0:
36,192,146520,128,0,146605:0:0:0:0:
182,192,146605,128,0,146777:0:0:0:0:
402,192,146605,1,0,0:0:0:0:
475,192,146691,128,0,146777:0:0:0:0:
329,192,146777,128,0,146948:0:0:0:0:
256,192,146777,1,0,0:0:0:0:
36,192,146777,1,0,0:0:0:0:
109,192,146862,128,0,146948:0:0:0:0:
475,192,146948,128,0,147120:0:0:0:0:
256,192,146948,1,0,0:0:0:0:
182,192,147034,128,0,147120:0:0:0:0:
402,192,147120,1,0,0:0:0:0:
109,192,147120,1,0,0:0:0:0:
36,192,147120,128,0,147805:0:0:0:0:
329,192,147205,128,0,147291:0:0:0:0:
182,192,147291,128,0,147805:0:0:0:0:
475,192,147291,1,0,0:0:0:0:
329,192,147377,128,0,147462:0:0:0:0:
475,192,147462,128,0,147805:0:0:0:0:
256,192,147462,1,0,0:0:0:0:
329,192,147634,128,0,147805:0:0:0:0:
109,192,147805,1,0,0:0:0:0:
402,192,147805,1,0,0:0:0:0:
256,192,147805,128,0,147891:0:0:0:0:
475,192,147891,128,0,147977:0:0:0:0:
182,192,147977,128,0,148062:0:0:0:0:
329,192,147977,1,0,0:0:0:0:
402,192,148062,128,0,148148:0:0:0:0:
109,192,148148,128,0,148234:0:0:0:0:
475,192,148148,1,0,0:0:0:0:
36,192,148148,1,0,0:0:0:0:
329,192,148234,128,0,148320:0:0:0:0:
36,192,148320,128,0,148405:0:0:0:0:
182,192,148320,1,0,0:0:0:0:
256,192,148405,128,0,148491:0:0:0:0:
402,192,148491,128,0,148834:0:0:0:0:
36,192,148491,1,0,0:0:0:0:
475,192,148491,1,0,0:0:0:0:
329,192,148577,128,0,148834:0:0:0:0:
182,192,148662,128,0,148834:0:0:0:0:
475,192,148662,1,0,0:0:0:0:
109,192,148748,128,0,148834:0:0:0:0:
256,192,148834,128,0,149177:0:0:0:0:
36,192,148834,1,0,0:0:0:0:
329,192,148920,128,0,149177:0:0:0:0:
402,192,149005,128,0,149177:0:0:0:0:
109,192,149005,1,0,0:0:0:0:
475,192,149091,128,0,149177:0:0:0:0:
182,192,149177,128,0,149348:0:0:0:0:
36,192,149177,1,0,0:0:0:0:
329,192,149262,128,0,149434:0:0:0:0:
109,192,149348,128,0,149520:0:0:0:0:
475,192,149348,1,0,0:0:0:0:
256,192,149434,128,0,149605:0:0:0:0:
36,192,149520,128,0,150034:0:0:0:0:
402,192,149520,1,0,0:0:0:0:
182,192,149605,128,0,149777:0:0:0:0:
329,192,149691,128,0,149862:0:0:0:0:
402,192,149691,1,0,0:0:0:0:
109,192,149777,128,0,150205:0:0:0:0:
256,192,149862,128,0,150034:0:0:0:0:
475,192,149862,1,0,0:0:0:0:
402,192,149948,128,0,150120:0:0:0:0:
182,192,150034,128,0,150377:0:0:0:0:
475,192,150034,1,0,0:0:0:0:
329,192,150120,128,0,150291:0:0:0:0:
475,192,150205,128,0,150377:0:0:0:0:
36,192,150205,1,0,0:0:0:0:
256,192,150291,128,0,150548:0:0:0:0:
402,192,150377,128,0,150548:0:0:0:0:
36,192,150377,1,0,0:0:0:0:
36,192,150548,1,0,0:0:0:0:
109,192,150548,1,0,0:0:0:0:
182,192,150548,128,0,150720:0:0:0:0:
329,192,150720,128,0,150891:0:0:0:0:
402,192,150720,1,0,0:0:0:0:
475,192,150720,1,0,0:0:0:0:
475,192,150891,128,0,151062:0:0:0:0:
182,192,150891,1,0,0:0:0:0:
109,192,150891,1,0,0:0:0:0:
182,192,151062,128,0,151234:0:0:0:0:
329,192,151062,1,0,0:0:0:0:
402,192,151062,1,0,0:0:0:0:
329,192,151234,128,0,151405:0:0:0:0:
36,192,151234,1,0,0:0:0:0:
109,192,151234,1,0,0:0:0:0:
475,192,151405,128,0,151577:0:0:0:0:
256,192,151405,1,0,0:0:0:0:
402,192,151405,1,0,0:0:0:0:
182,192,151577,128,0,151748:0:0:0:0:
36,192,151577,1,0,0:0:0:0:
109,192,151577,1,0,0:0:0:0:
329,192,151748,128,0,151920:0:0:0:0:
475,192,151748,1,0,0:0:0:0:
36,192,151748,1,0,0:0:0:0:
36,192,151834,1,0,0:0:0:0:
475,192,151920,1,0,0:0:0:0:
36,192,151920,1,0,0:0:0:0:
182,192,151920,128,0,152434:0:0:0:0:
402,192,152091,128,0,152262:0:0:0:0:
36,192,152091,1,0,0:0:0:0:
109,192,152091,1,0,0:0:0:0:
329,192,152262,128,0,152434:0:0:0:0:
36,192,152262,1,0,0:0:0:0:
256,192,152262,1,0,0:0:0:0:
475,192,152434,128,0,152948:0:0:0:0:
36,192,152434,1,0,0:0:0:0:
402,192,152434,1,0,0:0:0:0:
329,192,152605,128,0,152777:0:0:0:0:
182,192,152605,1,0,0:0:0:0:
109,192,152605,1,0,0:0:0:0:
256,192,152777,128,0,152948:0:0:0:0:
36,192,152777,1,0,0:0:0:0:
109,192,152777,1,0,0:0:0:0:
329,192,152948,128,0,153291:0:0:0:0:
109,192,152948,1,0,0:0:0:0:
182,192,152948,1,0,0:0:0:0:
36,192,153120,1,0,0:0:0:0:
475,192,153120,1,0,0:0:0:0:
36,192,153205,1,0,0:0:0:0:
36,192,153291,1,0,0:0:0:0:
475,192,153291,1,0,0:0:0:0:
402,192,153291,1,0,0:0:0:0:
109,192,153377,1,0,0:0:0:0:
256,192,153377,1,0,0:0:0:0:
329,192,153462,1,0,0:0:0:0:
402,192,153462,1,0,0:0:0:0:
182,192,153548,1,0,0:0:0:0:
36,192,153548,1,0,0:0:0:0:
402,192,153634,1,0,0:0:0:0:
475,192,153634,1,0,0:0:0:0:
256,192,153720,1,0,0:0:0:0:
109,192,153720,1,0,0:0:0:0:
329,192,153805,1,0,0:0:0:0:
402,192,153805,1,0,0:0:0:0:
36,192,153891,1,0,0:0:0:0:
182,192,153891,1,0,0:0:0:0:
402,192,153977,1,0,0:0:0:0:
475,192,153977,1,0,0:0:0:0:
109,192,154062,1,0,0:0:0:0:
256,192,154062,1,0,0:0:0:0:
329,192,154148,1,0,0:0:0:0:
402,192,154148,1,0,0:0:0:0:
36,192,154234,1,0,0:0:0:0:
182,192,154234,1,0,0:0:0:0:
402,192,154320,1,0,0:0:0:0:
475,192,154320,1,0,0:0:0:0:
109,192,154405,1,0,0:0:0:0:
256,192,154405,1,0,0:0:0:0:
329,192,154491,1,0,0:0:0:0:
402,192,154491,1,0,0:0:0:0:
182,192,154577,1,0,0:0:0:0:
36,192,154577,1,0,0:0:0:0:
109,192,154662,1,0,0:0:0:0:
402,192,154662,1,0,0:0:0:0:
256,192,154662,1,0,0:0:0:0:
36,192,154834,128,0,155005:0:0:0:0:
182,192,154834,128,0,155005:0:0:0:0:
329,192,154834,128,0,155005:0:0:0:0:
475,192,154834,128,0,155005:0:0:0:0:
36,192,155177,128,0,155348:0:0:0:0:
182,192,155177,128,0,155348:0:0:0:0:
329,192,155177,128,0,155348:0:0:0:0:
475,192,155177,128,0,155348:0:0:0:0:
109,192,155348,1,0,0:0:0:0:
256,192,155348,1,0,0:0:0:0:
402,192,155348,1,0,0:0:0:0:
36,192,155605,1,0,0:0:0:0:
182,192,155605,1,0,0:0:0:0:
329,192,155605,1,0,0:0:0:0:
475,192,155605,1,0,0:0:0:0:
36,192,155862,1,0,0:0:0:0:
182,192,155862,1,0,0:0:0:0:
329,192,155862,1,0,0:0:0:0:
475,192,155862,1,0,0:0:0:0:
182,192,156034,128,0,156205:0:0:0:0:
329,192,156205,128,0,156377:0:0:0:0:
36,192,156377,1,0,0:0:0:0:
475,192,156377,1,0,0:0:0:0:
256,192,156377,1,0,0:0:0:0:
109,192,156377,128,0,156548:0:0:0:0:
329,192,156462,1,0,0:0:0:0:
402,192,156548,128,0,156720:0:0:0:0:
182,192,156548,1,0,0:0:0:0:
36,192,156634,1,0,0:0:0:0:
256,192,156720,128,0,156891:0:0:0:0:
182,192,156720,1,0,0:0:0:0:
475,192,156720,1,0,0:0:0:0:
402,192,156805,1,0,0:0:0:0:
109,192,156891,128,0,157062:0:0:0:0:
329,192,156891,1,0,0:0:0:0:
182,192,156977,1,0,0:0:0:0:
329,192,157062,128,0,157234:0:0:0:0:
36,192,157062,1,0,0:0:0:0:
475,192,157062,1,0,0:0:0:0:
109,192,157148,1,0,0:0:0:0:
475,192,157234,128,0,157577:0:0:0:0:
256,192,157234,1,0,0:0:0:0:
182,192,157320,1,0,0:0:0:0:
36,192,157405,1,0,0:0:0:0:
329,192,157405,1,0,0:0:0:0:
109,192,157491,1,0,0:0:0:0:
256,192,157577,128,0,157748:0:0:0:0:
402,192,157577,1,0,0:0:0:0:
329,192,157662,1,0,0:0:0:0:
109,192,157748,128,0,157920:0:0:0:0:
475,192,157748,1,0,0:0:0:0:
36,192,157748,1,0,0:0:0:0:
256,192,157834,1,0,0:0:0:0:
402,192,157920,128,0,158091:0:0:0:0:
329,192,157920,1,0,0:0:0:0:
109,192,158005,1,0,0:0:0:0:
182,192,158091,128,0,158434:0:0:0:0:
36,192,158091,1,0,0:0:0:0:
475,192,158091,1,0,0:0:0:0:
402,192,158177,1,0,0:0:0:0:
329,192,158262,128,0,158434:0:0:0:0:
109,192,158262,1,0,0:0:0:0:
475,192,158348,1,0,0:0:0:0:
109,192,158434,128,0,158777:0:0:0:0:
402,192,158434,1,0,0:0:0:0:
36,192,158434,1,0,0:0:0:0:
329,192,158520,1,0,0:0:0:0:
256,192,158605,128,0,158777:0:0:0:0:
475,192,158605,1,0,0:0:0:0:
402,192,158691,1,0,0:0:0:0:
36,192,158777,1,0,0:0:0:0:
329,192,158777,1,0,0:0:0:0:
475,192,158777,128,0,158948:0:0:0:0:
109,192,158862,1,0,0:0:0:0:
329,192,158948,128,0,159120:0:0:0:0:
182,192,158948,1,0,0:0:0:0:
256,192,159034,1,0,0:0:0:0:
182,192,159120,128,0,159291:0:0:0:0:
36,192,159120,1,0,0:0:0:0:
402,192,159120,1,0,0:0:0:0:
329,192,159205,1,0,0:0:0:0:
402,192,159291,128,0,159462:0:0:0:0:
109,192,159291,1,0,0:0:0:0:
182,192,159377,1,0,0:0:0:0:
36,192,159462,128,0,159634:0:0:0:0:
256,192,159462,1,0,0:0:0:0:
475,192,159462,1,0,0:0:0:0:
402,192,159548,1,0,0:0:0:0:
256,192,159634,128,0,159805:0:0:0:0:
329,192,159634,1,0,0:0:0:0:
475,192,159720,1,0,0:0:0:0:
109,192,159805,128,0,159977:0:0:0:0:
402,192,159805,1,0,0:0:0:0:
36,192,159805,1,0,0:0:0:0:
256,192,159891,1,0,0:0:0:0:
329,192,159977,128,0,160320:0:0:0:0:
182,192,159977,1,0,0:0:0:0:
109,192,160062,1,0,0:0:0:0:
36,192,160148,1,0,0:0:0:0:
475,192,160148,1,0,0:0:0:0:
109,192,160234,1,0,0:0:0:0:
182,192,160320,128,0,160491:0:0:0:0:
402,192,160320,1,0,0:0:0:0:
475,192,160405,1,0,0:0:0:0:
109,192,160491,128,0,160662:0:0:0:0:
256,192,160491,1,0,0:0:0:0:
36,192,160491,1,0,0:0:0:0:
329,192,160577,1,0,0:0:0:0:
36,192,160662,128,0,160834:0:0:0:0:
475,192,160662,1,0,0:0:0:0:
402,192,160748,1,0,0:0:0:0:
475,192,160834,128,0,161005:0:0:0:0:
329,192,160834,1,0,0:0:0:0:
182,192,160834,1,0,0:0:0:0:
109,192,160920,1,0,0:0:0:0:
329,192,161005,128,0,161177:0:0:0:0:
256,192,161005,1,0,0:0:0:0:
109,192,161091,1,0,0:0:0:0:
182,192,161177,128,0,161348:0:0:0:0:
36,192,161177,1,0,0:0:0:0:
475,192,161177,1,0,0:0:0:0:
329,192,161262,1,0,0:0:0:0:
36,192,161348,128,0,161520:0:0:0:0:
402,192,161348,1,0,0:0:0:0:
475,192,161348,1,0,0:0:0:0:
256,192,161434,1,0,0:0:0:0:
329,192,161520,1,0,0:0:0:0:
475,192,161520,1,0,0:0:0:0:
182,192,161520,128,0,161862:0:0:0:0:
402,192,161605,1,0,0:0:0:0:
256,192,161691,128,0,162034:0:0:0:0:
36,192,161691,1,0,0:0:0:0:
109,192,161777,1,0,0:0:0:0:
329,192,161862,128,0,162205:0:0:0:0:
36,192,161862,1,0,0:0:0:0:
475,192,161862,1,0,0:0:0:0:
109,192,161948,1,0,0:0:0:0:
402,192,162034,128,0,162377:0:0:0:0:
182,192,162034,1,0,0:0:0:0:
36,192,162120,1,0,0:0:0:0:
182,192,162205,128,0,162377:0:0:0:0:
256,192,162205,1,0,0:0:0:0:
475,192,162205,1,0,0:0:0:0:
109,192,162291,1,0,0:0:0:0:
256,192,162377,128,0,162548:0:0:0:0:
329,192,162377,1,0,0:0:0:0:
36,192,162377,1,0,0:0:0:0:
109,192,162462,1,0,0:0:0:0:
402,192,162548,1,0,0:0:0:0:
182,192,162548,1,0,0:0:0:0:
329,192,162548,128,0,162720:0:0:0:0:
36,192,162634,1,0,0:0:0:0:
256,192,162720,1,0,0:0:0:0:
402,192,162720,128,0,163062:0:0:0:0:
109,192,162805,1,0,0:0:0:0:
182,192,162891,1,0,0:0:0:0:
475,192,162891,1,0,0:0:0:0:
109,192,162977,1,0,0:0:0:0:
256,192,163062,128,0,163234:0:0:0:0:
329,192,163062,1,0,0:0:0:0:
402,192,163148,1,0,0:0:0:0:
182,192,163234,128,0,163405:0:0:0:0:
36,192,163234,1,0,0:0:0:0:
475,192,163234,1,0,0:0:0:0:
329,192,163320,1,0,0:0:0:0:
109,192,163405,128,0,163577:0:0:0:0:
402,192,163405,1,0,0:0:0:0:
256,192,163491,1,0,0:0:0:0:
402,192,163577,128,0,163920:0:0:0:0:
182,192,163577,1,0,0:0:0:0:
36,192,163577,1,0,0:0:0:0:
256,192,163662,1,0,0:0:0:0:
329,192,163748,128,0,164091:0:0:0:0:
109,192,163748,1,0,0:0:0:0:
256,192,163834,1,0,0:0:0:0:
109,192,163920,128,0,164262:0:0:0:0:
182,192,163920,1,0,0:0:0:0:
475,192,163920,1,0,0:0:0:0:
256,192,164005,1,0,0:0:0:0:
182,192,164091,128,0,164262:0:0:0:0:
402,192,164091,1,0,0:0:0:0:
475,192,164177,1,0,0:0:0:0:
36,192,164262,128,0,164434:0:0:0:0:
402,192,164262,1,0,0:0:0:0:
329,192,164262,1,0,0:0:0:0:
256,192,164348,1,0,0:0:0:0:
475,192,164434,128,0,164605:0:0:0:0:
109,192,164434,1,0,0:0:0:0:
182,192,164520,1,0,0:0:0:0:
329,192,164605,128,0,164777:0:0:0:0:
36,192,164605,1,0,0:0:0:0:
256,192,164605,1,0,0:0:0:0:
182,192,164691,1,0,0:0:0:0:
475,192,164777,128,0,164948:0:0:0:0:
109,192,164777,1,0,0:0:0:0:
256,192,164862,1,0,0:0:0:0:
36,192,164948,128,0,165120:0:0:0:0:
182,192,164948,1,0,0:0:0:0:
329,192,164948,1,0,0:0:0:0:
402,192,165034,1,0,0:0:0:0:
182,192,165120,128,0,165291:0:0:0:0:
475,192,165120,1,0,0:0:0:0:
402,192,165205,1,0,0:0:0:0:
329,192,165291,128,0,165462:0:0:0:0:
36,192,165291,1,0,0:0:0:0:
256,192,165291,1,0,0:0:0:0:
109,192,165377,1,0,0:0:0:0:
475,192,165462,128,0,166320:0:0:0:0:
256,192,165462,1,0,0:0:0:0:
182,192,165548,1,0,0:0:0:0:
36,192,165634,1,0,0:0:0:0:
256,192,165634,128,0,165720:0:0:0:0:
329,192,165720,128,0,165805:0:0:0:0:
402,192,165805,128,0,166320:0:0:0:0:
109,192,165805,1,0,0:0:0:0:
182,192,165891,128,0,165977:0:0:0:0:
256,192,165977,128,0,166062:0:0:0:0:
36,192,165977,1,0,0:0:0:0:
329,192,166062,128,0,166320:0:0:0:0:
109,192,166148,128,0,166234:0:0:0:0:
36,192,166148,1,0,0:0:0:0:
182,192,166234,128,0,166320:0:0:0:0:
36,192,166320,1,0,0:0:0:0:
256,192,166320,1,0,0:0:0:0:
36,192,166577,1,0,0:0:0:0:
475,192,166577,1,0,0:0:0:0:
182,192,166577,1,0,0:0:0:0:
329,192,166577,1,0,0:0:0:0:
36,192,166834,1,0,0:0:0:0:
475,192,166834,1,0,0:0:0:0:
182,192,166834,1,0,0:0:0:0:
329,192,166834,1,0,0:0:0:0:
109,192,167005,128,0,167348:0:0:0:0:
402,192,167177,128,0,167348:0:0:0:0:
36,192,167348,1,0,0:0:0:0:
256,192,167348,1,0,0:0:0:0:
475,192,167348,1,0,0:0:0:0:
329,192,167348,128,0,167520:0:0:0:0:
182,192,167434,128,0,167520:0:0:0:0:
36,192,167520,128,0,167691:0:0:0:0:
402,192,167520,1,0,0:0:0:0:
475,192,167605,128,0,167691:0:0:0:0:
182,192,167691,128,0,167862:0:0:0:0:
256,192,167691,1,0,0:0:0:0:
329,192,167691,1,0,0:0:0:0:
402,192,167777,128,0,167862:0:0:0:0:
329,192,167862,128,0,168034:0:0:0:0:
109,192,167862,1,0,0:0:0:0:
182,192,167948,128,0,168034:0:0:0:0:
109,192,168034,128,0,168205:0:0:0:0:
36,192,168034,1,0,0:0:0:0:
475,192,168034,1,0,0:0:0:0:
329,192,168120,128,0,168205:0:0:0:0:
402,192,168205,128,0,168548:0:0:0:0:
182,192,168205,1,0,0:0:0:0:
109,192,168291,128,0,168377:0:0:0:0:
256,192,168377,1,0,0:0:0:0:
329,192,168377,1,0,0:0:0:0:
36,192,168462,128,0,168548:0:0:0:0:
256,192,168548,128,0,168720:0:0:0:0:
109,192,168548,1,0,0:0:0:0:
475,192,168634,128,0,168720:0:0:0:0:
182,192,168720,128,0,168891:0:0:0:0:
36,192,168720,1,0,0:0:0:0:
329,192,168720,1,0,0:0:0:0:
402,192,168805,128,0,168891:0:0:0:0:
109,192,168891,128,0,169062:0:0:0:0:
475,192,168891,1,0,0:0:0:0:
256,192,168977,128,0,169062:0:0:0:0:
329,192,169062,128,0,169405:0:0:0:0:
402,192,169062,1,0,0:0:0:0:
36,192,169062,1,0,0:0:0:0:
182,192,169148,128,0,169234:0:0:0:0:
475,192,169234,128,0,169405:0:0:0:0:
256,192,169234,1,0,0:0:0:0:
109,192,169320,128,0,169405:0:0:0:0:
256,192,169405,128,0,169748:0:0:0:0:
36,192,169405,1,0,0:0:0:0:
402,192,169405,1,0,0:0:0:0:
402,192,169577,128,0,169748:0:0:0:0:
36,192,169577,128,0,169662:0:0:0:0:
182,192,169577,1,0,0:0:0:0:
109,192,169748,128,0,169920:0:0:0:0:
36,192,169748,1,0,0:0:0:0:
329,192,169748,1,0,0:0:0:0:
475,192,169834,128,0,169920:0:0:0:0:
329,192,169920,128,0,170091:0:0:0:0:
256,192,169920,1,0,0:0:0:0:
182,192,170005,128,0,170091:0:0:0:0:
36,192,170091,128,0,170262:0:0:0:0:
475,192,170091,1,0,0:0:0:0:
109,192,170091,1,0,0:0:0:0:
402,192,170177,128,0,170262:0:0:0:0:
256,192,170262,128,0,170434:0:0:0:0:
182,192,170262,1,0,0:0:0:0:
475,192,170348,128,0,170434:0:0:0:0:
109,192,170434,128,0,170605:0:0:0:0:
36,192,170434,1,0,0:0:0:0:
329,192,170434,1,0,0:0:0:0:
402,192,170520,128,0,170605:0:0:0:0:
182,192,170605,128,0,170777:0:0:0:0:
256,192,170605,1,0,0:0:0:0:
475,192,170691,128,0,170777:0:0:0:0:
329,192,170777,128,0,170948:0:0:0:0:
109,192,170777,1,0,0:0:0:0:
402,192,170777,1,0,0:0:0:0:
36,192,170862,128,0,170948:0:0:0:0:
402,192,170948,128,0,171291:0:0:0:0:
182,192,170948,1,0,0:0:0:0:
109,192,171034,128,0,171120:0:0:0:0:
256,192,171120,1,0,0:0:0:0:
329,192,171120,1,0,0:0:0:0:
36,192,171205,128,0,171291:0:0:0:0:
256,192,171291,128,0,171462:0:0:0:0:
109,192,171291,1,0,0:0:0:0:
402,192,171377,128,0,171462:0:0:0:0:
182,192,171462,128,0,171634:0:0:0:0:
36,192,171462,1,0,0:0:0:0:
475,192,171462,1,0,0:0:0:0:
329,192,171548,128,0,171634:0:0:0:0:
109,192,171634,128,0,171805:0:0:0:0:
402,192,171634,1,0,0:0:0:0:
256,192,171720,128,0,171805:0:0:0:0:
475,192,171805,128,0,172320:0:0:0:0:
36,192,171805,1,0,0:0:0:0:
182,192,171805,1,0,0:0:0:0:
329,192,171891,128,0,171977:0:0:0:0:
402,192,171977,128,0,172491:0:0:0:0:
182,192,171977,1,0,0:0:0:0:
256,192,172062,128,0,172148:0:0:0:0:
329,192,172148,128,0,172491:0:0:0:0:
36,192,172148,1,0,0:0:0:0:
109,192,172148,1,0,0:0:0:0:
182,192,172234,128,0,172320:0:0:0:0:
256,192,172320,128,0,172491:0:0:0:0:
36,192,172320,1,0,0:0:0:0:
36,192,172491,1,0,0:0:0:0:
182,192,172491,1,0,0:0:0:0:
475,192,172491,128,0,172662:0:0:0:0:
329,192,172662,128,0,172834:0:0:0:0:
36,192,172662,1,0,0:0:0:0:
182,192,172662,1,0,0:0:0:0:
402,192,172834,128,0,173005:0:0:0:0:
109,192,172834,1,0,0:0:0:0:
256,192,172834,1,0,0:0:0:0:
475,192,173005,128,0,173177:0:0:0:0:
256,192,173005,1,0,0:0:0:0:
109,192,173005,1,0,0:0:0:0:
402,192,173177,128,0,173348:0:0:0:0:
182,192,173177,1,0,0:0:0:0:
36,192,173177,1,0,0:0:0:0:
329,192,173348,128,0,173520:0:0:0:0:
182,192,173348,1,0,0:0:0:0:
36,192,173348,1,0,0:0:0:0:
475,192,173520,128,0,173691:0:0:0:0:
109,192,173520,1,0,0:0:0:0:
256,192,173520,1,0,0:0:0:0:
402,192,173691,128,0,174034:0:0:0:0:
36,192,173691,1,0,0:0:0:0:
256,192,173691,1,0,0:0:0:0:
36,192,173777,1,0,0:0:0:0:
36,192,173862,1,0,0:0:0:0:
182,192,173862,1,0,0:0:0:0:
475,192,174034,128,0,174205:0:0:0:0:
109,192,174034,1,0,0:0:0:0:
256,192,174034,1,0,0:0:0:0:
402,192,174205,128,0,174377:0:0:0:0:
329,192,174205,1,0,0:0:0:0:
182,192,174205,1,0,0:0:0:0:
329,192,174377,128,0,174548:0:0:0:0:
256,192,174377,1,0,0:0:0:0:
109,192,174377,1,0,0:0:0:0:
402,192,174548,128,0,174720:0:0:0:0:
182,192,174548,1,0,0:0:0:0:
36,192,174548,1,0,0:0:0:0:
475,192,174720,128,0,174891:0:0:0:0:
182,192,174720,1,0,0:0:0:0:
36,192,174720,1,0,0:0:0:0:
402,192,174891,128,0,175062:0:0:0:0:
109,192,174891,1,0,0:0:0:0:
256,192,174891,1,0,0:0:0:0:
329,192,175062,128,0,175234:0:0:0:0:
36,192,175062,1,0,0:0:0:0:
256,192,175062,1,0,0:0:0:0:
109,192,175148,1,0,0:0:0:0:
36,192,175234,1,0,0:0:0:0:
475,192,175234,1,0,0:0:0:0:
109,192,175320,1,0,0:0:0:0:
329,192,175320,1,0,0:0:0:0:
182,192,175405,1,0,0:0:0:0:
475,192,175405,1,0,0:0:0:0:
256,192,175491,1,0,0:0:0:0:
329,192,175491,1,0,0:0:0:0:
36,192,175577,1,0,0:0:0:0:
475,192,175577,1,0,0:0:0:0:
109,192,175662,1,0,0:0:0:0:
329,192,175662,1,0,0:0:0:0:
182,192,175748,1,0,0:0:0:0:
475,192,175748,1,0,0:0:0:0:
256,192,175834,1,0,0:0:0:0:
329,192,175834,1,0,0:0:0:0:
475,192,175920,1,0,0:0:0:0:
36,192,175920,1,0,0:0:0:0:
182,192,175920,1,0,0:0:0:0:
329,192,176005,1,0,0:0:0:0:
109,192,176005,1,0,0:0:0:0:
475,192,176091,1,0,0:0:0:0:
182,192,176091,1,0,0:0:0:0:
329,192,176177,1,0,0:0:0:0:
256,192,176177,1,0,0:0:0:0:
475,192,176262,1,0,0:0:0:0:
182,192,176262,1,0,0:0:0:0:
329,192,176348,1,0,0:0:0:0:
109,192,176348,1,0,0:0:0:0:
475,192,176434,1,0,0:0:0:0:
36,192,176434,1,0,0:0:0:0:
329,192,176520,1,0,0:0:0:0:
109,192,176520,1,0,0:0:0:0:
182,192,176605,1,0,0:0:0:0:
475,192,176605,1,0,0:0:0:0:
109,192,176691,1,0,0:0:0:0:
402,192,176691,1,0,0:0:0:0:
36,192,176777,128,0,176948:0:0:0:0:
475,192,176777,128,0,176948:0:0:0:0:
182,192,176777,128,0,176948:0:0:0:0:
329,192,176777,128,0,176948:0:0:0:0:
36,192,177120,128,0,177291:0:0:0:0:
475,192,177120,128,0,177291:0:0:0:0:
182,192,177120,128,0,177291:0:0:0:0:
329,192,177120,128,0,177291:0:0:0:0:
109,192,177291,1,0,0:0:0:0:
256,192,177291,1,0,0:0:0:0:
402,192,177291,1,0,0:0:0:0:
36,192,177548,1,0,0:0:0:0:
182,192,177548,1,0,0:0:0:0:
329,192,177548,1,0,0:0:0:0:
475,192,177548,1,0,0:0:0:0:
36,192,177805,1,0,0:0:0:0:
182,192,177805,1,0,0:0:0:0:
329,192,177805,1,0,0:0:0:0:
475,192,177805,1,0,0:0:0:0:
256,192,177977,128,0,178320:0:0:0:0:
36,192,178320,1,0,0:0:0:0:
182,192,178320,1,0,0:0:0:0:
329,192,178320,1,0,0:0:0:0:
475,192,178320,1,0,0:0:0:0:
182,192,178491,1,0,0:0:0:0:
36,192,178662,1,0,0:0:0:0:
329,192,178834,1,0,0:0:0:0:
182,192,179005,1,0,0:0:0:0:
475,192,179177,1,0,0:0:0:0:
36,192,179177,1,0,0:0:0:0:
329,192,179348,1,0,0:0:0:0:
182,192,179520,1,0,0:0:0:0:
475,192,179520,1,0,0:0:0:0:
36,192,179691,1,0,0:0:0:0:
109,192,179862,1,0,0:0:0:0:
256,192,180034,1,0,0:0:0:0:
402,192,180205,1,0,0:0:0:0:
475,192,180377,1,0,0:0:0:0:
36,192,180548,1,0,0:0:0:0:
329,192,180548,1,0,0:0:0:0:
182,192,180891,1,0,0:0:0:0:
36,192,181062,1,0,0:0:0:0:
182,192,181234,1,0,0:0:0:0:
329,192,181405,1,0,0:0:0:0:
475,192,181577,1,0,0:0:0:0:
256,192,181748,1,0,0:0:0:0:
475,192,181920,1,0,0:0:0:0:
36,192,181920,1,0,0:0:0:0:
36,192,182262,1,0,0:0:0:0:
475,192,182262,1,0,0:0:0:0:
182,192,182434,1,0,0:0:0:0:
329,192,182605,1,0,0:0:0:0:
109,192,182777,1,0,0:0:0:0:
256,192,182948,1,0,0:0:0:0:
402,192,183120,1,0,0:0:0:0:
475,192,183291,1,0,0:0:0:0:
36,192,183291,1,0,0:0:0:0:
182,192,183291,1,0,0:0:0:0:
475,192,183634,1,0,0:0:0:0:
329,192,183805,1,0,0:0:0:0:
182,192,183977,1,0,0:0:0:0:
36,192,184148,1,0,0:0:0:0:
256,192,184320,1,0,0:0:0:0:
109,192,184491,1,0,0:0:0:0:
329,192,184662,1,0,0:0:0:0:
36,192,184662,1,0,0:0:0:0:
475,192,184834,1,0,0:0:0:0:
329,192,185005,1,0,0:0:0:0:
36,192,185005,1,0,0:0:0:0:
182,192,185177,1,0,0:0:0:0:
36,192,185348,1,0,0:0:0:0:
182,192,185520,1,0,0:0:0:0:
329,192,185691,1,0,0:0:0:0:
475,192,185862,1,0,0:0:0:0:
182,192,185862,1,0,0:0:0:0:
329,192,186034,1,0,0:0:0:0:
36,192,186034,1,0,0:0:0:0:
329,192,186377,1,0,0:0:0:0:
182,192,186548,1,0,0:0:0:0:
36,192,186720,1,0,0:0:0:0:
109,192,186891,1,0,0:0:0:0:
256,192,187062,1,0,0:0:0:0:
402,192,187234,1,0,0:0:0:0:
475,192,187405,1,0,0:0:0:0:
36,192,187405,1,0,0:0:0:0:
256,192,187405,1,0,0:0:0:0:
36,192,187748,1,0,0:0:0:0:
256,192,187920,128,0,189291:0:0:0:0:
182,192,187920,1,0,0:0:0:0:
475,192,188091,1,0,0:0:0:0:
329,192,188262,1,0,0:0:0:0:
182,192,188434,1,0,0:0:0:0:
475,192,188605,1,0,0:0:0:0:
36,192,188605,1,0,0:0:0:0:
475,192,188862,1,0,0:0:0:0:
36,192,188862,1,0,0:0:0:0:
475,192,189120,1,0,0:0:0:0:
36,192,189120,1,0,0:0:0:0:
36,192,189291,1,0,0:0:0:0:
475,192,189291,1,0,0:0:0:0:
329,192,189291,1,0,0:0:0:0:
109,192,189291,128,0,190148:0:0:0:0:
256,192,189462,1,0,0:0:0:0:
182,192,189634,1,0,0:0:0:0:
475,192,189634,1,0,0:0:0:0:
329,192,189805,1,0,0:0:0:0:
475,192,189891,1,0,0:0:0:0:
256,192,189977,1,0,0:0:0:0:
402,192,190062,1,0,0:0:0:0:
182,192,190148,1,0,0:0:0:0:
329,192,190234,1,0,0:0:0:0:
475,192,190320,1,0,0:0:0:0:
36,192,190320,1,0,0:0:0:0:
109,192,190491,128,0,191520:0:0:0:0:
256,192,190491,1,0,0:0:0:0:
329,192,190662,1,0,0:0:0:0:
402,192,190834,1,0,0:0:0:0:
475,192,191005,1,0,0:0:0:0:
36,192,191005,1,0,0:0:0:0:
182,192,191177,1,0,0:0:0:0:
329,192,191262,1,0,0:0:0:0:
475,192,191348,1,0,0:0:0:0:
329,192,191434,1,0,0:0:0:0:
256,192,191520,128,0,192034:0:0:0:0:
475,192,191520,1,0,0:0:0:0:
36,192,191605,1,0,0:0:0:0:
182,192,191691,1,0,0:0:0:0:
402,192,191691,1,0,0:0:0:0:
182,192,191862,1,0,0:0:0:0:
109,192,191948,1,0,0:0:0:0:
402,192,192034,128,0,192891:0:0:0:0:
36,192,192034,1,0,0:0:0:0:
475,192,192034,1,0,0:0:0:0:
256,192,192205,1,0,0:0:0:0:
36,192,192377,1,0,0:0:0:0:
475,192,192377,1,0,0:0:0:0:
182,192,192548,1,0,0:0:0:0:
329,192,192634,1,0,0:0:0:0:
182,192,192720,1,0,0:0:0:0:
329,192,192805,1,0,0:0:0:0:
109,192,192891,1,0,0:0:0:0:
256,192,192977,1,0,0:0:0:0:
475,192,193062,1,0,0:0:0:0:
36,192,193062,1,0,0:0:0:0:
402,192,193234,128,0,194262:0:0:0:0:
109,192,193234,1,0,0:0:0:0:
256,192,193405,1,0,0:0:0:0:
36,192,193577,1,0,0:0:0:0:
109,192,193662,1,0,0:0:0:0:
182,192,193748,1,0,0:0:0:0:
475,192,193748,1,0,0:0:0:0:
329,192,193920,1,0,0:0:0:0:
256,192,194005,1,0,0:0:0:0:
36,192,194091,1,0,0:0:0:0:
182,192,194177,1,0,0:0:0:0:
256,192,194262,128,0,194777:0:0:0:0:
36,192,194262,1,0,0:0:0:0:
109,192,194348,1,0,0:0:0:0:
329,192,194434,1,0,0:0:0:0:
475,192,194434,128,0,194605:0:0:0:0:
182,192,194520,1,0,0:0:0:0:
36,192,194605,1,0,0:0:0:0:
182,192,194691,1,0,0:0:0:0:
329,192,194777,1,0,0:0:0:0:
475,192,194777,1,0,0:0:0:0:
36,192,194777,128,0,195634:0:0:0:0:
256,192,194862,1,0,0:0:0:0:
109,192,194948,1,0,0:0:0:0:
329,192,195034,1,0,0:0:0:0:
475,192,195120,1,0,0:0:0:0:
182,192,195120,1,0,0:0:0:0:
329,192,195205,1,0,0:0:0:0:
109,192,195291,1,0,0:0:0:0:
256,192,195377,1,0,0:0:0:0:
475,192,195462,1,0,0:0:0:0:
329,192,195548,1,0,0:0:0:0:
182,192,195634,1,0,0:0:0:0:
329,192,195720,1,0,0:0:0:0:
36,192,195805,1,0,0:0:0:0:
475,192,195805,1,0,0:0:0:0:
475,192,195977,128,0,196834:0:0:0:0:
36,192,195977,1,0,0:0:0:0:
182,192,196062,1,0,0:0:0:0:
402,192,196148,1,0,0:0:0:0:
256,192,196234,1,0,0:0:0:0:
109,192,196320,1,0,0:0:0:0:
329,192,196405,1,0,0:0:0:0:
402,192,196491,128,0,197177:0:0:0:0:
36,192,196491,1,0,0:0:0:0:
182,192,196491,1,0,0:0:0:0:
256,192,196577,1,0,0:0:0:0:
109,192,196662,1,0,0:0:0:0:
182,192,196748,1,0,0:0:0:0:
329,192,196834,128,0,197177:0:0:0:0:
36,192,196834,1,0,0:0:0:0:
256,192,196920,1,0,0:0:0:0:
475,192,197005,128,0,197177:0:0:0:0:
182,192,197005,1,0,0:0:0:0:
109,192,197091,1,0,0:0:0:0:
256,192,197177,128,0,197520:0:0:0:0:
182,192,197177,1,0,0:0:0:0:
36,192,197177,1,0,0:0:0:0:
402,192,197262,1,0,0:0:0:0:
109,192,197348,1,0,0:0:0:0:
402,192,197434,1,0,0:0:0:0:
109,192,197520,1,0,0:0:0:0:
475,192,197520,128,0,198377:0:0:0:0:
256,192,197605,1,0,0:0:0:0:
182,192,197691,1,0,0:0:0:0:
109,192,197777,1,0,0:0:0:0:
36,192,197862,1,0,0:0:0:0:
329,192,197862,1,0,0:0:0:0:
182,192,197948,1,0,0:0:0:0:
329,192,198034,1,0,0:0:0:0:
256,192,198120,1,0,0:0:0:0:
182,192,198205,1,0,0:0:0:0:
36,192,198291,1,0,0:0:0:0:
329,192,198377,1,0,0:0:0:0:
182,192,198462,1,0,0:0:0:0:
36,192,198548,1,0,0:0:0:0:
475,192,198548,1,0,0:0:0:0:
36,192,198720,128,0,199405:0:0:0:0:
475,192,198720,1,0,0:0:0:0:
329,192,198805,1,0,0:0:0:0:
109,192,198891,1,0,0:0:0:0:
182,192,198977,1,0,0:0:0:0:
402,192,199062,1,0,0:0:0:0:
256,192,199148,1,0,0:0:0:0:
329,192,199234,1,0,0:0:0:0:
475,192,199234,1,0,0:0:0:0:
109,192,199320,1,0,0:0:0:0:
256,192,199405,1,0,0:0:0:0:
402,192,199491,1,0,0:0:0:0:
475,192,199577,128,0,200091:0:0:0:0:
182,192,199577,1,0,0:0:0:0:
36,192,199662,1,0,0:0:0:0:
402,192,199748,128,0,200262:0:0:0:0:
109,192,199748,1,0,0:0:0:0:
256,192,199834,1,0,0:0:0:0:
329,192,199920,128,0,200262:0:0:0:0:
36,192,199920,1,0,0:0:0:0:
109,192,199920,1,0,0:0:0:0:
256,192,200091,128,0,200262:0:0:0:0:
36,192,200091,1,0,0:0:0:0:
36,192,200262,1,0,0:0:0:0:
475,192,200262,1,0,0:0:0:0:
109,192,200262,128,0,201634:0:0:0:0:
182,192,200348,1,0,0:0:0:0:
329,192,200434,1,0,0:0:0:0:
475,192,200434,1,0,0:0:0:0:
182,192,200520,1,0,0:0:0:0:
475,192,200605,1,0,0:0:0:0:
36,192,200605,1,0,0:0:0:0:
182,192,200691,1,0,0:0:0:0:
256,192,200777,1,0,0:0:0:0:
402,192,200777,1,0,0:0:0:0:
475,192,200862,1,0,0:0:0:0:
329,192,200948,1,0,0:0:0:0:
36,192,200948,1,0,0:0:0:0:
182,192,201034,1,0,0:0:0:0:
256,192,201120,1,0,0:0:0:0:
475,192,201120,1,0,0:0:0:0:
402,192,201205,1,0,0:0:0:0:
329,192,201291,1,0,0:0:0:0:
182,192,201291,1,0,0:0:0:0:
329,192,201462,1,0,0:0:0:0:
182,192,201462,1,0,0:0:0:0:
36,192,201634,128,0,202320:0:0:0:0:
475,192,201634,1,0,0:0:0:0:
256,192,201634,1,0,0:0:0:0:
329,192,201720,1,0,0:0:0:0:
109,192,201805,1,0,0:0:0:0:
402,192,201805,1,0,0:0:0:0:
182,192,201891,1,0,0:0:0:0:
256,192,201977,1,0,0:0:0:0:
475,192,201977,1,0,0:0:0:0:
329,192,202148,1,0,0:0:0:0:
402,192,202148,1,0,0:0:0:0:
182,192,202234,1,0,0:0:0:0:
329,192,202320,128,0,203005:0:0:0:0:
256,192,202320,1,0,0:0:0:0:
475,192,202320,1,0,0:0:0:0:
109,192,202405,1,0,0:0:0:0:
182,192,202491,1,0,0:0:0:0:
36,192,202491,1,0,0:0:0:0:
402,192,202577,1,0,0:0:0:0:
475,192,202662,1,0,0:0:0:0:
256,192,202662,1,0,0:0:0:0:
36,192,202834,1,0,0:0:0:0:
256,192,202834,1,0,0:0:0:0:
182,192,202920,1,0,0:0:0:0:
109,192,203005,128,0,203520:0:0:0:0:
475,192,203005,1,0,0:0:0:0:
402,192,203005,1,0,0:0:0:0:
256,192,203091,1,0,0:0:0:0:
329,192,203177,1,0,0:0:0:0:
36,192,203177,1,0,0:0:0:0:
475,192,203262,1,0,0:0:0:0:
256,192,203348,128,0,203520:0:0:0:0:
402,192,203348,1,0,0:0:0:0:
182,192,203348,1,0,0:0:0:0:
402,192,203520,128,0,204205:0:0:0:0:
36,192,203520,1,0,0:0:0:0:
475,192,203520,1,0,0:0:0:0:
109,192,203605,1,0,0:0:0:0:
182,192,203691,1,0,0:0:0:0:
329,192,203691,1,0,0:0:0:0:
36,192,203777,1,0,0:0:0:0:
256,192,203862,128,0,204205:0:0:0:0:
109,192,203862,1,0,0:0:0:0:
475,192,203862,1,0,0:0:0:0:
182,192,203948,1,0,0:0:0:0:
36,192,204034,1,0,0:0:0:0:
475,192,204034,1,0,0:0:0:0:
329,192,204205,128,0,204548:0:0:0:0:
182,192,204205,1,0,0:0:0:0:
36,192,204205,1,0,0:0:0:0:
36,192,204377,1,0,0:0:0:0:
475,192,204377,1,0,0:0:0:0:
256,192,204462,1,0,0:0:0:0:
182,192,204548,128,0,205405:0:0:0:0:
109,192,204548,1,0,0:0:0:0:
402,192,204548,1,0,0:0:0:0:
36,192,204634,1,0,0:0:0:0:
475,192,204720,1,0,0:0:0:0:
329,192,204720,1,0,0:0:0:0:
36,192,204891,1,0,0:0:0:0:
256,192,204891,1,0,0:0:0:0:
475,192,204977,1,0,0:0:0:0:
329,192,205062,128,0,205748:0:0:0:0:
36,192,205062,1,0,0:0:0:0:
402,192,205062,1,0,0:0:0:0:
109,192,205148,1,0,0:0:0:0:
475,192,205234,1,0,0:0:0:0:
402,192,205320,1,0,0:0:0:0:
475,192,205405,128,0,205748:0:0:0:0:
36,192,205405,128,0,205577:0:0:0:0:
256,192,205405,1,0,0:0:0:0:
109,192,205405,1,0,0:0:0:0:
182,192,205577,1,0,0:0:0:0:
109,192,205662,1,0,0:0:0:0:
36,192,205748,1,0,0:0:0:0:
256,192,205748,1,0,0:0:0:0:
182,192,205748,128,0,207120:0:0:0:0:
109,192,205834,1,0,0:0:0:0:
329,192,205920,1,0,0:0:0:0:
475,192,205920,1,0,0:0:0:0:
256,192,206005,1,0,0:0:0:0:
475,192,206091,1,0,0:0:0:0:
36,192,206091,1,0,0:0:0:0:
109,192,206262,1,0,0:0:0:0:
329,192,206262,1,0,0:0:0:0:
402,192,206348,1,0,0:0:0:0:
475,192,206434,1,0,0:0:0:0:
36,192,206434,1,0,0:0:0:0:
256,192,206520,1,0,0:0:0:0:
329,192,206605,1,0,0:0:0:0:
109,192,206605,1,0,0:0:0:0:
402,192,206691,1,0,0:0:0:0:
36,192,206777,1,0,0:0:0:0:
475,192,206777,1,0,0:0:0:0:
36,192,206948,1,0,0:0:0:0:
475,192,206948,1,0,0:0:0:0:
329,192,207120,128,0,207634:0:0:0:0:
36,192,207120,1,0,0:0:0:0:
402,192,207120,1,0,0:0:0:0:
109,192,207291,1,0,0:0:0:0:
475,192,207291,1,0,0:0:0:0:
182,192,207377,1,0,0:0:0:0:
256,192,207462,1,0,0:0:0:0:
36,192,207462,1,0,0:0:0:0:
475,192,207634,128,0,208148:0:0:0:0:
182,192,207634,1,0,0:0:0:0:
36,192,207634,1,0,0:0:0:0:
109,192,207720,1,0,0:0:0:0:
256,192,207805,1,0,0:0:0:0:
402,192,207805,1,0,0:0:0:0:
329,192,207891,1,0,0:0:0:0:
36,192,207977,1,0,0:0:0:0:
182,192,207977,1,0,0:0:0:0:
256,192,208062,1,0,0:0:0:0:
329,192,208148,128,0,208491:0:0:0:0:
109,192,208148,1,0,0:0:0:0:
402,192,208148,1,0,0:0:0:0:
182,192,208320,1,0,0:0:0:0:
475,192,208320,1,0,0:0:0:0:
109,192,208405,1,0,0:0:0:0:
182,192,208491,128,0,209177:0:0:0:0:
36,192,208491,1,0,0:0:0:0:
402,192,208491,1,0,0:0:0:0:
475,192,208662,1,0,0:0:0:0:
256,192,208662,1,0,0:0:0:0:
329,192,208748,1,0,0:0:0:0:
36,192,208834,1,0,0:0:0:0:
475,192,208834,1,0,0:0:0:0:
329,192,209005,1,0,0:0:0:0:
475,192,209005,1,0,0:0:0:0:
402,192,209091,1,0,0:0:0:0:
109,192,209177,128,0,209862:0:0:0:0:
256,192,209177,1,0,0:0:0:0:
36,192,209177,1,0,0:0:0:0:
475,192,209262,1,0,0:0:0:0:
329,192,209348,1,0,0:0:0:0:
36,192,209348,1,0,0:0:0:0:
182,192,209434,1,0,0:0:0:0:
329,192,209520,1,0,0:0:0:0:
475,192,209520,1,0,0:0:0:0:
329,192,209691,1,0,0:0:0:0:
475,192,209691,1,0,0:0:0:0:
36,192,209862,1,0,0:0:0:0:
475,192,209862,1,0,0:0:0:0:
182,192,209862,1,0,0:0:0:0:
329,192,209862,1,0,0:0:0:0:
256,192,210034,1,0,0:0:0:0:
402,192,210034,1,0,0:0:0:0:
182,192,210120,1,0,0:0:0:0:
109,192,210205,1,0,0:0:0:0:
402,192,210205,1,0,0:0:0:0:
182,192,210291,1,0,0:0:0:0:
36,192,210377,1,0,0:0:0:0:
256,192,210377,1,0,0:0:0:0:
109,192,210462,1,0,0:0:0:0:
475,192,210548,128,0,211234:0:0:0:0:
182,192,210548,1,0,0:0:0:0:
329,192,210548,1,0,0:0:0:0:
36,192,210634,1,0,0:0:0:0:
402,192,210720,128,0,211234:0:0:0:0:
109,192,210720,1,0,0:0:0:0:
256,192,210720,1,0,0:0:0:0:
182,192,210805,1,0,0:0:0:0:
329,192,210891,128,0,211234:0:0:0:0:
36,192,210891,1,0,0:0:0:0:
256,192,210891,1,0,0:0:0:0:
256,192,211062,128,0,211234:0:0:0:0:
36,192,211062,1,0,0:0:0:0:
182,192,211062,1,0,0:0:0:0:
36,192,211234,1,0,0:0:0:0:
182,192,211234,128,0,212434:0:0:0:0:
329,192,211405,1,0,0:0:0:0:
36,192,211405,1,0,0:0:0:0:
402,192,211491,1,0,0:0:0:0:
109,192,211491,1,0,0:0:0:0:
475,192,211577,1,0,0:0:0:0:
256,192,211577,1,0,0:0:0:0:
329,192,211748,1,0,0:0:0:0:
36,192,211748,1,0,0:0:0:0:
402,192,211834,1,0,0:0:0:0:
109,192,211834,1,0,0:0:0:0:
475,192,211920,1,0,0:0:0:0:
256,192,211920,1,0,0:0:0:0:
329,192,212091,1,0,0:0:0:0:
36,192,212091,1,0,0:0:0:0:
402,192,212177,1,0,0:0:0:0:
109,192,212177,1,0,0:0:0:0:
475,192,212262,1,0,0:0:0:0:
256,192,212262,1,0,0:0:0:0:
475,192,212434,1,0,0:0:0:0:
36,192,212434,1,0,0:0:0:0:
402,192,212520,1,0,0:0:0:0:
256,192,212520,1,0,0:0:0:0:
109,192,212605,128,0,213291:0:0:0:0:
475,192,212605,1,0,0:0:0:0:
329,192,212605,1,0,0:0:0:0:
402,192,212777,1,0,0:0:0:0:
182,192,212777,1,0,0:0:0:0:
329,192,212862,1,0,0:0:0:0:
36,192,212862,1,0,0:0:0:0:
475,192,212948,1,0,0:0:0:0:
256,192,212948,1,0,0:0:0:0:
182,192,213120,1,0,0:0:0:0:
402,192,213120,1,0,0:0:0:0:
256,192,213205,1,0,0:0:0:0:
36,192,213205,1,0,0:0:0:0:
475,192,213291,128,0,213977:0:0:0:0:
329,192,213291,1,0,0:0:0:0:
182,192,213291,1,0,0:0:0:0:
109,192,213462,128,0,213977:0:0:0:0:
402,192,213462,1,0,0:0:0:0:
182,192,213462,1,0,0:0:0:0:
329,192,213548,1,0,0:0:0:0:
36,192,213548,1,0,0:0:0:0:
256,192,213634,1,0,0:0:0:0:
402,192,213634,1,0,0:0:0:0:
36,192,213805,1,0,0:0:0:0:
329,192,213805,1,0,0:0:0:0:
182,192,213891,1,0,0:0:0:0:
402,192,213891,1,0,0:0:0:0:
329,192,213977,128,0,214320:0:0:0:0:
256,192,213977,1,0,0:0:0:0:
36,192,213977,1,0,0:0:0:0:
182,192,214148,1,0,0:0:0:0:
475,192,214148,1,0,0:0:0:0:
109,192,214234,1,0,0:0:0:0:
402,192,214234,1,0,0:0:0:0:
182,192,214320,128,0,214491:0:0:0:0:
36,192,214320,1,0,0:0:0:0:
475,192,214320,1,0,0:0:0:0:
36,192,214491,128,0,214834:0:0:0:0:
329,192,214491,1,0,0:0:0:0:
109,192,214491,1,0,0:0:0:0:
402,192,214577,1,0,0:0:0:0:
182,192,214577,1,0,0:0:0:0:
475,192,214662,1,0,0:0:0:0:
256,192,214662,1,0,0:0:0:0:
182,192,214834,128,0,215005:0:0:0:0:
329,192,214834,1,0,0:0:0:0:
109,192,214834,1,0,0:0:0:0:
402,192,214920,1,0,0:0:0:0:
36,192,214920,1,0,0:0:0:0:
329,192,215005,128,0,215348:0:0:0:0:
475,192,215005,1,0,0:0:0:0:
109,192,215005,1,0,0:0:0:0:
36,192,215177,1,0,0:0:0:0:
475,192,215177,1,0,0:0:0:0:
109,192,215262,1,0,0:0:0:0:
402,192,215262,1,0,0:0:0:0:
475,192,215348,128,0,216720:0:0:0:0:
182,192,215348,1,0,0:0:0:0:
256,192,215348,1,0,0:0:0:0:
36,192,215520,1,0,0:0:0:0:
256,192,215520,1,0,0:0:0:0:
109,192,215605,1,0,0:0:0:0:
329,192,215605,1,0,0:0:0:0:
182,192,215691,1,0,0:0:0:0:
402,192,215691,1,0,0:0:0:0:
182,192,215862,1,0,0:0:0:0:
402,192,215862,1,0,0:0:0:0:
109,192,215948,1,0,0:0:0:0:
256,192,215948,1,0,0:0:0:0:
329,192,216034,128,0,216720:0:0:0:0:
36,192,216034,1,0,0:0:0:0:
182,192,216034,1,0,0:0:0:0:
36,192,216205,1,0,0:0:0:0:
256,192,216205,1,0,0:0:0:0:
182,192,216291,1,0,0:0:0:0:
402,192,216291,1,0,0:0:0:0:
109,192,216377,1,0,0:0:0:0:
256,192,216377,1,0,0:0:0:0:
109,192,216548,1,0,0:0:0:0:
256,192,216548,1,0,0:0:0:0:
36,192,216720,128,0,218605:0:0:0:0:
256,192,216720,1,0,0:0:0:0:
109,192,216720,1,0,0:0:0:0:
182,192,216891,1,0,0:0:0:0:
402,192,216891,1,0,0:0:0:0:
109,192,216977,1,0,0:0:0:0:
475,192,216977,1,0,0:0:0:0:
256,192,217062,1,0,0:0:0:0:
402,192,217062,1,0,0:0:0:0:
109,192,217234,1,0,0:0:0:0:
329,192,217234,1,0,0:0:0:0:
256,192,217320,1,0,0:0:0:0:
475,192,217320,1,0,0:0:0:0:
182,192,217405,1,0,0:0:0:0:
402,192,217405,1,0,0:0:0:0:
256,192,217577,1,0,0:0:0:0:
475,192,217577,1,0,0:0:0:0:
182,192,217662,1,0,0:0:0:0:
402,192,217662,1,0,0:0:0:0:
109,192,217748,1,0,0:0:0:0:
329,192,217748,1,0,0:0:0:0:
182,192,217920,1,0,0:0:0:0:
402,192,217920,1,0,0:0:0:0:
256,192,218005,1,0,0:0:0:0:
475,192,218005,1,0,0:0:0:0:
109,192,218091,128,0,219120:0:0:0:0:
329,192,218091,1,0,0:0:0:0:
182,192,218091,1,0,0:0:0:0:
256,192,218262,1,0,0:0:0:0:
402,192,218262,1,0,0:0:0:0:
182,192,218348,1,0,0:0:0:0:
475,192,218348,1,0,0:0:0:0:
329,192,218434,1,0,0:0:0:0:
402,192,218434,1,0,0:0:0:0:
182,192,218605,128,0,219291:0:0:0:0:
256,192,218605,1,0,0:0:0:0:
402,192,218605,1,0,0:0:0:0:
329,192,218691,1,0,0:0:0:0:
475,192,218691,1,0,0:0:0:0:
402,192,218777,1,0,0:0:0:0:
256,192,218777,1,0,0:0:0:0:
256,192,218948,1,0,0:0:0:0:
402,192,218948,1,0,0:0:0:0:
475,192,219034,1,0,0:0:0:0:
329,192,219034,1,0,0:0:0:0:
256,192,219120,128,0,219462:0:0:0:0:
402,192,219120,1,0,0:0:0:0:
36,192,219120,1,0,0:0:0:0:
36,192,219291,1,0,0:0:0:0:
329,192,219291,1,0,0:0:0:0:
109,192,219377,1,0,0:0:0:0:
402,192,219377,1,0,0:0:0:0:
36,192,219462,128,0,220834:0:0:0:0:
475,192,219462,1,0,0:0:0:0:
329,192,219462,1,0,0:0:0:0:
182,192,219462,1,0,0:0:0:0:
475,192,219634,1,0,0:0:0:0:
329,192,219634,1,0,0:0:0:0:
182,192,219634,1,0,0:0:0:0:
256,192,219805,1,0,0:0:0:0:
402,192,219805,1,0,0:0:0:0:
109,192,219805,1,0,0:0:0:0:
402,192,219977,1,0,0:0:0:0:
256,192,219977,1,0,0:0:0:0:
109,192,219977,1,0,0:0:0:0:
329,192,220148,1,0,0:0:0:0:
182,192,220148,1,0,0:0:0:0:
475,192,220148,1,0,0:0:0:0:
182,192,220320,1,0,0:0:0:0:
329,192,220320,1,0,0:0:0:0:
475,192,220320,1,0,0:0:0:0:
256,192,220491,1,0,0:0:0:0:
109,192,220491,1,0,0:0:0:0:
402,192,220491,1,0,0:0:0:0:
109,192,220662,1,0,0:0:0:0:
256,192,220662,1,0,0:0:0:0:
402,192,220662,1,0,0:0:0:0:
475,192,220834,1,0,0:0:0:0:
329,192,220920,1,0,0:0:0:0:
182,192,221005,1,0,0:0:0:0:
36,192,221091,1,0,0:0:0:0:
475,192,221177,1,0,0:0:0:0:
329,192,221262,1,0,0:0:0:0:
182,192,221348,1,0,0:0:0:0:
36,192,221434,1,0,0:0:0:0:
475,192,221520,1,0,0:0:0:0:
256,192,221605,1,0,0:0:0:0:
182,192,221691,1,0,0:0:0:0:
402,192,221691,1,0,0:0:0:0:
109,192,221777,1,0,0:0:0:0:
329,192,221777,1,0,0:0:0:0:
36,192,221862,1,0,0:0:0:0:
256,192,221862,1,0,0:0:0:0:
109,192,221948,1,0,0:0:0:0:
329,192,221948,1,0,0:0:0:0:
182,192,222034,1,0,0:0:0:0:
402,192,222034,1,0,0:0:0:0:
256,192,222120,1,0,0:0:0:0:
402,192,222120,1,0,0:0:0:0:
36,192,222205,5,0,0:0:0:0:
329,192,222205,1,0,0:0:0:0:
182,192,222205,1,0,0:0:0:0:
475,192,222205,1,0,0:0:0:0:
109,192,222377,1,0,0:0:0:0:
182,192,222548,1,0,0:0:0:0:
256,192,222720,1,0,0:0:0:0:
329,192,222891,1,0,0:0:0:0:
475,192,223062,1,0,0:0:0:0:
36,192,223062,1,0,0:0:0:0:
329,192,223234,1,0,0:0:0:0:
475,192,223405,1,0,0:0:0:0:
36,192,223405,1,0,0:0:0:0:
109,192,223577,1,0,0:0:0:0:
475,192,223577,1,0,0:0:0:0:
329,192,223748,1,0,0:0:0:0:
256,192,223920,1,0,0:0:0:0:
109,192,224091,1,0,0:0:0:0:
475,192,224091,1,0,0:0:0:0:
36,192,224262,1,0,0:0:0:0:
256,192,224434,1,0,0:0:0:0:
36,192,224605,1,0,0:0:0:0:
475,192,224605,1,0,0:0:0:0:
109,192,224777,1,0,0:0:0:0:
36,192,224948,1,0,0:0:0:0:
475,192,224948,1,0,0:0:0:0:
109,192,225120,1,0,0:0:0:0:
182,192,225291,1,0,0:0:0:0:
475,192,225291,1,0,0:0:0:0:
256,192,225462,1,0,0:0:0:0:
475,192,225462,1,0,0:0:0:0:
256,192,225805,1,0,0:0:0:0:
402,192,225977,1,0,0:0:0:0:
182,192,226148,1,0,0:0:0:0:
329,192,226320,1,0,0:0:0:0:
475,192,226320,1,0,0:0:0:0:
36,192,226320,1,0,0:0:0:0:
109,192,226491,1,0,0:0:0:0:
256,192,226662,1,0,0:0:0:0:
402,192,226834,1,0,0:0:0:0:
36,192,226834,1,0,0:0:0:0:
475,192,227177,1,0,0:0:0:0:
329,192,227348,1,0,0:0:0:0:
182,192,227520,1,0,0:0:0:0:
36,192,227691,1,0,0:0:0:0:
475,192,227691,1,0,0:0:0:0:
182,192,227862,1,0,0:0:0:0:
329,192,228034,1,0,0:0:0:0:
475,192,228205,1,0,0:0:0:0:
36,192,228205,1,0,0:0:0:0:
329,192,228377,1,0,0:0:0:0:
36,192,228548,1,0,0:0:0:0:
109,192,228634,1,0,0:0:0:0:
182,192,228720,1,0,0:0:0:0:
402,192,228891,1,0,0:0:0:0:
36,192,229062,1,0,0:0:0:0:
256,192,229062,1,0,0:0:0:0:
475,192,229062,1,0,0:0:0:0:
329,192,229234,1,0,0:0:0:0:
182,192,229405,1,0,0:0:0:0:
36,192,229577,1,0,0:0:0:0:
475,192,229577,1,0,0:0:0:0:
182,192,229748,1,0,0:0:0:0:
475,192,229920,128,0,230091:0:0:0:0:
329,192,230091,128,0,230262:0:0:0:0:
182,192,230262,128,0,230434:0:0:0:0:
36,192,230434,1,0,0:0:0:0:
475,192,230434,1,0,0:0:0:0:
182,192,230605,128,0,230948:0:0:0:0:
36,192,230605,1,0,0:0:0:0:
329,192,230777,128,0,231120:0:0:0:0:
475,192,230948,128,0,231120:0:0:0:0:
36,192,230948,1,0,0:0:0:0:
36,192,231291,5,0,0:0:0:0:
475,192,231291,1,0,0:0:0:0:
329,192,231462,1,0,0:0:0:0:
256,192,231634,1,0,0:0:0:0:
475,192,231634,1,0,0:0:0:0:
36,192,231805,128,0,232234:0:0:0:0:
182,192,231805,1,0,0:0:0:0:
182,192,231977,128,0,232320:0:0:0:0:
329,192,232148,128,0,232491:0:0:0:0:
36,192,232320,128,0,232405:0:0:0:0:
182,192,232405,128,0,232491:0:0:0:0:
36,192,232491,128,0,232834:0:0:0:0:
475,192,232662,128,0,232834:0:0:0:0:
329,192,232662,128,0,233005:0:0:0:0:
182,192,232834,128,0,233177:0:0:0:0:
475,192,233005,128,0,233091:0:0:0:0:
36,192,233005,128,0,233177:0:0:0:0:
329,192,233091,128,0,233177:0:0:0:0:
475,192,233177,1,0,0:0:0:0:
109,192,233177,1,0,0:0:0:0:
402,192,233177,1,0,0:0:0:0:
36,192,233348,1,0,0:0:0:0:
109,192,233434,1,0,0:0:0:0:
182,192,233520,1,0,0:0:0:0:
475,192,233520,1,0,0:0:0:0:
36,192,233691,1,0,0:0:0:0:
475,192,233691,1,0,0:0:0:0:
182,192,233862,1,0,0:0:0:0:
475,192,234034,1,0,0:0:0:0:
109,192,234034,128,0,234377:0:0:0:0:
402,192,234120,1,0,0:0:0:0:
329,192,234205,1,0,0:0:0:0:
36,192,234205,1,0,0:0:0:0:
182,192,234205,128,0,234548:0:0:0:0:
36,192,234377,1,0,0:0:0:0:
475,192,234377,1,0,0:0:0:0:
402,192,234377,128,0,234720:0:0:0:0:
329,192,234548,128,0,234891:0:0:0:0:
36,192,234720,1,0,0:0:0:0:
109,192,234805,1,0,0:0:0:0:
182,192,234891,1,0,0:0:0:0:
475,192,234891,1,0,0:0:0:0:
36,192,235062,1,0,0:0:0:0:
475,192,235062,1,0,0:0:0:0:
475,192,235405,1,0,0:0:0:0:
182,192,235405,1,0,0:0:0:0:
109,192,235491,1,0,0:0:0:0:
402,192,235577,128,0,235920:0:0:0:0:
36,192,235577,1,0,0:0:0:0:
475,192,235577,1,0,0:0:0:0:
182,192,235748,1,0,0:0:0:0:
109,192,235920,128,0,236262:0:0:0:0:
329,192,235920,1,0,0:0:0:0:
182,192,235920,1,0,0:0:0:0:
475,192,236091,1,0,0:0:0:0:
402,192,236177,1,0,0:0:0:0:
329,192,236262,1,0,0:0:0:0:
36,192,236262,1,0,0:0:0:0:
182,192,236434,1,0,0:0:0:0:
475,192,236434,1,0,0:0:0:0:
36,192,236605,1,0,0:0:0:0:
329,192,236605,1,0,0:0:0:0:
402,192,236777,128,0,236948:0:0:0:0:
182,192,236777,1,0,0:0:0:0:
109,192,236862,1,0,0:0:0:0:
256,192,236948,128,0,237120:0:0:0:0:
36,192,236948,1,0,0:0:0:0:
475,192,236948,1,0,0:0:0:0:
36,192,237120,1,0,0:0:0:0:
182,192,237120,1,0,0:0:0:0:
329,192,237291,128,0,237462:0:0:0:0:
475,192,237291,1,0,0:0:0:0:
182,192,237462,128,0,237634:0:0:0:0:
475,192,237462,1,0,0:0:0:0:
36,192,237462,1,0,0:0:0:0:
36,192,237634,128,0,237805:0:0:0:0:
329,192,237634,1,0,0:0:0:0:
402,192,237805,128,0,237977:0:0:0:0:
182,192,237805,1,0,0:0:0:0:
109,192,237805,1,0,0:0:0:0:
256,192,237977,128,0,238148:0:0:0:0:
36,192,237977,1,0,0:0:0:0:
109,192,238148,128,0,238320:0:0:0:0:
475,192,238148,1,0,0:0:0:0:
329,192,238148,1,0,0:0:0:0:
475,192,238320,128,0,238491:0:0:0:0:
182,192,238320,1,0,0:0:0:0:
329,192,238491,128,0,238662:0:0:0:0:
36,192,238491,1,0,0:0:0:0:
256,192,238491,1,0,0:0:0:0:
36,192,238662,128,0,238834:0:0:0:0:
182,192,238662,1,0,0:0:0:0:
182,192,238834,128,0,239005:0:0:0:0:
329,192,238834,1,0,0:0:0:0:
475,192,238834,1,0,0:0:0:0:
329,192,239005,128,0,239177:0:0:0:0:
36,192,239005,1,0,0:0:0:0:
109,192,239177,128,0,239348:0:0:0:0:
182,192,239177,1,0,0:0:0:0:
475,192,239177,1,0,0:0:0:0:
256,192,239348,128,0,239520:0:0:0:0:
402,192,239348,1,0,0:0:0:0:
402,192,239520,128,0,239691:0:0:0:0:
182,192,239520,1,0,0:0:0:0:
36,192,239520,1,0,0:0:0:0:
182,192,239691,128,0,239862:0:0:0:0:
329,192,239691,1,0,0:0:0:0:
329,192,239862,128,0,240034:0:0:0:0:
36,192,239862,1,0,0:0:0:0:
475,192,239862,1,0,0:0:0:0:
475,192,240034,128,0,240205:0:0:0:0:
182,192,240034,1,0,0:0:0:0:
36,192,240205,128,0,240377:0:0:0:0:
329,192,240205,1,0,0:0:0:0:
402,192,240205,1,0,0:0:0:0:
256,192,240377,128,0,240548:0:0:0:0:
109,192,240377,1,0,0:0:0:0:
475,192,240548,128,0,240720:0:0:0:0:
36,192,240548,1,0,0:0:0:0:
329,192,240548,1,0,0:0:0:0:
36,192,240720,128,0,241405:0:0:0:0:
256,192,240720,1,0,0:0:0:0:
182,192,240891,128,0,241405:0:0:0:0:
329,192,240891,1,0,0:0:0:0:
475,192,240891,1,0,0:0:0:0:
475,192,241062,128,0,241405:0:0:0:0:
256,192,241062,1,0,0:0:0:0:
329,192,241234,128,0,241405:0:0:0:0:
402,192,241234,1,0,0:0:0:0:
109,192,241234,1,0,0:0:0:0:
256,192,241405,128,0,241577:0:0:0:0:
475,192,241577,128,0,241748:0:0:0:0:
36,192,241577,1,0,0:0:0:0:
402,192,241577,1,0,0:0:0:0:
109,192,241748,128,0,241920:0:0:0:0:
256,192,241748,1,0,0:0:0:0:
256,192,241920,128,0,242091:0:0:0:0:
475,192,241920,1,0,0:0:0:0:
36,192,241920,1,0,0:0:0:0:
402,192,242091,128,0,242348:0:0:0:0:
109,192,242091,1,0,0:0:0:0:
109,192,242262,128,0,242520:0:0:0:0:
256,192,242262,1,0,0:0:0:0:
36,192,242262,1,0,0:0:0:0:
402,192,242434,128,0,242777:0:0:0:0:
475,192,242434,1,0,0:0:0:0:
256,192,242434,1,0,0:0:0:0:
109,192,242605,128,0,242777:0:0:0:0:
256,192,242605,1,0,0:0:0:0:
36,192,242777,128,0,243891:0:0:0:0:
182,192,242777,1,0,0:0:0:0:
475,192,242777,1,0,0:0:0:0:
329,192,242777,1,0,0:0:0:0:
182,192,242948,128,0,243720:0:0:0:0:
256,192,243120,128,0,243548:0:0:0:0:
402,192,243291,128,0,243377:0:0:0:0:
402,192,243462,128,0,244148:0:0:0:0:
256,192,243634,128,0,244148:0:0:0:0:
182,192,243805,128,0,244148:0:0:0:0:
36,192,243977,128,0,244148:0:0:0:0:
109,192,244148,1,0,0:0:0:0:
475,192,244148,1,0,0:0:0:0:
329,192,244148,128,0,244491:0:0:0:0:
475,192,244320,1,0,0:0:0:0:
182,192,244320,128,0,244662:0:0:0:0:
36,192,244320,1,0,0:0:0:0:
402,192,244405,1,0,0:0:0:0:
36,192,244491,128,0,244662:0:0:0:0:
475,192,244491,1,0,0:0:0:0:
109,192,244491,1,0,0:0:0:0:
329,192,244662,1,0,0:0:0:0:
402,192,244662,128,0,245005:0:0:0:0:
256,192,244662,1,0,0:0:0:0:
109,192,244748,1,0,0:0:0:0:
256,192,244834,128,0,245177:0:0:0:0:
36,192,244834,1,0,0:0:0:0:
475,192,244834,1,0,0:0:0:0:
36,192,245005,1,0,0:0:0:0:
109,192,245005,128,0,245177:0:0:0:0:
475,192,245005,1,0,0:0:0:0:
329,192,245091,1,0,0:0:0:0:
475,192,245177,128,0,245520:0:0:0:0:
36,192,245177,1,0,0:0:0:0:
402,192,245177,1,0,0:0:0:0:
109,192,245348,1,0,0:0:0:0:
329,192,245348,128,0,245691:0:0:0:0:
256,192,245348,1,0,0:0:0:0:
36,192,245434,1,0,0:0:0:0:
182,192,245520,128,0,245691:0:0:0:0:
109,192,245520,1,0,0:0:0:0:
402,192,245520,1,0,0:0:0:0:
36,192,245691,1,0,0:0:0:0:
475,192,245691,128,0,246034:0:0:0:0:
402,192,245691,1,0,0:0:0:0:
109,192,245777,1,0,0:0:0:0:
329,192,245862,128,0,246205:0:0:0:0:
256,192,245862,1,0,0:0:0:0:
36,192,245862,1,0,0:0:0:0:
36,192,246034,1,0,0:0:0:0:
182,192,246034,128,0,246205:0:0:0:0:
109,192,246034,1,0,0:0:0:0:
402,192,246120,1,0,0:0:0:0:
36,192,246205,128,0,246891:0:0:0:0:
256,192,246205,1,0,0:0:0:0:
475,192,246205,1,0,0:0:0:0:
256,192,246377,1,0,0:0:0:0:
182,192,246377,128,0,246634:0:0:0:0:
475,192,246377,1,0,0:0:0:0:
402,192,246462,1,0,0:0:0:0:
329,192,246548,128,0,246805:0:0:0:0:
109,192,246548,1,0,0:0:0:0:
475,192,246548,1,0,0:0:0:0:
475,192,246720,1,0,0:0:0:0:
182,192,246720,128,0,246891:0:0:0:0:
109,192,246720,1,0,0:0:0:0:
402,192,246805,1,0,0:0:0:0:
329,192,246891,128,0,247234:0:0:0:0:
475,192,246891,1,0,0:0:0:0:
256,192,246891,1,0,0:0:0:0:
475,192,247062,128,0,247234:0:0:0:0:
109,192,247062,1,0,0:0:0:0:
182,192,247148,1,0,0:0:0:0:
109,192,247234,128,0,247577:0:0:0:0:
36,192,247234,1,0,0:0:0:0:
256,192,247234,1,0,0:0:0:0:
256,192,247405,128,0,247577:0:0:0:0:
475,192,247405,1,0,0:0:0:0:
402,192,247405,1,0,0:0:0:0:
329,192,247491,1,0,0:0:0:0:
402,192,247577,128,0,247920:0:0:0:0:
182,192,247577,1,0,0:0:0:0:
36,192,247577,1,0,0:0:0:0:
36,192,247748,128,0,247920:0:0:0:0:
109,192,247748,1,0,0:0:0:0:
182,192,247748,1,0,0:0:0:0:
329,192,247834,1,0,0:0:0:0:
256,192,247920,128,0,248262:0:0:0:0:
109,192,247920,1,0,0:0:0:0:
475,192,247920,1,0,0:0:0:0:
475,192,248091,128,0,248262:0:0:0:0:
182,192,248091,1,0,0:0:0:0:
36,192,248091,1,0,0:0:0:0:
402,192,248177,1,0,0:0:0:0:
109,192,248262,128,0,248605:0:0:0:0:
329,192,248262,128,0,248434:0:0:0:0:
36,192,248262,1,0,0:0:0:0:
182,192,248262,1,0,0:0:0:0:
182,192,248434,128,0,248605:0:0:0:0:
402,192,248434,128,0,248605:0:0:0:0:
475,192,248434,1,0,0:0:0:0:
329,192,248520,1,0,0:0:0:0:
256,192,248605,128,0,248948:0:0:0:0:
475,192,248605,128,0,248777:0:0:0:0:
36,192,248605,1,0,0:0:0:0:
182,192,248777,128,0,248948:0:0:0:0:
402,192,248777,128,0,248948:0:0:0:0:
36,192,248777,1,0,0:0:0:0:
109,192,248862,1,0,0:0:0:0:
36,192,248948,128,0,249462:0:0:0:0:
475,192,248948,128,0,249462:0:0:0:0:
329,192,248948,1,0,0:0:0:0:
109,192,249120,1,0,0:0:0:0:
329,192,249120,1,0,0:0:0:0:
256,192,249205,1,0,0:0:0:0:
182,192,249291,1,0,0:0:0:0:
402,192,249291,1,0,0:0:0:0:
182,192,249462,1,0,0:0:0:0:
402,192,249462,1,0,0:0:0:0:
36,192,249634,1,0,0:0:0:0:
475,192,249634,1,0,0:0:0:0:
182,192,249634,128,0,249977:0:0:0:0:
329,192,249805,128,0,249977:0:0:0:0:
36,192,249805,1,0,0:0:0:0:
475,192,249805,1,0,0:0:0:0:
109,192,249891,1,0,0:0:0:0:
475,192,249977,128,0,250148:0:0:0:0:
36,192,249977,1,0,0:0:0:0:
402,192,249977,1,0,0:0:0:0:
109,192,250148,128,0,250491:0:0:0:0:
256,192,250148,1,0,0:0:0:0:
402,192,250148,1,0,0:0:0:0:
182,192,250234,1,0,0:0:0:0:
256,192,250320,128,0,250491:0:0:0:0:
475,192,250320,1,0,0:0:0:0:
329,192,250320,1,0,0:0:0:0:
402,192,250491,128,0,250662:0:0:0:0:
36,192,250491,1,0,0:0:0:0:
475,192,250491,1,0,0:0:0:0:
109,192,250577,1,0,0:0:0:0:
36,192,250662,128,0,251005:0:0:0:0:
182,192,250662,1,0,0:0:0:0:
329,192,250662,1,0,0:0:0:0:
182,192,250834,128,0,251005:0:0:0:0:
475,192,250834,1,0,0:0:0:0:
329,192,250834,1,0,0:0:0:0:
109,192,250920,1,0,0:0:0:0:
329,192,251005,128,0,251177:0:0:0:0:
256,192,251005,1,0,0:0:0:0:
475,192,251005,1,0,0:0:0:0:
109,192,251177,128,0,251520:0:0:0:0:
475,192,251177,1,0,0:0:0:0:
182,192,251177,1,0,0:0:0:0:
402,192,251262,1,0,0:0:0:0:
256,192,251348,128,0,251520:0:0:0:0:
329,192,251348,1,0,0:0:0:0:
36,192,251348,1,0,0:0:0:0:
402,192,251520,128,0,251691:0:0:0:0:
182,192,251520,1,0,0:0:0:0:
475,192,251520,1,0,0:0:0:0:
256,192,251605,1,0,0:0:0:0:
36,192,251691,128,0,252205:0:0:0:0:
182,192,251691,128,0,251862:0:0:0:0:
329,192,251691,1,0,0:0:0:0:
109,192,251691,1,0,0:0:0:0:
329,192,251862,128,0,252034:0:0:0:0:
475,192,251862,128,0,252377:0:0:0:0:
402,192,251862,1,0,0:0:0:0:
256,192,251948,1,0,0:0:0:0:
182,192,252034,128,0,252377:0:0:0:0:
109,192,252034,1,0,0:0:0:0:
329,192,252205,128,0,252377:0:0:0:0:
109,192,252205,1,0,0:0:0:0:
256,192,252291,1,0,0:0:0:0:
36,192,252377,128,0,252548:0:0:0:0:
402,192,252377,1,0,0:0:0:0:
475,192,252548,128,0,252891:0:0:0:0:
109,192,252548,1,0,0:0:0:0:
329,192,252548,1,0,0:0:0:0:
182,192,252634,1,0,0:0:0:0:
36,192,252720,128,0,252891:0:0:0:0:
256,192,252720,1,0,0:0:0:0:
402,192,252720,1,0,0:0:0:0:
256,192,252891,128,0,253062:0:0:0:0:
109,192,252891,1,0,0:0:0:0:
402,192,252891,1,0,0:0:0:0:
329,192,252977,1,0,0:0:0:0:
475,192,253062,128,0,253405:0:0:0:0:
182,192,253062,1,0,0:0:0:0:
36,192,253062,1,0,0:0:0:0:
36,192,253234,128,0,253405:0:0:0:0:
109,192,253234,1,0,0:0:0:0:
329,192,253234,1,0,0:0:0:0:
182,192,253320,1,0,0:0:0:0:
256,192,253405,128,0,253577:0:0:0:0:
402,192,253405,1,0,0:0:0:0:
329,192,253405,1,0,0:0:0:0:
475,192,253577,128,0,253748:0:0:0:0:
36,192,253577,1,0,0:0:0:0:
402,192,253577,1,0,0:0:0:0:
182,192,253662,1,0,0:0:0:0:
36,192,253748,128,0,254091:0:0:0:0:
329,192,253748,1,0,0:0:0:0:
109,192,253748,1,0,0:0:0:0:
475,192,253920,128,0,254091:0:0:0:0:
182,192,253920,1,0,0:0:0:0:
402,192,253920,1,0,0:0:0:0:
256,192,254005,1,0,0:0:0:0:
182,192,254091,128,0,254434:0:0:0:0:
329,192,254091,1,0,0:0:0:0:
109,192,254091,1,0,0:0:0:0:
475,192,254262,128,0,254434:0:0:0:0:
329,192,254262,1,0,0:0:0:0:
36,192,254262,1,0,0:0:0:0:
402,192,254348,1,0,0:0:0:0:
329,192,254434,128,0,254605:0:0:0:0:
36,192,254434,128,0,254777:0:0:0:0:
256,192,254434,1,0,0:0:0:0:
109,192,254434,1,0,0:0:0:0:
182,192,254605,128,0,254777:0:0:0:0:
475,192,254691,1,0,0:0:0:0:
329,192,254691,1,0,0:0:0:0:
109,192,254777,128,0,255120:0:0:0:0:
475,192,254777,1,0,0:0:0:0:
329,192,254777,1,0,0:0:0:0:
256,192,254948,128,0,255120:0:0:0:0:
475,192,254948,1,0,0:0:0:0:
475,192,255120,1,0,0:0:0:0:
36,192,255120,1,0,0:0:0:0:
329,192,255120,128,0,255291:0:0:0:0:
182,192,255291,128,0,255462:0:0:0:0:
36,192,255291,1,0,0:0:0:0:
402,192,255291,1,0,0:0:0:0:
256,192,255377,1,0,0:0:0:0:
36,192,255462,128,0,255634:0:0:0:0:
402,192,255462,1,0,0:0:0:0:
475,192,255462,1,0,0:0:0:0:
402,192,255634,128,0,255805:0:0:0:0:
109,192,255634,1,0,0:0:0:0:
329,192,255634,1,0,0:0:0:0:
182,192,255720,1,0,0:0:0:0:
256,192,255805,128,0,255977:0:0:0:0:
36,192,255805,1,0,0:0:0:0:
475,192,255805,1,0,0:0:0:0:
475,192,255891,1,0,0:0:0:0:
109,192,255977,128,0,256148:0:0:0:0:
402,192,255977,1,0,0:0:0:0:
182,192,255977,1,0,0:0:0:0:
329,192,256062,1,0,0:0:0:0:
475,192,256148,128,0,256320:0:0:0:0:
256,192,256148,1,0,0:0:0:0:
36,192,256148,1,0,0:0:0:0:
329,192,256320,128,0,256491:0:0:0:0:
109,192,256320,1,0,0:0:0:0:
402,192,256320,1,0,0:0:0:0:
36,192,256405,1,0,0:0:0:0:
182,192,256491,128,0,256662:0:0:0:0:
475,192,256491,1,0,0:0:0:0:
256,192,256491,1,0,0:0:0:0:
402,192,256662,128,0,256834:0:0:0:0:
36,192,256662,1,0,0:0:0:0:
329,192,256662,1,0,0:0:0:0:
109,192,256748,1,0,0:0:0:0:
256,192,256834,128,0,257005:0:0:0:0:
182,192,256834,1,0,0:0:0:0:
475,192,256834,1,0,0:0:0:0:
109,192,257005,128,0,257177:0:0:0:0:
329,192,257005,1,0,0:0:0:0:
36,192,257005,1,0,0:0:0:0:
402,192,257091,1,0,0:0:0:0:
329,192,257177,128,0,257348:0:0:0:0:
182,192,257177,1,0,0:0:0:0:
475,192,257177,1,0,0:0:0:0:
182,192,257348,128,0,257520:0:0:0:0:
36,192,257348,1,0,0:0:0:0:
402,192,257348,1,0,0:0:0:0:
256,192,257434,1,0,0:0:0:0:
36,192,257520,128,0,257691:0:0:0:0:
475,192,257520,1,0,0:0:0:0:
109,192,257520,1,0,0:0:0:0:
182,192,257691,128,0,257862:0:0:0:0:
329,192,257691,1,0,0:0:0:0:
475,192,257691,1,0,0:0:0:0:
402,192,257777,1,0,0:0:0:0:
329,192,257862,128,0,258205:0:0:0:0:
36,192,257862,1,0,0:0:0:0:
256,192,257862,1,0,0:0:0:0:
475,192,258034,128,0,258205:0:0:0:0:
36,192,258034,1,0,0:0:0:0:
256,192,258034,1,0,0:0:0:0:
182,192,258120,1,0,0:0:0:0:
36,192,258205,128,0,258377:0:0:0:0:
109,192,258205,1,0,0:0:0:0:
402,192,258205,1,0,0:0:0:0:
182,192,258377,128,0,258720:0:0:0:0:
256,192,258377,1,0,0:0:0:0:
475,192,258377,1,0,0:0:0:0:
402,192,258462,1,0,0:0:0:0:
329,192,258548,128,0,258720:0:0:0:0:
36,192,258548,1,0,0:0:0:0:
475,192,258548,1,0,0:0:0:0:
36,192,258720,128,0,258891:0:0:0:0:
109,192,258720,1,0,0:0:0:0:
402,192,258720,1,0,0:0:0:0:
256,192,258805,1,0,0:0:0:0:
182,192,258891,128,0,259234:0:0:0:0:
475,192,258891,1,0,0:0:0:0:
329,192,258891,1,0,0:0:0:0:
329,192,259062,128,0,259234:0:0:0:0:
36,192,259062,1,0,0:0:0:0:
402,192,259062,1,0,0:0:0:0:
475,192,259148,1,0,0:0:0:0:
402,192,259234,1,0,0:0:0:0:
109,192,259234,1,0,0:0:0:0:
36,192,259234,128,0,259577:0:0:0:0:
182,192,259405,128,0,259577:0:0:0:0:
475,192,259405,1,0,0:0:0:0:
256,192,259405,1,0,0:0:0:0:
402,192,259491,1,0,0:0:0:0:
329,192,259577,128,0,259920:0:0:0:0:
109,192,259577,1,0,0:0:0:0:
475,192,259577,1,0,0:0:0:0:
475,192,259748,128,0,259920:0:0:0:0:
36,192,259748,1,0,0:0:0:0:
182,192,259748,1,0,0:0:0:0:
109,192,259834,1,0,0:0:0:0:
36,192,259920,128,0,260262:0:0:0:0:
182,192,259920,128,0,260091:0:0:0:0:
402,192,259920,1,0,0:0:0:0:
256,192,260091,128,0,260262:0:0:0:0:
109,192,260091,128,0,260434:0:0:0:0:
329,192,260091,1,0,0:0:0:0:
402,192,260177,1,0,0:0:0:0:
182,192,260262,128,0,260605:0:0:0:0:
475,192,260262,1,0,0:0:0:0:
329,192,260262,128,0,260605:0:0:0:0:
475,192,260434,128,0,260605:0:0:0:0:
109,192,260605,1,0,0:0:0:0:
36,192,260605,128,0,260777:0:0:0:0:
182,192,260777,128,0,260948:0:0:0:0:
329,192,260777,1,0,0:0:0:0:
475,192,260777,1,0,0:0:0:0:
402,192,260862,1,0,0:0:0:0:
329,192,260948,128,0,261291:0:0:0:0:
36,192,260948,1,0,0:0:0:0:
475,192,260948,1,0,0:0:0:0:
109,192,261120,128,0,261291:0:0:0:0:
256,192,261120,1,0,0:0:0:0:
36,192,261120,1,0,0:0:0:0:
402,192,261205,1,0,0:0:0:0:
256,192,261291,128,0,261462:0:0:0:0:
475,192,261291,1,0,0:0:0:0:
182,192,261291,1,0,0:0:0:0:
402,192,261462,128,0,261805:0:0:0:0:
36,192,261462,1,0,0:0:0:0:
329,192,261462,1,0,0:0:0:0:
109,192,261548,1,0,0:0:0:0:
36,192,261634,128,0,261805:0:0:0:0:
182,192,261634,1,0,0:0:0:0:
329,192,261634,1,0,0:0:0:0:
182,192,261805,128,0,261977:0:0:0:0:
256,192,261805,1,0,0:0:0:0:
475,192,261805,1,0,0:0:0:0:
402,192,261891,1,0,0:0:0:0:
329,192,261977,128,0,262320:0:0:0:0:
36,192,261977,1,0,0:0:0:0:
475,192,261977,1,0,0:0:0:0:
109,192,262148,128,0,262320:0:0:0:0:
256,192,262148,1,0,0:0:0:0:
182,192,262148,1,0,0:0:0:0:
402,192,262234,1,0,0:0:0:0:
256,192,262320,128,0,262491:0:0:0:0:
36,192,262320,1,0,0:0:0:0:
475,192,262320,1,0,0:0:0:0:
402,192,262491,128,0,263005:0:0:0:0:
182,192,262491,1,0,0:0:0:0:
36,192,262491,1,0,0:0:0:0:
109,192,262577,1,0,0:0:0:0:
182,192,262662,128,0,262834:0:0:0:0:
36,192,262662,1,0,0:0:0:0:
329,192,262662,1,0,0:0:0:0:
329,192,262834,128,0,263005:0:0:0:0:
109,192,262834,1,0,0:0:0:0:
256,192,262834,1,0,0:0:0:0:
182,192,262920,1,0,0:0:0:0:
475,192,263005,128,0,263348:0:0:0:0:
36,192,263005,1,0,0:0:0:0:
109,192,263005,1,0,0:0:0:0:
329,192,263177,128,0,263348:0:0:0:0:
256,192,263177,1,0,0:0:0:0:
36,192,263177,1,0,0:0:0:0:
182,192,263262,1,0,0:0:0:0:
36,192,263348,128,0,263520:0:0:0:0:
109,192,263348,1,0,0:0:0:0:
402,192,263348,1,0,0:0:0:0:
475,192,263520,128,0,263691:0:0:0:0:
109,192,263520,1,0,0:0:0:0:
402,192,263520,1,0,0:0:0:0:
36,192,263691,128,0,263862:0:0:0:0:
109,192,263691,1,0,0:0:0:0:
402,192,263691,1,0,0:0:0:0:
256,192,263862,128,0,264034:0:0:0:0:
109,192,263862,1,0,0:0:0:0:
402,192,263862,1,0,0:0:0:0:
475,192,264034,128,0,264205:0:0:0:0:
109,192,264034,1,0,0:0:0:0:
402,192,264034,1,0,0:0:0:0:
36,192,264205,128,0,264377:0:0:0:0:
402,192,264205,1,0,0:0:0:0:
109,192,264205,1,0,0:0:0:0:
109,192,264377,1,0,0:0:0:0:
256,192,264377,128,0,264548:0:0:0:0:
402,192,264377,1,0,0:0:0:0:
475,192,264548,128,0,264720:0:0:0:0:
109,192,264548,1,0,0:0:0:0:
402,192,264548,1,0,0:0:0:0:
182,192,264720,128,0,265405:0:0:0:0:
36,192,264720,1,0,0:0:0:0:
36,192,264891,128,0,265405:0:0:0:0:
329,192,264891,1,0,0:0:0:0:
329,192,265062,128,0,265405:0:0:0:0:
475,192,265062,1,0,0:0:0:0:
475,192,265234,128,0,265405:0:0:0:0:
256,192,265234,1,0,0:0:0:0:
402,192,265405,128,0,265748:0:0:0:0:
109,192,265405,1,0,0:0:0:0:
256,192,265491,1,0,0:0:0:0:
109,192,265577,1,0,0:0:0:0:
475,192,265577,128,0,265748:0:0:0:0:
256,192,265662,1,0,0:0:0:0:
182,192,265748,1,0,0:0:0:0:
36,192,265748,128,0,266091:0:0:0:0:
329,192,265834,1,0,0:0:0:0:
256,192,265920,1,0,0:0:0:0:
109,192,265920,128,0,266091:0:0:0:0:
182,192,266005,1,0,0:0:0:0:
256,192,266091,1,0,0:0:0:0:
475,192,266091,1,0,0:0:0:0:
329,192,266091,128,0,266348:0:0:0:0:
182,192,266262,128,0,266520:0:0:0:0:
329,192,266434,128,0,266777:0:0:0:0:
182,192,266605,128,0,266777:0:0:0:0:
36,192,266777,1,0,0:0:0:0:
475,192,266777,1,0,0:0:0:0:
36,192,267034,1,0,0:0:0:0:
182,192,267034,1,0,0:0:0:0:
329,192,267034,1,0,0:0:0:0:
475,192,267034,1,0,0:0:0:0:
36,192,267291,1,0,0:0:0:0:
182,192,267291,1,0,0:0:0:0:
329,192,267291,1,0,0:0:0:0:
475,192,267291,1,0,0:0:0:0:
36,192,267634,1,0,0:0:0:0:
475,192,267634,1,0,0:0:0:0:
36,192,267805,1,0,0:0:0:0:
475,192,267805,1,0,0:0:0:0:
182,192,267805,1,0,0:0:0:0:
329,192,267805,1,0,0:0:0:0:
329,192,267977,128,0,268491:0:0:0:0:
256,192,267977,1,0,0:0:0:0:
109,192,267977,1,0,0:0:0:0:
402,192,268062,1,0,0:0:0:0:
36,192,268148,1,0,0:0:0:0:
182,192,268148,1,0,0:0:0:0:
109,192,268320,1,0,0:0:0:0:
256,192,268320,1,0,0:0:0:0:
402,192,268405,1,0,0:0:0:0:
182,192,268491,128,0,268834:0:0:0:0:
36,192,268491,1,0,0:0:0:0:
475,192,268491,1,0,0:0:0:0:
256,192,268662,1,0,0:0:0:0:
475,192,268662,1,0,0:0:0:0:
402,192,268748,1,0,0:0:0:0:
36,192,268834,128,0,270205:0:0:0:0:
329,192,268834,1,0,0:0:0:0:
109,192,268834,1,0,0:0:0:0:
329,192,269005,128,0,269177:0:0:0:0:
182,192,269005,1,0,0:0:0:0:
475,192,269005,1,0,0:0:0:0:
256,192,269091,1,0,0:0:0:0:
475,192,269177,128,0,269348:0:0:0:0:
109,192,269177,1,0,0:0:0:0:
402,192,269177,1,0,0:0:0:0:
182,192,269348,1,0,0:0:0:0:
402,192,269348,1,0,0:0:0:0:
256,192,269434,1,0,0:0:0:0:
182,192,269520,128,0,270205:0:0:0:0:
329,192,269520,1,0,0:0:0:0:
475,192,269520,1,0,0:0:0:0:
329,192,269691,128,0,269862:0:0:0:0:
475,192,269691,1,0,0:0:0:0:
109,192,269691,1,0,0:0:0:0:
256,192,269777,1,0,0:0:0:0:
402,192,269862,128,0,270034:0:0:0:0:
109,192,269862,1,0,0:0:0:0:
475,192,269862,1,0,0:0:0:0:
475,192,270034,128,0,270205:0:0:0:0:
329,192,270034,1,0,0:0:0:0:
256,192,270120,1,0,0:0:0:0:
329,192,270205,128,0,271577:0:0:0:0:
109,192,270205,1,0,0:0:0:0:
256,192,270291,1,0,0:0:0:0:
402,192,270377,1,0,0:0:0:0:
109,192,270462,1,0,0:0:0:0:
182,192,270548,128,0,270720:0:0:0:0:
475,192,270548,1,0,0:0:0:0:
36,192,270548,1,0,0:0:0:0:
402,192,270634,1,0,0:0:0:0:
36,192,270720,128,0,270891:0:0:0:0:
256,192,270720,1,0,0:0:0:0:
402,192,270805,1,0,0:0:0:0:
475,192,270891,128,0,271577:0:0:0:0:
109,192,270891,1,0,0:0:0:0:
256,192,270891,1,0,0:0:0:0:
182,192,270977,1,0,0:0:0:0:
256,192,271062,1,0,0:0:0:0:
109,192,271148,1,0,0:0:0:0:
36,192,271234,1,0,0:0:0:0:
402,192,271234,1,0,0:0:0:0:
256,192,271405,1,0,0:0:0:0:
36,192,271405,1,0,0:0:0:0:
109,192,271577,128,0,272605:0:0:0:0:
256,192,271577,1,0,0:0:0:0:
36,192,271577,1,0,0:0:0:0:
475,192,271662,1,0,0:0:0:0:
329,192,271748,128,0,271920:0:0:0:0:
182,192,271748,1,0,0:0:0:0:
402,192,271834,1,0,0:0:0:0:
475,192,271920,128,0,272091:0:0:0:0:
256,192,271920,1,0,0:0:0:0:
36,192,271920,1,0,0:0:0:0:
182,192,272005,1,0,0:0:0:0:
256,192,272091,128,0,272262:0:0:0:0:
402,192,272091,1,0,0:0:0:0:
329,192,272177,1,0,0:0:0:0:
402,192,272262,128,0,272434:0:0:0:0:
182,192,272262,1,0,0:0:0:0:
475,192,272262,1,0,0:0:0:0:
329,192,272348,1,0,0:0:0:0:
475,192,272434,128,0,272605:0:0:0:0:
182,192,272434,1,0,0:0:0:0:
329,192,272520,1,0,0:0:0:0:
256,192,272605,128,0,272948:0:0:0:0:
36,192,272605,1,0,0:0:0:0:
402,192,272605,1,0,0:0:0:0:
182,192,272691,1,0,0:0:0:0:
109,192,272777,128,0,272948:0:0:0:0:
329,192,272777,1,0,0:0:0:0:
475,192,272862,1,0,0:0:0:0:
402,192,272948,128,0,274320:0:0:0:0:
329,192,272948,1,0,0:0:0:0:
36,192,272948,1,0,0:0:0:0:
182,192,273034,1,0,0:0:0:0:
36,192,273120,128,0,273291:0:0:0:0:
329,192,273120,1,0,0:0:0:0:
182,192,273205,1,0,0:0:0:0:
109,192,273291,128,0,273462:0:0:0:0:
256,192,273291,1,0,0:0:0:0:
475,192,273291,1,0,0:0:0:0:
329,192,273377,1,0,0:0:0:0:
182,192,273462,128,0,274320:0:0:0:0:
36,192,273462,1,0,0:0:0:0:
256,192,273548,1,0,0:0:0:0:
36,192,273634,128,0,273805:0:0:0:0:
329,192,273634,1,0,0:0:0:0:
475,192,273634,1,0,0:0:0:0:
109,192,273720,1,0,0:0:0:0:
475,192,273805,128,0,273977:0:0:0:0:
329,192,273805,1,0,0:0:0:0:
256,192,273891,1,0,0:0:0:0:
36,192,273977,128,0,274320:0:0:0:0:
109,192,273977,1,0,0:0:0:0:
329,192,273977,1,0,0:0:0:0:
256,192,274062,1,0,0:0:0:0:
329,192,274148,1,0,0:0:0:0:
475,192,274234,1,0,0:0:0:0:
109,192,274320,128,0,274405:0:0:0:0:
256,192,274320,1,0,0:0:0:0:
329,192,274320,1,0,0:0:0:0:
475,192,274405,128,0,274491:0:0:0:0:
329,192,274491,128,0,274834:0:0:0:0:
36,192,274491,128,0,274577:0:0:0:0:
256,192,274491,1,0,0:0:0:0:
402,192,274577,128,0,274662:0:0:0:0:
109,192,274662,128,0,274748:0:0:0:0:
36,192,274662,1,0,0:0:0:0:
182,192,274662,1,0,0:0:0:0:
475,192,274748,128,0,274834:0:0:0:0:
182,192,274834,128,0,274920:0:0:0:0:
256,192,274834,1,0,0:0:0:0:
402,192,274920,128,0,275005:0:0:0:0:
329,192,275005,128,0,275348:0:0:0:0:
36,192,275005,128,0,275091:0:0:0:0:
109,192,275005,1,0,0:0:0:0:
182,192,275005,1,0,0:0:0:0:
256,192,275091,128,0,275177:0:0:0:0:
109,192,275177,128,0,275262:0:0:0:0:
475,192,275177,1,0,0:0:0:0:
402,192,275262,128,0,275348:0:0:0:0:
182,192,275348,128,0,275434:0:0:0:0:
36,192,275348,1,0,0:0:0:0:
475,192,275348,1,0,0:0:0:0:
329,192,275434,128,0,275520:0:0:0:0:
256,192,275520,128,0,275605:0:0:0:0:
109,192,275520,1,0,0:0:0:0:
402,192,275605,128,0,275691:0:0:0:0:
182,192,275691,128,0,275862:0:0:0:0:
36,192,275691,128,0,275777:0:0:0:0:
329,192,275691,1,0,0:0:0:0:
256,192,275691,1,0,0:0:0:0:
475,192,275777,128,0,275862:0:0:0:0:
329,192,275862,128,0,276034:0:0:0:0:
36,192,275862,128,0,275948:0:0:0:0:
109,192,275862,1,0,0:0:0:0:
475,192,275948,128,0,276034:0:0:0:0:
256,192,276034,1,0,0:0:0:0:
402,192,276034,1,0,0:0:0:0:
182,192,276034,128,0,276120:0:0:0:0:
36,192,276034,128,0,276205:0:0:0:0:
402,192,276120,128,0,276205:0:0:0:0:
109,192,276205,128,0,276377:0:0:0:0:
256,192,276205,128,0,276291:0:0:0:0:
475,192,276205,1,0,0:0:0:0:
402,192,276291,128,0,276377:0:0:0:0:
329,192,276377,1,0,0:0:0:0:
182,192,276377,1,0,0:0:0:0:
475,192,276377,1,0,0:0:0:0:
36,192,276634,1,0,0:0:0:0:
182,192,276634,1,0,0:0:0:0:
329,192,276634,1,0,0:0:0:0:
475,192,276634,1,0,0:0:0:0:
36,192,276891,1,0,0:0:0:0:
182,192,276891,1,0,0:0:0:0:
329,192,276891,1,0,0:0:0:0:
475,192,276891,1,0,0:0:0:0:
182,192,277062,128,0,277405:0:0:0:0:
329,192,277062,128,0,277405:0:0:0:0:
36,192,277405,1,0,0:0:0:0:
475,192,277405,1,0,0:0:0:0:
256,192,277405,1,0,0:0:0:0:
402,192,277405,128,0,278434:0:0:0:0:
109,192,277491,1,0,0:0:0:0:
36,192,277577,128,0,277748:0:0:0:0:
182,192,277577,1,0,0:0:0:0:
256,192,277662,1,0,0:0:0:0:
109,192,277748,128,0,277920:0:0:0:0:
329,192,277748,1,0,0:0:0:0:
475,192,277748,1,0,0:0:0:0:
256,192,277834,1,0,0:0:0:0:
182,192,277920,128,0,278091:0:0:0:0:
36,192,277920,1,0,0:0:0:0:
329,192,278005,1,0,0:0:0:0:
36,192,278091,128,0,278262:0:0:0:0:
256,192,278091,1,0,0:0:0:0:
475,192,278091,1,0,0:0:0:0:
182,192,278177,1,0,0:0:0:0:
109,192,278262,128,0,278434:0:0:0:0:
329,192,278262,1,0,0:0:0:0:
256,192,278348,1,0,0:0:0:0:
182,192,278434,128,0,278948:0:0:0:0:
475,192,278434,1,0,0:0:0:0:
36,192,278434,1,0,0:0:0:0:
329,192,278520,1,0,0:0:0:0:
475,192,278605,128,0,278777:0:0:0:0:
256,192,278605,1,0,0:0:0:0:
36,192,278691,1,0,0:0:0:0:
402,192,278777,128,0,278948:0:0:0:0:
109,192,278777,1,0,0:0:0:0:
329,192,278777,1,0,0:0:0:0:
256,192,278862,1,0,0:0:0:0:
329,192,278948,128,0,279462:0:0:0:0:
36,192,278948,1,0,0:0:0:0:
109,192,279034,1,0,0:0:0:0:
182,192,279120,128,0,279291:0:0:0:0:
475,192,279120,1,0,0:0:0:0:
36,192,279120,1,0,0:0:0:0:
402,192,279205,1,0,0:0:0:0:
36,192,279291,128,0,279462:0:0:0:0:
256,192,279291,1,0,0:0:0:0:
475,192,279377,1,0,0:0:0:0:
182,192,279462,128,0,279805:0:0:0:0:
402,192,279462,1,0,0:0:0:0:
109,192,279462,1,0,0:0:0:0:
256,192,279548,1,0,0:0:0:0:
329,192,279634,128,0,279805:0:0:0:0:
36,192,279634,1,0,0:0:0:0:
109,192,279720,1,0,0:0:0:0:
36,192,279805,128,0,280491:0:0:0:0:
402,192,279805,128,0,279977:0:0:0:0:
256,192,279805,1,0,0:0:0:0:
475,192,279805,1,0,0:0:0:0:
182,192,279891,1,0,0:0:0:0:
475,192,279977,128,0,280148:0:0:0:0:
109,192,279977,1,0,0:0:0:0:
402,192,280062,1,0,0:0:0:0:
256,192,280148,128,0,280320:0:0:0:0:
182,192,280148,1,0,0:0:0:0:
329,192,280148,1,0,0:0:0:0:
402,192,280234,1,0,0:0:0:0:
329,192,280320,128,0,280491:0:0:0:0:
475,192,280320,1,0,0:0:0:0:
109,192,280405,1,0,0:0:0:0:
182,192,280491,128,0,281177:0:0:0:0:
402,192,280491,128,0,280662:0:0:0:0:
256,192,280491,1,0,0:0:0:0:
475,192,280491,1,0,0:0:0:0:
109,192,280577,1,0,0:0:0:0:
36,192,280662,128,0,280834:0:0:0:0:
329,192,280662,1,0,0:0:0:0:
475,192,280748,1,0,0:0:0:0:
256,192,280834,128,0,281005:0:0:0:0:
402,192,280834,1,0,0:0:0:0:
109,192,280834,1,0,0:0:0:0:
329,192,280920,1,0,0:0:0:0:
475,192,281005,128,0,281177:0:0:0:0:
36,192,281005,1,0,0:0:0:0:
109,192,281091,1,0,0:0:0:0:
329,192,281177,128,0,281862:0:0:0:0:
36,192,281177,128,0,281348:0:0:0:0:
256,192,281177,1,0,0:0:0:0:
402,192,281177,1,0,0:0:0:0:
109,192,281262,1,0,0:0:0:0:
182,192,281348,128,0,281520:0:0:0:0:
475,192,281348,1,0,0:0:0:0:
402,192,281434,1,0,0:0:0:0:
475,192,281520,128,0,281691:0:0:0:0:
36,192,281520,1,0,0:0:0:0:
256,192,281520,1,0,0:0:0:0:
109,192,281605,1,0,0:0:0:0:
36,192,281691,128,0,281862:0:0:0:0:
182,192,281691,1,0,0:0:0:0:
402,192,281777,1,0,0:0:0:0:
475,192,281862,128,0,282548:0:0:0:0:
182,192,281862,1,0,0:0:0:0:
256,192,281948,1,0,0:0:0:0:
109,192,282034,128,0,282205:0:0:0:0:
402,192,282034,1,0,0:0:0:0:
329,192,282120,1,0,0:0:0:0:
36,192,282205,1,0,0:0:0:0:
256,192,282205,128,0,282377:0:0:0:0:
182,192,282291,1,0,0:0:0:0:
402,192,282377,128,0,282548:0:0:0:0:
109,192,282377,1,0,0:0:0:0:
329,192,282462,1,0,0:0:0:0:
36,192,282548,1,0,0:0:0:0:
256,192,282548,1,0,0:0:0:0:
182,192,282548,1,0,0:0:0:0:
109,192,282720,1,0,0:0:0:0:
329,192,282720,1,0,0:0:0:0:
256,192,282720,1,0,0:0:0:0:
182,192,282891,1,0,0:0:0:0:
402,192,282891,1,0,0:0:0:0:
329,192,282891,1,0,0:0:0:0:
256,192,283062,1,0,0:0:0:0:
475,192,283062,1,0,0:0:0:0:
402,192,283062,1,0,0:0:0:0:
36,192,283234,1,0,0:0:0:0:
256,192,283234,1,0,0:0:0:0:
182,192,283234,1,0,0:0:0:0:
109,192,283405,1,0,0:0:0:0:
329,192,283405,1,0,0:0:0:0:
256,192,283405,1,0,0:0:0:0:
182,192,283577,1,0,0:0:0:0:
402,192,283577,1,0,0:0:0:0:
329,192,283577,1,0,0:0:0:0:
256,192,283748,1,0,0:0:0:0:
475,192,283748,1,0,0:0:0:0:
182,192,283834,1,0,0:0:0:0:
402,192,283834,1,0,0:0:0:0:
109,192,283920,1,0,0:0:0:0:
329,192,283920,1,0,0:0:0:0:
36,192,283920,1,0,0:0:0:0:
109,192,284091,1,0,0:0:0:0:
329,192,284091,1,0,0:0:0:0:
402,192,284091,1,0,0:0:0:0:
109,192,284262,1,0,0:0:0:0:
329,192,284262,1,0,0:0:0:0:
36,192,284262,1,0,0:0:0:0:
109,192,284434,1,0,0:0:0:0:
329,192,284434,1,0,0:0:0:0:
402,192,284434,1,0,0:0:0:0:
182,192,284605,1,0,0:0:0:0:
402,192,284605,1,0,0:0:0:0:
36,192,284605,1,0,0:0:0:0:
182,192,284777,1,0,0:0:0:0:
402,192,284777,1,0,0:0:0:0:
329,192,284777,1,0,0:0:0:0:
182,192,284948,1,0,0:0:0:0:
402,192,284948,1,0,0:0:0:0:
109,192,284948,1,0,0:0:0:0:
182,192,285120,1,0,0:0:0:0:
402,192,285120,1,0,0:0:0:0:
475,192,285120,1,0,0:0:0:0:
109,192,285205,1,0,0:0:0:0:
329,192,285205,1,0,0:0:0:0:
36,192,285291,1,0,0:0:0:0:
475,192,285291,1,0,0:0:0:0:
182,192,285377,1,0,0:0:0:0:
402,192,285377,1,0,0:0:0:0:
36,192,285462,1,0,0:0:0:0:
329,192,285462,1,0,0:0:0:0:
182,192,285548,1,0,0:0:0:0:
256,192,285548,1,0,0:0:0:0:
36,192,285634,1,0,0:0:0:0:
329,192,285634,1,0,0:0:0:0:
182,192,285720,1,0,0:0:0:0:
402,192,285720,1,0,0:0:0:0:
36,192,285805,1,0,0:0:0:0:
475,192,285805,1,0,0:0:0:0:
182,192,285891,1,0,0:0:0:0:
402,192,285891,1,0,0:0:0:0:
36,192,285977,1,0,0:0:0:0:
329,192,285977,1,0,0:0:0:0:
475,192,285977,1,0,0:0:0:0:
182,192,286062,1,0,0:0:0:0:
256,192,286062,1,0,0:0:0:0:
36,192,286148,1,0,0:0:0:0:
329,192,286148,1,0,0:0:0:0:
182,192,286234,1,0,0:0:0:0:
402,192,286234,1,0,0:0:0:0:
36,192,286320,1,0,0:0:0:0:
475,192,286320,1,0,0:0:0:0:
182,192,286405,1,0,0:0:0:0:
402,192,286405,1,0,0:0:0:0:
36,192,286491,1,0,0:0:0:0:
329,192,286491,1,0,0:0:0:0:
182,192,286577,1,0,0:0:0:0:
402,192,286577,1,0,0:0:0:0:
475,192,286662,1,0,0:0:0:0:
36,192,286662,1,0,0:0:0:0:
256,192,286662,1,0,0:0:0:0:
109,192,286748,1,0,0:0:0:0:
402,192,286748,1,0,0:0:0:0:
36,192,286834,128,0,287005:0:0:0:0:
182,192,286834,128,0,287005:0:0:0:0:
329,192,286834,128,0,287005:0:0:0:0:
475,192,286834,128,0,287005:0:0:0:0:
109,192,287177,128,0,287348:0:0:0:0:
256,192,287177,128,0,287348:0:0:0:0:
402,192,287177,128,0,287348:0:0:0:0:
36,192,287348,1,0,0:0:0:0:
182,192,287348,1,0,0:0:0:0:
329,192,287348,1,0,0:0:0:0:
475,192,287348,1,0,0:0:0:0:
36,192,287605,1,0,0:0:0:0:
182,192,287605,1,0,0:0:0:0:
329,192,287605,1,0,0:0:0:0:
475,192,287605,1,0,0:0:0:0:
36,192,287862,1,0,0:0:0:0:
182,192,287862,1,0,0:0:0:0:
329,192,287862,1,0,0:0:0:0:
475,192,287862,1,0,0:0:0:0:
256,192,288034,128,0,288377:0:0:0:0:
36,192,288377,1,0,0:0:0:0:
475,192,288377,1,0,0:0:0:0:
329,192,288377,1,0,0:0:0:0:
109,192,288377,1,0,0:0:0:0:
402,192,288377,128,0,288548:0:0:0:0:
182,192,288462,1,0,0:0:0:0:
109,192,288548,128,0,288720:0:0:0:0:
329,192,288548,1,0,0:0:0:0:
182,192,288634,1,0,0:0:0:0:
256,192,288720,128,0,288891:0:0:0:0:
36,192,288720,1,0,0:0:0:0:
329,192,288720,1,0,0:0:0:0:
475,192,288720,1,0,0:0:0:0:
109,192,288805,1,0,0:0:0:0:
402,192,288891,128,0,289062:0:0:0:0:
329,192,288891,1,0,0:0:0:0:
256,192,288977,1,0,0:0:0:0:
182,192,289062,128,0,289234:0:0:0:0:
36,192,289062,1,0,0:0:0:0:
109,192,289062,1,0,0:0:0:0:
475,192,289062,1,0,0:0:0:0:
402,192,289148,1,0,0:0:0:0:
329,192,289234,128,0,289577:0:0:0:0:
256,192,289234,1,0,0:0:0:0:
182,192,289320,1,0,0:0:0:0:
475,192,289405,1,0,0:0:0:0:
36,192,289405,1,0,0:0:0:0:
402,192,289405,1,0,0:0:0:0:
109,192,289491,1,0,0:0:0:0:
256,192,289577,128,0,289748:0:0:0:0:
475,192,289577,1,0,0:0:0:0:
402,192,289662,1,0,0:0:0:0:
182,192,289748,128,0,289920:0:0:0:0:
36,192,289748,1,0,0:0:0:0:
329,192,289748,1,0,0:0:0:0:
109,192,289748,1,0,0:0:0:0:
475,192,289834,1,0,0:0:0:0:
402,192,289920,1,0,0:0:0:0:
256,192,289920,128,0,290091:0:0:0:0:
109,192,290005,1,0,0:0:0:0:
329,192,290091,128,0,290348:0:0:0:0:
475,192,290091,128,0,290348:0:0:0:0:
36,192,290091,1,0,0:0:0:0:
182,192,290091,1,0,0:0:0:0:
182,192,290262,128,0,290520:0:0:0:0:
36,192,290262,128,0,290520:0:0:0:0:
329,192,290434,128,0,290691:0:0:0:0:
475,192,290434,128,0,290691:0:0:0:0:
109,192,290434,1,0,0:0:0:0:
402,192,290434,1,0,0:0:0:0:
182,192,290605,128,0,290777:0:0:0:0:
36,192,290605,128,0,290777:0:0:0:0:
475,192,290777,1,0,0:0:0:0:
329,192,290777,1,0,0:0:0:0:
109,192,290777,128,0,290948:0:0:0:0:
402,192,290777,128,0,290948:0:0:0:0:
329,192,290948,128,0,291120:0:0:0:0:
182,192,290948,1,0,0:0:0:0:
36,192,290948,128,0,291120:0:0:0:0:
256,192,291034,1,0,0:0:0:0:
182,192,291120,128,0,291291:0:0:0:0:
402,192,291120,128,0,291291:0:0:0:0:
109,192,291120,1,0,0:0:0:0:
475,192,291291,128,0,291462:0:0:0:0:
256,192,291291,128,0,291462:0:0:0:0:
329,192,291291,1,0,0:0:0:0:
109,192,291377,1,0,0:0:0:0:
36,192,291462,128,0,291720:0:0:0:0:
329,192,291462,128,0,291634:0:0:0:0:
182,192,291462,1,0,0:0:0:0:
402,192,291634,128,0,291805:0:0:0:0:
182,192,291634,128,0,291891:0:0:0:0:
475,192,291634,1,0,0:0:0:0:
109,192,291720,1,0,0:0:0:0:
475,192,291805,128,0,291977:0:0:0:0:
36,192,291805,128,0,292148:0:0:0:0:
256,192,291805,1,0,0:0:0:0:
402,192,291977,128,0,292148:0:0:0:0:
182,192,291977,128,0,292148:0:0:0:0:
256,192,291977,1,0,0:0:0:0:
329,192,292062,1,0,0:0:0:0:
109,192,292148,128,0,292491:0:0:0:0:
256,192,292148,1,0,0:0:0:0:
475,192,292148,1,0,0:0:0:0:
256,192,292320,128,0,292491:0:0:0:0:
475,192,292320,1,0,0:0:0:0:
329,192,292405,1,0,0:0:0:0:
402,192,292491,128,0,292662:0:0:0:0:
36,192,292491,1,0,0:0:0:0:
475,192,292491,1,0,0:0:0:0:
256,192,292662,128,0,292834:0:0:0:0:
36,192,292662,1,0,0:0:0:0:
329,192,292748,1,0,0:0:0:0:
475,192,292834,128,0,293520:0:0:0:0:
182,192,292834,128,0,293520:0:0:0:0:
36,192,292834,128,0,293091:0:0:0:0:
109,192,292834,1,0,0:0:0:0:
329,192,293005,1,0,0:0:0:0:
256,192,293177,128,0,293520:0:0:0:0:
36,192,293177,1,0,0:0:0:0:
329,192,293177,1,0,0:0:0:0:
36,192,293348,1,0,0:0:0:0:
329,192,293348,1,0,0:0:0:0:
36,192,293520,128,0,293605:0:0:0:0:
402,192,293520,1,0,0:0:0:0:
329,192,293520,1,0,0:0:0:0:
109,192,293605,128,0,293691:0:0:0:0:
256,192,293691,128,0,293777:0:0:0:0:
402,192,293691,1,0,0:0:0:0:
329,192,293777,128,0,293862:0:0:0:0:
109,192,293862,128,0,293948:0:0:0:0:
36,192,293862,1,0,0:0:0:0:
475,192,293862,1,0,0:0:0:0:
182,192,293948,128,0,294034:0:0:0:0:
329,192,294034,128,0,294120:0:0:0:0:
475,192,294034,1,0,0:0:0:0:
402,192,294120,128,0,294205:0:0:0:0:
182,192,294205,128,0,294291:0:0:0:0:
109,192,294205,1,0,0:0:0:0:
475,192,294205,1,0,0:0:0:0:
256,192,294291,128,0,294377:0:0:0:0:
402,192,294377,128,0,294462:0:0:0:0:
36,192,294377,1,0,0:0:0:0:
475,192,294462,128,0,294548:0:0:0:0:
256,192,294548,1,0,0:0:0:0:
109,192,294548,128,0,294634:0:0:0:0:
329,192,294548,1,0,0:0:0:0:
182,192,294634,128,0,294720:0:0:0:0:
329,192,294720,128,0,294805:0:0:0:0:
36,192,294720,1,0,0:0:0:0:
402,192,294805,128,0,294891:0:0:0:0:
36,192,294891,128,0,294977:0:0:0:0:
109,192,294891,1,0,0:0:0:0:
475,192,294891,1,0,0:0:0:0:
256,192,294977,128,0,295062:0:0:0:0:
36,192,295062,128,0,295234:0:0:0:0:
329,192,295062,1,0,0:0:0:0:
256,192,295148,128,0,295234:0:0:0:0:
109,192,295234,128,0,295320:0:0:0:0:
182,192,295234,1,0,0:0:0:0:
475,192,295234,1,0,0:0:0:0:
329,192,295320,128,0,295405:0:0:0:0:
109,192,295405,128,0,295577:0:0:0:0:
256,192,295405,1,0,0:0:0:0:
329,192,295491,128,0,295577:0:0:0:0:
182,192,295577,128,0,295662:0:0:0:0:
475,192,295577,1,0,0:0:0:0:
36,192,295577,1,0,0:0:0:0:
402,192,295662,128,0,295748:0:0:0:0:
182,192,295748,128,0,295920:0:0:0:0:
109,192,295748,1,0,0:0:0:0:
402,192,295834,128,0,295920:0:0:0:0:
329,192,295920,128,0,296091:0:0:0:0:
36,192,295920,1,0,0:0:0:0:
256,192,295920,1,0,0:0:0:0:
475,192,296005,128,0,296091:0:0:0:0:
256,192,296091,128,0,296262:0:0:0:0:
36,192,296091,1,0,0:0:0:0:
475,192,296177,128,0,296262:0:0:0:0:
109,192,296262,128,0,296777:0:0:0:0:
329,192,296262,128,0,296434:0:0:0:0:
36,192,296262,1,0,0:0:0:0:
402,192,296262,1,0,0:0:0:0:
182,192,296348,128,0,296434:0:0:0:0:
402,192,296434,128,0,296605:0:0:0:0:
256,192,296434,1,0,0:0:0:0:
36,192,296520,128,0,296605:0:0:0:0:
256,192,296605,128,0,296777:0:0:0:0:
182,192,296605,1,0,0:0:0:0:
329,192,296605,1,0,0:0:0:0:
475,192,296691,128,0,296777:0:0:0:0:
402,192,296777,128,0,298320:0:0:0:0:
36,192,296777,1,0,0:0:0:0:
182,192,296862,128,0,296948:0:0:0:0:
36,192,296948,128,0,297120:0:0:0:0:
256,192,296948,1,0,0:0:0:0:
475,192,296948,1,0,0:0:0:0:
329,192,297034,128,0,297120:0:0:0:0:
182,192,297120,128,0,297291:0:0:0:0:
256,192,297120,1,0,0:0:0:0:
475,192,297205,128,0,297291:0:0:0:0:
109,192,297291,128,0,297462:0:0:0:0:
36,192,297291,1,0,0:0:0:0:
256,192,297291,1,0,0:0:0:0:
329,192,297377,128,0,297462:0:0:0:0:
256,192,297462,128,0,297634:0:0:0:0:
475,192,297462,1,0,0:0:0:0:
36,192,297548,128,0,297634:0:0:0:0:
109,192,297634,128,0,297805:0:0:0:0:
182,192,297634,1,0,0:0:0:0:
475,192,297634,1,0,0:0:0:0:
329,192,297720,128,0,297805:0:0:0:0:
36,192,297805,128,0,297977:0:0:0:0:
475,192,297805,1,0,0:0:0:0:
256,192,297891,128,0,297977:0:0:0:0:
109,192,297977,128,0,298320:0:0:0:0:
182,192,297977,1,0,0:0:0:0:
475,192,297977,1,0,0:0:0:0:
329,192,298062,128,0,298148:0:0:0:0:
256,192,298148,128,0,298320:0:0:0:0:
182,192,298148,1,0,0:0:0:0:
36,192,298320,5,0,0:0:0:0:
182,192,298320,1,0,0:0:0:0:
329,192,298320,1,0,0:0:0:0:
475,192,298320,1,0,0:0:0:0:
36,192,298577,1,0,0:0:0:0:
329,192,298577,1,0,0:0:0:0:
182,192,298577,1,0,0:0:0:0:
475,192,298577,1,0,0:0:0:0:
36,192,298834,1,0,0:0:0:0:
182,192,298834,1,0,0:0:0:0:
329,192,298834,1,0,0:0:0:0:
475,192,298834,1,0,0:0:0:0:
182,192,299005,128,0,299348:0:0:0:0:
329,192,299005,128,0,299348:0:0:0:0:
475,192,299348,128,0,299520:0:0:0:0:
256,192,299348,1,0,0:0:0:0:
36,192,299348,1,0,0:0:0:0:
109,192,299348,128,0,299691:0:0:0:0:
402,192,299434,128,0,299605:0:0:0:0:
182,192,299520,1,0,0:0:0:0:
329,192,299520,128,0,299691:0:0:0:0:
475,192,299691,128,0,300034:0:0:0:0:
402,192,299691,1,0,0:0:0:0:
36,192,299691,128,0,299777:0:0:0:0:
256,192,299691,1,0,0:0:0:0:
109,192,299777,128,0,299862:0:0:0:0:
329,192,299862,128,0,300034:0:0:0:0:
256,192,299862,1,0,0:0:0:0:
182,192,299862,128,0,299948:0:0:0:0:
109,192,300034,128,0,300377:0:0:0:0:
36,192,300034,1,0,0:0:0:0:
402,192,300034,1,0,0:0:0:0:
256,192,300120,128,0,300377:0:0:0:0:
402,192,300205,128,0,300548:0:0:0:0:
475,192,300205,1,0,0:0:0:0:
329,192,300377,1,0,0:0:0:0:
36,192,300377,128,0,300548:0:0:0:0:
182,192,300377,1,0,0:0:0:0:
109,192,300462,128,0,300634:0:0:0:0:
182,192,300548,128,0,300891:0:0:0:0:
256,192,300548,1,0,0:0:0:0:
475,192,300720,1,0,0:0:0:0:
109,192,300720,128,0,301062:0:0:0:0:
329,192,300720,128,0,300805:0:0:0:0:
36,192,300720,1,0,0:0:0:0:
402,192,300805,128,0,300891:0:0:0:0:
475,192,300891,128,0,300977:0:0:0:0:
36,192,300891,128,0,301234:0:0:0:0:
256,192,300891,1,0,0:0:0:0:
475,192,301062,1,0,0:0:0:0:
182,192,301062,1,0,0:0:0:0:
402,192,301062,128,0,301748:0:0:0:0:
329,192,301148,128,0,301320:0:0:0:0:
256,192,301234,128,0,301405:0:0:0:0:
109,192,301234,1,0,0:0:0:0:
36,192,301405,128,0,301577:0:0:0:0:
182,192,301405,1,0,0:0:0:0:
329,192,301405,1,0,0:0:0:0:
109,192,301491,128,0,301662:0:0:0:0:
182,192,301577,128,0,301748:0:0:0:0:
329,192,301577,1,0,0:0:0:0:
475,192,301748,128,0,301920:0:0:0:0:
36,192,301748,1,0,0:0:0:0:
329,192,301748,1,0,0:0:0:0:
109,192,301748,128,0,302091:0:0:0:0:
402,192,301834,128,0,302005:0:0:0:0:
329,192,301920,128,0,302091:0:0:0:0:
256,192,301920,1,0,0:0:0:0:
36,192,302091,128,0,302262:0:0:0:0:
475,192,302091,1,0,0:0:0:0:
182,192,302091,1,0,0:0:0:0:
182,192,302177,128,0,302348:0:0:0:0:
475,192,302262,128,0,303805:0:0:0:0:
329,192,302262,128,0,302434:0:0:0:0:
402,192,302262,1,0,0:0:0:0:
109,192,302434,128,0,302605:0:0:0:0:
182,192,302434,1,0,0:0:0:0:
36,192,302434,1,0,0:0:0:0:
256,192,302520,128,0,302691:0:0:0:0:
402,192,302605,128,0,302777:0:0:0:0:
329,192,302605,1,0,0:0:0:0:
182,192,302777,128,0,302948:0:0:0:0:
256,192,302777,1,0,0:0:0:0:
36,192,302777,1,0,0:0:0:0:
329,192,302862,128,0,303034:0:0:0:0:
36,192,302948,1,0,0:0:0:0:
109,192,302948,128,0,303120:0:0:0:0:
402,192,303120,128,0,303291:0:0:0:0:
329,192,303120,1,0,0:0:0:0:
182,192,303120,1,0,0:0:0:0:
256,192,303205,128,0,303377:0:0:0:0:
109,192,303291,128,0,303462:0:0:0:0:
329,192,303291,1,0,0:0:0:0:
36,192,303462,128,0,303634:0:0:0:0:
256,192,303462,1,0,0:0:0:0:
402,192,303462,1,0,0:0:0:0:
182,192,303634,128,0,303805:0:0:0:0:
329,192,303634,1,0,0:0:0:0:
329,192,303805,128,0,304148:0:0:0:0:
36,192,303805,1,0,0:0:0:0:
402,192,303805,1,0,0:0:0:0:
182,192,303891,128,0,304062:0:0:0:0:
36,192,303977,128,0,304148:0:0:0:0:
402,192,303977,1,0,0:0:0:0:
475,192,304062,128,0,304234:0:0:0:0:
182,192,304148,128,0,304491:0:0:0:0:
402,192,304148,128,0,304320:0:0:0:0:
109,192,304148,1,0,0:0:0:0:
329,192,304234,128,0,304405:0:0:0:0:
475,192,304320,128,0,304491:0:0:0:0:
36,192,304320,128,0,304491:0:0:0:0:
256,192,304320,1,0,0:0:0:0:
402,192,304405,128,0,304491:0:0:0:0:
109,192,304491,1,0,0:0:0:0:
329,192,304491,128,0,304834:0:0:0:0:
182,192,304662,128,0,305005:0:0:0:0:
109,192,304662,1,0,0:0:0:0:
402,192,304662,1,0,0:0:0:0:
475,192,304834,128,0,305177:0:0:0:0:
36,192,304834,1,0,0:0:0:0:
329,192,305005,128,0,305348:0:0:0:0:
36,192,305005,1,0,0:0:0:0:
256,192,305005,1,0,0:0:0:0:
182,192,305177,128,0,305348:0:0:0:0:
109,192,305177,1,0,0:0:0:0:
36,192,305348,128,0,305862:0:0:0:0:
109,192,305348,1,0,0:0:0:0:
402,192,305348,1,0,0:0:0:0:
329,192,305520,128,0,305862:0:0:0:0:
475,192,305520,1,0,0:0:0:0:
182,192,305691,128,0,305862:0:0:0:0:
475,192,305691,1,0,0:0:0:0:
256,192,305691,1,0,0:0:0:0:
475,192,305777,1,0,0:0:0:0:
475,192,305862,1,0,0:0:0:0:
475,192,306034,128,0,306377:0:0:0:0:
36,192,306034,1,0,0:0:0:0:
329,192,306205,128,0,306548:0:0:0:0:
36,192,306205,1,0,0:0:0:0:
256,192,306205,1,0,0:0:0:0:
182,192,306377,128,0,306548:0:0:0:0:
36,192,306377,1,0,0:0:0:0:
402,192,306548,128,0,306891:0:0:0:0:
109,192,306548,1,0,0:0:0:0:
475,192,306548,1,0,0:0:0:0:
256,192,306720,128,0,306891:0:0:0:0:
109,192,306720,1,0,0:0:0:0:
109,192,306891,128,0,307234:0:0:0:0:
475,192,306891,1,0,0:0:0:0:
36,192,306891,1,0,0:0:0:0:
402,192,307062,128,0,307234:0:0:0:0:
256,192,307062,1,0,0:0:0:0:
329,192,307148,1,0,0:0:0:0:
256,192,307234,1,0,0:0:0:0:
36,192,307234,1,0,0:0:0:0:
475,192,307234,1,0,0:0:0:0:
109,192,307320,1,0,0:0:0:0:
329,192,307320,1,0,0:0:0:0:
402,192,307405,1,0,0:0:0:0:
182,192,307405,1,0,0:0:0:0:
256,192,307491,1,0,0:0:0:0:
475,192,307491,1,0,0:0:0:0:
36,192,307577,1,0,0:0:0:0:
329,192,307577,1,0,0:0:0:0:
182,192,307662,1,0,0:0:0:0:
475,192,307662,1,0,0:0:0:0:
109,192,307748,1,0,0:0:0:0:
329,192,307748,1,0,0:0:0:0:
182,192,307834,1,0,0:0:0:0:
402,192,307834,1,0,0:0:0:0:
36,192,307920,1,0,0:0:0:0:
256,192,307920,1,0,0:0:0:0:
475,192,307920,1,0,0:0:0:0:
329,192,308005,1,0,0:0:0:0:
109,192,308005,1,0,0:0:0:0:
182,192,308091,1,0,0:0:0:0:
402,192,308091,1,0,0:0:0:0:
109,192,308177,1,0,0:0:0:0:
329,192,308177,1,0,0:0:0:0:
36,192,308262,1,0,0:0:0:0:
475,192,308262,1,0,0:0:0:0:
182,192,308348,1,0,0:0:0:0:
402,192,308348,1,0,0:0:0:0:
36,192,308434,1,0,0:0:0:0:
329,192,308434,1,0,0:0:0:0:
402,192,308520,1,0,0:0:0:0:
182,192,308520,1,0,0:0:0:0:
475,192,308605,1,0,0:0:0:0:
256,192,308605,1,0,0:0:0:0:
36,192,308605,1,0,0:0:0:0:
182,192,308691,1,0,0:0:0:0:
329,192,308691,1,0,0:0:0:0:
256,192,308777,128,0,308948:0:0:0:0:
109,192,308777,128,0,308948:0:0:0:0:
402,192,308777,128,0,308948:0:0:0:0:
109,192,309120,128,0,309291:0:0:0:0:
256,192,309120,128,0,309291:0:0:0:0:
402,192,309120,128,0,309291:0:0:0:0:
36,192,309291,1,0,0:0:0:0:
182,192,309291,1,0,0:0:0:0:
329,192,309291,1,0,0:0:0:0:
475,192,309291,1,0,0:0:0:0:
36,192,309548,1,0,0:0:0:0:
475,192,309548,1,0,0:0:0:0:
182,192,309548,1,0,0:0:0:0:
329,192,309548,1,0,0:0:0:0:
36,192,309805,1,0,0:0:0:0:
475,192,309805,1,0,0:0:0:0:
182,192,309805,1,0,0:0:0:0:
329,192,309805,1,0,0:0:0:0:
109,192,309977,1,0,0:0:0:0:
402,192,309977,1,0,0:0:0:0:
475,192,310320,1,0,0:0:0:0:
329,192,310491,1,0,0:0:0:0:
36,192,310662,1,0,0:0:0:0:
182,192,310834,1,0,0:0:0:0:
256,192,311691,1,0,0:0:0:0:
36,192,312891,1,0,0:0:0:0:
182,192,312948,1,0,0:0:0:0:
329,192,313005,1,0,0:0:0:0:
475,192,313062,1,0,0:0:0:0:
