osu file format v13

[General]
AudioFilename: wa. - -fall into the Morion-.mp3
AudioLeadIn: 0
PreviewTime: 242777
Countdown: 0
SampleSet: Soft
StackLeniency: 0.7
Mode: 3
LetterboxInBreaks: 0
SpecialStyle: 0
WidescreenStoryboard: 1

[Editor]
DistanceSpacing: 1
BeatDivisor: 4
GridSize: 8
TimelineZoom: 2.2

[Metadata]
Title:The Nature of Happiness -fall into the Morion-
TitleUnicode:幸せの在り方 -fall into the Morion-
Artist:wa.
ArtistUnicode:wa.
Creator:Remillion Cross
Version:Collab Hard
Source:BMS
Tags:bof bms of fighters 2012 -ein neuer heiliger krieg- calming memoir nature artcore elegant relax groundbreaking album exusagi xloupgarou
BeatmapID:441501
BeatmapSetID:180074

[Difficulty]
HPDrainRate:7
CircleSize:7
OverallDifficulty:7
ApproachRate:8
SliderMultiplier:1.4
SliderTickRate:1

[Events]
//Background and Video events
0,0,"BG.jpg",0,0
//Break Periods
//Storyboard Layer 0 (Background)
//Storyboard Layer 1 (Fail)
//Storyboard Layer 2 (Pass)
//Storyboard Layer 3 (Foreground)
//Storyboard Sound Samples
//Background Colour Transformations
3,100,163,162,255

[TimingPoints]
2435,342.857142857143,4,2,0,20,1,0
2435,-200,4,2,0,20,0,0
46320,-133.333333333333,4,2,0,20,0,0
57291,-117.647058823529,4,2,0,20,0,0
62777,-100,4,2,0,20,0,0
134091,-100,4,2,0,20,0,1
156034,-100,4,2,0,20,0,0
156377,-100,4,2,0,20,0,1
178320,342.857142857143,4,2,0,20,1,0
222205,-125,4,2,0,20,0,0
231805,-111.111111111111,4,2,0,20,0,0
233177,-100,4,2,0,20,0,0
244148,-100,4,2,0,20,0,1
266091,-100,4,2,0,20,0,0
288377,-100,4,2,0,20,0,1
309977,-100,4,2,0,20,0,0

[HitObjects]
402,192,2434,128,0,5177:0:0:0:0:
36,192,2606,1,0,0:0:0:0:
109,192,2777,1,0,0:0:0:0:
182,192,4835,1,0,0:0:0:0:
109,192,5177,1,0,0:0:0:0:
329,192,5177,1,0,0:0:0:0:
36,192,5520,128,0,7920:0:0:0:0:
256,192,5520,1,0,0:0:0:0:
329,192,5863,1,0,0:0:0:0:
475,192,7920,128,0,10663:0:0:0:0:
402,192,8092,1,0,0:0:0:0:
109,192,8263,1,0,0:0:0:0:
182,192,10320,1,0,0:0:0:0:
109,192,10662,1,0,0:0:0:0:
402,192,10663,1,0,0:0:0:0:
36,192,11006,128,0,12720:0:0:0:0:
329,192,11006,1,0,0:0:0:0:
182,192,11349,1,0,0:0:0:0:
329,192,11406,1,0,0:0:0:0:
402,192,11463,1,0,0:0:0:0:
109,192,12720,128,0,13406:0:0:0:0:
402,192,13406,128,0,18892:0:0:0:0:
475,192,13406,1,0,0:0:0:0:
36,192,13749,1,0,0:0:0:0:
109,192,15806,1,0,0:0:0:0:
109,192,16149,128,0,18892:0:0:0:0:
182,192,16492,1,0,0:0:0:0:
329,192,16835,1,0,0:0:0:0:
329,192,18549,1,0,0:0:0:0:
182,192,18892,1,0,0:0:0:0:
256,192,18892,128,0,24377:0:0:0:0:
36,192,19235,1,0,0:0:0:0:
109,192,19577,1,0,0:0:0:0:
475,192,21292,1,0,0:0:0:0:
36,192,21635,1,0,0:0:0:0:
109,192,21692,1,0,0:0:0:0:
182,192,21749,1,0,0:0:0:0:
329,192,21977,1,0,0:0:0:0:
36,192,22320,128,0,24377:0:0:0:0:
475,192,22320,128,0,24377:0:0:0:0:
109,192,24377,1,0,0:0:0:0:
402,192,24377,128,0,24720:0:0:0:0:
182,192,24549,1,0,0:0:0:0:
109,192,24720,128,0,26777:0:0:0:0:
402,192,26777,128,0,27120:0:0:0:0:
329,192,27120,128,0,27463:0:0:0:0:
182,192,27463,128,0,29863:0:0:0:0:
109,192,27806,1,0,0:0:0:0:
402,192,29863,128,0,30206:0:0:0:0:
109,192,29863,1,0,0:0:0:0:
182,192,30035,1,0,0:0:0:0:
109,192,30206,128,0,32606:0:0:0:0:
402,192,32263,128,0,32606:0:0:0:0:
36,192,32606,128,0,32949:0:0:0:0:
256,192,32949,128,0,33292:0:0:0:0:
475,192,33292,128,0,35349:0:0:0:0:
109,160,35349,1,0,0:0:0:0:
402,167,35349,1,0,0:0:0:0:
182,151,35520,1,0,0:0:0:0:
36,141,35692,1,0,0:0:0:0:
329,127,35863,1,0,0:0:0:0:
475,133,35863,1,0,0:0:0:0:
182,184,36035,1,0,0:0:0:0:
109,121,36206,1,0,0:0:0:0:
36,121,36377,1,0,0:0:0:0:
329,121,36377,1,0,0:0:0:0:
182,121,36549,1,0,0:0:0:0:
475,121,36549,1,0,0:0:0:0:
109,121,36720,1,0,0:0:0:0:
329,121,36892,1,0,0:0:0:0:
475,121,36892,1,0,0:0:0:0:
36,121,37063,1,0,0:0:0:0:
182,121,37235,1,0,0:0:0:0:
109,121,37406,1,0,0:0:0:0:
475,121,37406,1,0,0:0:0:0:
329,121,37577,1,0,0:0:0:0:
36,121,37749,1,0,0:0:0:0:
402,121,37749,1,0,0:0:0:0:
182,121,37920,1,0,0:0:0:0:
329,118,38092,1,0,0:0:0:0:
109,156,38092,1,0,0:0:0:0:
402,109,38263,1,0,0:0:0:0:
36,143,38435,1,0,0:0:0:0:
182,116,38606,1,0,0:0:0:0:
475,135,38606,1,0,0:0:0:0:
402,142,38777,1,0,0:0:0:0:
329,79,38949,1,0,0:0:0:0:
36,123,39120,1,0,0:0:0:0:
182,110,39120,1,0,0:0:0:0:
475,123,39292,1,0,0:0:0:0:
402,79,39292,1,0,0:0:0:0:
329,79,39463,1,0,0:0:0:0:
182,110,39635,1,0,0:0:0:0:
475,123,39635,1,0,0:0:0:0:
36,123,39806,1,0,0:0:0:0:
402,79,39977,1,0,0:0:0:0:
329,79,40149,1,0,0:0:0:0:
475,123,40149,1,0,0:0:0:0:
182,110,40320,1,0,0:0:0:0:
109,110,40492,1,0,0:0:0:0:
36,123,40492,1,0,0:0:0:0:
402,79,40663,1,0,0:0:0:0:
256,192,40835,128,0,41177:0:0:0:0:
109,192,40835,1,0,0:0:0:0:
402,26,41006,1,0,0:0:0:0:
36,70,41177,1,0,0:0:0:0:
109,35,41349,1,0,0:0:0:0:
402,57,41349,1,0,0:0:0:0:
475,70,41520,1,0,0:0:0:0:
182,26,41692,1,0,0:0:0:0:
329,26,41863,1,0,0:0:0:0:
36,70,41863,1,0,0:0:0:0:
475,70,42034,1,0,0:0:0:0:
329,26,42206,1,0,0:0:0:0:
109,26,42377,1,0,0:0:0:0:
475,70,42377,1,0,0:0:0:0:
182,57,42549,1,0,0:0:0:0:
329,26,42720,1,0,0:0:0:0:
36,70,42892,1,0,0:0:0:0:
402,89,42892,1,0,0:0:0:0:
475,82,43063,1,0,0:0:0:0:
36,90,43234,1,0,0:0:0:0:
329,57,43235,1,0,0:0:0:0:
402,56,43406,1,0,0:0:0:0:
329,65,43577,1,0,0:0:0:0:
109,103,43577,1,0,0:0:0:0:
182,68,43749,1,0,0:0:0:0:
402,68,43920,1,0,0:0:0:0:
36,68,44092,1,0,0:0:0:0:
329,68,44092,1,0,0:0:0:0:
109,68,44263,1,0,0:0:0:0:
182,68,44434,1,0,0:0:0:0:
402,68,44606,1,0,0:0:0:0:
36,68,44606,1,0,0:0:0:0:
182,68,44777,1,0,0:0:0:0:
475,68,44777,1,0,0:0:0:0:
109,68,44949,1,0,0:0:0:0:
402,192,44949,1,0,0:0:0:0:
182,68,45120,1,0,0:0:0:0:
475,68,45120,1,0,0:0:0:0:
36,68,45292,1,0,0:0:0:0:
329,68,45292,1,0,0:0:0:0:
109,68,45463,1,0,0:0:0:0:
402,192,45463,1,0,0:0:0:0:
182,192,45635,128,0,46320:0:0:0:0:
329,192,45635,1,0,0:0:0:0:
475,80,45806,1,0,0:0:0:0:
36,88,45977,1,0,0:0:0:0:
329,192,45977,128,0,46320:0:0:0:0:
109,115,46149,1,0,0:0:0:0:
36,192,46320,128,0,46834:0:0:0:0:
475,192,46834,128,0,48377:0:0:0:0:
256,192,47691,1,0,0:0:0:0:
402,192,48034,128,0,48377:0:0:0:0:
109,192,48377,128,0,49062:0:0:0:0:
182,192,48720,128,0,49062:0:0:0:0:
402,192,49062,128,0,50434:0:0:0:0:
329,192,49577,128,0,51805:0:0:0:0:
256,192,50434,1,0,0:0:0:0:
109,192,51120,128,0,51805:0:0:0:0:
182,192,51462,128,0,51805:0:0:0:0:
36,192,51805,128,0,52320:0:0:0:0:
475,192,52320,128,0,53520:0:0:0:0:
36,192,53520,128,0,53862:0:0:0:0:
182,192,53862,128,0,54205:0:0:0:0:
329,192,54205,128,0,54548:0:0:0:0:
475,192,54548,128,0,55062:0:0:0:0:
256,192,55062,128,0,57291:0:0:0:0:
182,192,55577,1,0,0:0:0:0:
329,192,55577,1,0,0:0:0:0:
109,192,55920,1,0,0:0:0:0:
402,192,55920,1,0,0:0:0:0:
475,192,56434,1,0,0:0:0:0:
36,192,56434,1,0,0:0:0:0:
329,192,56948,1,0,0:0:0:0:
182,192,56948,1,0,0:0:0:0:
36,192,57291,128,0,57805:0:0:0:0:
329,192,57805,128,0,59005:0:0:0:0:
36,192,58320,128,0,59005:0:0:0:0:
402,192,59005,128,0,60034:0:0:0:0:
256,192,59348,128,0,60034:0:0:0:0:
109,192,59691,128,0,60034:0:0:0:0:
36,192,60034,128,0,61405:0:0:0:0:
475,192,60548,128,0,62777:0:0:0:0:
182,192,61062,1,0,0:0:0:0:
329,192,61062,1,0,0:0:0:0:
256,192,61405,1,0,0:0:0:0:
256,192,62091,128,0,62777:0:0:0:0:
36,192,62434,128,0,62777:0:0:0:0:
109,192,62777,1,0,0:0:0:0:
402,192,62777,1,0,0:0:0:0:
329,192,62948,1,0,0:0:0:0:
109,192,63120,1,0,0:0:0:0:
475,192,63120,1,0,0:0:0:0:
329,192,63291,1,0,0:0:0:0:
109,192,63462,1,0,0:0:0:0:
402,192,63462,1,0,0:0:0:0:
329,192,63634,1,0,0:0:0:0:
109,192,63805,1,0,0:0:0:0:
475,192,63805,1,0,0:0:0:0:
329,192,63977,1,0,0:0:0:0:
182,192,64148,1,0,0:0:0:0:
475,192,64148,1,0,0:0:0:0:
329,192,64319,1,0,0:0:0:0:
36,192,64491,1,0,0:0:0:0:
475,192,64491,1,0,0:0:0:0:
182,192,64662,1,0,0:0:0:0:
329,192,64834,1,0,0:0:0:0:
36,192,64834,1,0,0:0:0:0:
475,192,65005,1,0,0:0:0:0:
36,192,65177,1,0,0:0:0:0:
329,192,65177,1,0,0:0:0:0:
182,192,65348,1,0,0:0:0:0:
256,192,65520,1,0,0:0:0:0:
475,192,65520,128,0,66034:0:0:0:0:
109,192,65691,1,0,0:0:0:0:
329,192,65862,1,0,0:0:0:0:
182,192,66034,128,0,66548:0:0:0:0:
402,192,66205,1,0,0:0:0:0:
256,192,66377,1,0,0:0:0:0:
36,192,66548,128,0,66891:0:0:0:0:
475,192,66548,1,0,0:0:0:0:
329,192,66720,1,0,0:0:0:0:
109,192,66891,1,0,0:0:0:0:
256,192,67062,1,0,0:0:0:0:
402,192,67234,1,0,0:0:0:0:
182,192,67405,1,0,0:0:0:0:
329,192,67577,1,0,0:0:0:0:
109,192,67662,1,0,0:0:0:0:
402,192,67748,1,0,0:0:0:0:
109,192,67834,1,0,0:0:0:0:
182,192,67920,1,0,0:0:0:0:
256,192,68005,1,0,0:0:0:0:
329,192,68091,1,0,0:0:0:0:
402,192,68177,1,0,0:0:0:0:
36,192,68262,1,0,0:0:0:0:
182,192,68262,1,0,0:0:0:0:
36,192,68777,1,0,0:0:0:0:
182,192,68777,1,0,0:0:0:0:
256,192,69120,1,0,0:0:0:0:
402,192,69291,1,0,0:0:0:0:
109,192,69462,1,0,0:0:0:0:
256,192,69805,1,0,0:0:0:0:
109,192,69977,1,0,0:0:0:0:
402,192,70148,1,0,0:0:0:0:
182,192,70320,1,0,0:0:0:0:
329,192,70491,1,0,0:0:0:0:
109,192,70662,1,0,0:0:0:0:
256,192,70834,1,0,0:0:0:0:
36,192,71005,1,0,0:0:0:0:
329,192,71177,1,0,0:0:0:0:
109,192,71348,1,0,0:0:0:0:
402,192,71520,1,0,0:0:0:0:
182,192,71691,1,0,0:0:0:0:
475,192,71862,1,0,0:0:0:0:
36,192,72377,1,0,0:0:0:0:
329,192,72377,1,0,0:0:0:0:
182,192,72548,1,0,0:0:0:0:
36,192,72720,1,0,0:0:0:0:
475,192,72891,1,0,0:0:0:0:
329,192,73062,1,0,0:0:0:0:
182,192,73234,1,0,0:0:0:0:
475,192,73405,1,0,0:0:0:0:
256,192,73405,1,0,0:0:0:0:
109,192,73405,1,0,0:0:0:0:
256,192,73748,1,0,0:0:0:0:
109,192,73748,1,0,0:0:0:0:
402,192,73748,1,0,0:0:0:0:
329,192,73920,1,0,0:0:0:0:
109,192,74091,1,0,0:0:0:0:
475,192,74091,1,0,0:0:0:0:
402,192,74262,1,0,0:0:0:0:
109,192,74434,1,0,0:0:0:0:
256,192,74434,1,0,0:0:0:0:
329,192,74605,1,0,0:0:0:0:
109,192,74777,1,0,0:0:0:0:
475,192,74777,1,0,0:0:0:0:
402,192,74948,1,0,0:0:0:0:
36,192,75120,1,0,0:0:0:0:
256,192,75120,1,0,0:0:0:0:
329,192,75291,1,0,0:0:0:0:
109,192,75462,1,0,0:0:0:0:
402,192,75462,1,0,0:0:0:0:
475,192,75634,1,0,0:0:0:0:
109,192,75805,1,0,0:0:0:0:
182,192,75805,1,0,0:0:0:0:
256,192,75977,1,0,0:0:0:0:
109,192,76148,1,0,0:0:0:0:
329,192,76148,1,0,0:0:0:0:
402,192,76320,1,0,0:0:0:0:
36,192,76491,1,0,0:0:0:0:
109,192,76491,1,0,0:0:0:0:
256,192,76662,1,0,0:0:0:0:
109,192,76834,1,0,0:0:0:0:
182,192,76834,1,0,0:0:0:0:
329,192,77005,1,0,0:0:0:0:
109,192,77177,1,0,0:0:0:0:
256,192,77177,1,0,0:0:0:0:
402,192,77348,1,0,0:0:0:0:
109,192,77520,1,0,0:0:0:0:
329,192,77520,1,0,0:0:0:0:
475,192,77691,1,0,0:0:0:0:
402,192,77862,1,0,0:0:0:0:
109,192,77863,1,0,0:0:0:0:
475,192,78034,128,0,78205:0:0:0:0:
329,192,78205,128,0,78377:0:0:0:0:
36,192,78377,128,0,78548:0:0:0:0:
256,192,78548,128,0,78720:0:0:0:0:
109,192,78720,128,0,78891:0:0:0:0:
402,192,78891,128,0,79234:0:0:0:0:
109,192,79062,128,0,79234:0:0:0:0:
475,192,79234,1,0,0:0:0:0:
36,192,79234,128,0,79405:0:0:0:0:
182,192,79405,128,0,79577:0:0:0:0:
475,192,79577,1,0,0:0:0:0:
402,192,79577,128,0,79748:0:0:0:0:
256,192,79748,128,0,79920:0:0:0:0:
36,192,79920,1,0,0:0:0:0:
475,192,79920,1,0,0:0:0:0:
109,192,80091,128,0,80262:0:0:0:0:
256,192,80262,128,0,80434:0:0:0:0:
475,192,80262,1,0,0:0:0:0:
182,192,80434,128,0,80605:0:0:0:0:
475,192,80605,1,0,0:0:0:0:
36,192,80606,1,0,0:0:0:0:
109,192,80777,128,0,80948:0:0:0:0:
475,192,80948,1,0,0:0:0:0:
256,192,80949,1,0,0:0:0:0:
182,192,81120,128,0,81291:0:0:0:0:
109,192,81291,1,0,0:0:0:0:
475,192,81291,1,0,0:0:0:0:
36,192,81462,128,0,81634:0:0:0:0:
109,192,81634,128,0,81805:0:0:0:0:
475,192,81634,1,0,0:0:0:0:
256,192,81805,128,0,81977:0:0:0:0:
402,192,81977,1,0,0:0:0:0:
475,192,81977,128,0,82148:0:0:0:0:
36,192,81977,1,0,0:0:0:0:
109,192,82148,128,0,82320:0:0:0:0:
475,192,82320,1,0,0:0:0:0:
182,192,82320,128,0,82491:0:0:0:0:
256,192,82491,128,0,82662:0:0:0:0:
475,192,82662,1,0,0:0:0:0:
182,192,82834,128,0,83005:0:0:0:0:
475,192,83005,1,0,0:0:0:0:
256,192,83005,128,0,83177:0:0:0:0:
109,192,83177,128,0,83348:0:0:0:0:
475,192,83348,1,0,0:0:0:0:
329,192,83348,1,0,0:0:0:0:
475,192,83520,128,0,83691:0:0:0:0:
402,192,83691,1,0,0:0:0:0:
329,192,83691,128,0,83862:0:0:0:0:
182,192,83691,1,0,0:0:0:0:
329,192,84034,1,0,0:0:0:0:
402,192,84034,128,0,84205:0:0:0:0:
109,192,84034,1,0,0:0:0:0:
256,192,84205,128,0,84377:0:0:0:0:
329,192,84377,1,0,0:0:0:0:
109,192,84377,128,0,84548:0:0:0:0:
36,192,84377,1,0,0:0:0:0:
402,192,84548,1,0,0:0:0:0:
182,192,84548,128,0,84720:0:0:0:0:
475,192,84720,1,0,0:0:0:0:
256,192,84720,1,0,0:0:0:0:
36,192,84720,128,0,84891:0:0:0:0:
402,192,84891,128,0,85062:0:0:0:0:
36,192,85062,1,0,0:0:0:0:
329,192,85062,128,0,85234:0:0:0:0:
109,192,85234,128,0,85405:0:0:0:0:
475,192,85406,1,0,0:0:0:0:
36,192,85406,1,0,0:0:0:0:
182,192,85577,128,0,85748:0:0:0:0:
36,192,85748,1,0,0:0:0:0:
402,192,85748,128,0,85920:0:0:0:0:
256,192,85920,128,0,86091:0:0:0:0:
402,192,86091,1,0,0:0:0:0:
36,192,86092,1,0,0:0:0:0:
109,192,86263,128,0,86434:0:0:0:0:
36,192,86434,1,0,0:0:0:0:
182,192,86434,128,0,86605:0:0:0:0:
256,192,86435,1,0,0:0:0:0:
402,192,86605,128,0,86777:0:0:0:0:
36,192,86777,1,0,0:0:0:0:
475,192,86777,1,0,0:0:0:0:
256,192,86948,128,0,87120:0:0:0:0:
36,192,87120,1,0,0:0:0:0:
109,192,87120,128,0,87291:0:0:0:0:
329,192,87291,128,0,87462:0:0:0:0:
182,192,87462,1,0,0:0:0:0:
36,192,87463,1,0,0:0:0:0:
475,192,87463,128,0,87634:0:0:0:0:
109,192,87634,128,0,87805:0:0:0:0:
182,192,87805,128,0,87977:0:0:0:0:
402,192,87805,1,0,0:0:0:0:
475,192,87977,128,0,88148:0:0:0:0:
36,192,88148,128,0,88320:0:0:0:0:
329,192,88148,1,0,0:0:0:0:
182,192,88320,128,0,88491:0:0:0:0:
36,192,88491,128,0,88834:0:0:0:0:
402,192,88491,1,0,0:0:0:0:
475,192,88662,128,0,88834:0:0:0:0:
329,192,88662,1,0,0:0:0:0:
256,192,88834,1,0,0:0:0:0:
182,192,88834,1,0,0:0:0:0:
109,192,89005,128,0,89177:0:0:0:0:
402,192,89177,128,0,89348:0:0:0:0:
36,192,89520,1,0,0:0:0:0:
182,192,89691,1,0,0:0:0:0:
329,192,89862,1,0,0:0:0:0:
475,192,90034,1,0,0:0:0:0:
182,192,90205,5,0,0:0:0:0:
329,192,90205,1,0,0:0:0:0:
36,192,90205,128,0,90891:0:0:0:0:
402,192,90377,1,0,0:0:0:0:
329,192,90548,1,0,0:0:0:0:
256,192,90720,1,0,0:0:0:0:
109,192,90891,128,0,91577:0:0:0:0:
329,192,90891,1,0,0:0:0:0:
475,192,91062,1,0,0:0:0:0:
402,192,91234,1,0,0:0:0:0:
329,192,91405,1,0,0:0:0:0:
256,192,91577,128,0,92262:0:0:0:0:
402,192,91577,1,0,0:0:0:0:
36,192,91748,1,0,0:0:0:0:
109,192,91920,1,0,0:0:0:0:
182,192,92091,1,0,0:0:0:0:
329,192,92262,128,0,92948:0:0:0:0:
36,192,92262,1,0,0:0:0:0:
256,192,92434,1,0,0:0:0:0:
182,192,92605,1,0,0:0:0:0:
109,192,92777,1,0,0:0:0:0:
402,192,92948,128,0,93634:0:0:0:0:
36,192,92948,1,0,0:0:0:0:
109,192,93120,1,0,0:0:0:0:
182,192,93291,1,0,0:0:0:0:
256,192,93462,1,0,0:0:0:0:
109,192,93634,128,0,94320:0:0:0:0:
329,192,93634,1,0,0:0:0:0:
402,192,93805,1,0,0:0:0:0:
475,192,93977,1,0,0:0:0:0:
402,192,94148,1,0,0:0:0:0:
182,192,94320,128,0,95005:0:0:0:0:
329,192,94320,1,0,0:0:0:0:
109,192,94491,1,0,0:0:0:0:
36,192,94662,1,0,0:0:0:0:
109,192,94834,1,0,0:0:0:0:
256,192,95005,128,0,95691:0:0:0:0:
475,192,95005,1,0,0:0:0:0:
182,192,95177,1,0,0:0:0:0:
109,192,95348,1,0,0:0:0:0:
182,192,95520,1,0,0:0:0:0:
109,192,95520,1,0,0:0:0:0:
402,192,95691,128,0,96377:0:0:0:0:
329,192,95691,1,0,0:0:0:0:
109,192,95691,1,0,0:0:0:0:
256,192,95862,1,0,0:0:0:0:
182,192,96034,1,0,0:0:0:0:
109,192,96205,1,0,0:0:0:0:
475,192,96377,128,0,97062:0:0:0:0:
36,192,96377,1,0,0:0:0:0:
109,192,96548,1,0,0:0:0:0:
182,192,96720,1,0,0:0:0:0:
256,192,96891,1,0,0:0:0:0:
36,192,97062,128,0,97748:0:0:0:0:
182,192,97062,1,0,0:0:0:0:
256,192,97234,1,0,0:0:0:0:
329,192,97405,1,0,0:0:0:0:
402,192,97577,1,0,0:0:0:0:
256,192,97748,128,0,98434:0:0:0:0:
475,192,97748,1,0,0:0:0:0:
182,192,97920,1,0,0:0:0:0:
329,192,98091,1,0,0:0:0:0:
402,192,98262,1,0,0:0:0:0:
109,192,98434,128,0,99120:0:0:0:0:
475,192,98434,1,0,0:0:0:0:
36,192,98605,1,0,0:0:0:0:
182,192,98777,1,0,0:0:0:0:
256,192,98948,1,0,0:0:0:0:
329,192,99120,128,0,99805:0:0:0:0:
402,192,99120,1,0,0:0:0:0:
36,192,99291,1,0,0:0:0:0:
182,192,99462,1,0,0:0:0:0:
475,192,99634,1,0,0:0:0:0:
36,192,99805,128,0,101177:0:0:0:0:
256,192,99805,1,0,0:0:0:0:
182,192,99977,1,0,0:0:0:0:
109,192,100148,1,0,0:0:0:0:
329,192,100148,1,0,0:0:0:0:
256,192,100320,1,0,0:0:0:0:
475,192,100491,128,0,101177:0:0:0:0:
182,192,100491,1,0,0:0:0:0:
402,192,100491,1,0,0:0:0:0:
182,192,100748,1,0,0:0:0:0:
329,192,100748,1,0,0:0:0:0:
256,192,100834,1,0,0:0:0:0:
256,192,101005,1,0,0:0:0:0:
256,192,101177,1,0,0:0:0:0:
109,192,101177,128,0,101862:0:0:0:0:
329,192,101348,1,0,0:0:0:0:
402,192,101520,1,0,0:0:0:0:
475,192,101691,1,0,0:0:0:0:
182,192,101862,128,0,102548:0:0:0:0:
329,192,101862,1,0,0:0:0:0:
109,192,102034,1,0,0:0:0:0:
36,192,102205,1,0,0:0:0:0:
109,192,102377,1,0,0:0:0:0:
329,192,102548,128,0,103234:0:0:0:0:
475,192,102548,1,0,0:0:0:0:
182,192,102720,1,0,0:0:0:0:
109,192,102891,1,0,0:0:0:0:
182,192,103062,1,0,0:0:0:0:
402,192,103234,128,0,103920:0:0:0:0:
36,192,103234,1,0,0:0:0:0:
329,192,103405,1,0,0:0:0:0:
109,192,103577,1,0,0:0:0:0:
182,192,103748,1,0,0:0:0:0:
256,192,103920,128,0,104605:0:0:0:0:
36,192,103920,1,0,0:0:0:0:
329,192,104091,1,0,0:0:0:0:
402,192,104262,1,0,0:0:0:0:
475,192,104434,1,0,0:0:0:0:
182,192,104605,128,0,105291:0:0:0:0:
36,192,104605,1,0,0:0:0:0:
475,192,104777,1,0,0:0:0:0:
402,192,104948,1,0,0:0:0:0:
329,192,105120,1,0,0:0:0:0:
109,192,105291,128,0,105977:0:0:0:0:
475,192,105291,1,0,0:0:0:0:
402,192,105462,1,0,0:0:0:0:
329,192,105634,1,0,0:0:0:0:
402,192,105805,1,0,0:0:0:0:
36,192,105977,128,0,106662:0:0:0:0:
256,192,105977,1,0,0:0:0:0:
182,192,106148,1,0,0:0:0:0:
256,192,106320,1,0,0:0:0:0:
329,192,106491,1,0,0:0:0:0:
256,192,106491,1,0,0:0:0:0:
475,192,106662,128,0,107348:0:0:0:0:
109,192,106662,1,0,0:0:0:0:
256,192,106662,1,0,0:0:0:0:
182,192,106834,1,0,0:0:0:0:
256,192,107005,1,0,0:0:0:0:
329,192,107177,1,0,0:0:0:0:
109,192,107348,128,0,108034:0:0:0:0:
182,192,107348,1,0,0:0:0:0:
256,192,107520,1,0,0:0:0:0:
329,192,107691,1,0,0:0:0:0:
402,192,107862,1,0,0:0:0:0:
182,192,108034,128,0,108720:0:0:0:0:
256,192,108034,1,0,0:0:0:0:
36,192,108205,1,0,0:0:0:0:
402,192,108377,1,0,0:0:0:0:
109,192,108548,1,0,0:0:0:0:
329,192,108720,128,0,109405:0:0:0:0:
256,192,108891,1,0,0:0:0:0:
109,192,109062,1,0,0:0:0:0:
36,192,109234,1,0,0:0:0:0:
182,192,109405,1,0,0:0:0:0:
329,192,109577,1,0,0:0:0:0:
182,192,109748,1,0,0:0:0:0:
329,192,109920,1,0,0:0:0:0:
109,192,110091,1,0,0:0:0:0:
329,192,110262,1,0,0:0:0:0:
36,192,110434,1,0,0:0:0:0:
329,192,110605,1,0,0:0:0:0:
109,192,110777,1,0,0:0:0:0:
402,192,110862,1,0,0:0:0:0:
182,192,110948,1,0,0:0:0:0:
329,192,111034,1,0,0:0:0:0:
36,192,111120,1,0,0:0:0:0:
475,192,111205,1,0,0:0:0:0:
109,192,111291,1,0,0:0:0:0:
402,192,111377,1,0,0:0:0:0:
182,192,111462,1,0,0:0:0:0:
329,192,111548,1,0,0:0:0:0:
109,192,111634,1,0,0:0:0:0:
402,192,111720,1,0,0:0:0:0:
36,192,111805,1,0,0:0:0:0:
475,192,111891,1,0,0:0:0:0:
182,192,111977,1,0,0:0:0:0:
329,192,112062,1,0,0:0:0:0:
475,192,112148,1,0,0:0:0:0:
36,192,112148,1,0,0:0:0:0:
256,192,112148,1,0,0:0:0:0:
109,192,112662,1,0,0:0:0:0:
329,192,112662,1,0,0:0:0:0:
475,192,112662,1,0,0:0:0:0:
109,192,113177,1,0,0:0:0:0:
402,192,113177,1,0,0:0:0:0:
36,192,113348,1,0,0:0:0:0:
329,192,113348,1,0,0:0:0:0:
36,192,114034,1,0,0:0:0:0:
329,192,114034,1,0,0:0:0:0:
402,192,114377,1,0,0:0:0:0:
256,192,114548,1,0,0:0:0:0:
109,192,114720,1,0,0:0:0:0:
256,192,114891,1,0,0:0:0:0:
402,192,114891,1,0,0:0:0:0:
475,192,114891,1,0,0:0:0:0:
182,192,115405,1,0,0:0:0:0:
402,192,115405,1,0,0:0:0:0:
109,192,115405,1,0,0:0:0:0:
109,192,115748,1,0,0:0:0:0:
329,192,115748,1,0,0:0:0:0:
36,192,116091,1,0,0:0:0:0:
256,192,116091,1,0,0:0:0:0:
109,192,116434,1,0,0:0:0:0:
36,192,116605,1,0,0:0:0:0:
256,192,116777,1,0,0:0:0:0:
182,192,116948,1,0,0:0:0:0:
402,192,116948,1,0,0:0:0:0:
36,192,117034,1,0,0:0:0:0:
256,192,117120,1,0,0:0:0:0:
109,192,117205,1,0,0:0:0:0:
329,192,117291,1,0,0:0:0:0:
182,192,117377,1,0,0:0:0:0:
402,192,117462,1,0,0:0:0:0:
256,192,117548,1,0,0:0:0:0:
36,192,117634,1,0,0:0:0:0:
182,192,117634,1,0,0:0:0:0:
475,192,117634,1,0,0:0:0:0:
182,192,117977,1,0,0:0:0:0:
329,192,118148,1,0,0:0:0:0:
475,192,118148,1,0,0:0:0:0:
36,192,118148,1,0,0:0:0:0:
329,192,118491,1,0,0:0:0:0:
109,192,118662,1,0,0:0:0:0:
36,192,118662,1,0,0:0:0:0:
182,192,118834,1,0,0:0:0:0:
475,192,118834,1,0,0:0:0:0:
109,192,119177,1,0,0:0:0:0:
329,192,119177,1,0,0:0:0:0:
182,192,119349,1,0,0:0:0:0:
36,192,119520,1,0,0:0:0:0:
475,192,119520,1,0,0:0:0:0:
402,192,119862,1,0,0:0:0:0:
182,192,119862,1,0,0:0:0:0:
329,192,120034,1,0,0:0:0:0:
256,192,120205,1,0,0:0:0:0:
36,192,120205,1,0,0:0:0:0:
109,192,120377,1,0,0:0:0:0:
402,192,120377,1,0,0:0:0:0:
475,192,120377,1,0,0:0:0:0:
256,192,120548,1,0,0:0:0:0:
36,192,120720,1,0,0:0:0:0:
329,192,120720,1,0,0:0:0:0:
402,192,120720,1,0,0:0:0:0:
182,192,120891,1,0,0:0:0:0:
329,192,121234,1,0,0:0:0:0:
475,192,121234,1,0,0:0:0:0:
256,192,121405,1,0,0:0:0:0:
402,192,121405,1,0,0:0:0:0:
182,192,121577,1,0,0:0:0:0:
329,192,121577,1,0,0:0:0:0:
36,192,121920,1,0,0:0:0:0:
256,192,121920,1,0,0:0:0:0:
109,192,122091,1,0,0:0:0:0:
329,192,122091,1,0,0:0:0:0:
182,192,122262,1,0,0:0:0:0:
402,192,122262,1,0,0:0:0:0:
256,192,122434,1,0,0:0:0:0:
475,192,122434,1,0,0:0:0:0:
36,192,122520,1,0,0:0:0:0:
329,192,122605,1,0,0:0:0:0:
109,192,122691,1,0,0:0:0:0:
402,192,122777,1,0,0:0:0:0:
182,192,122862,1,0,0:0:0:0:
475,192,122948,1,0,0:0:0:0:
256,192,123034,1,0,0:0:0:0:
109,192,123120,1,0,0:0:0:0:
402,192,123120,1,0,0:0:0:0:
182,192,123120,1,0,0:0:0:0:
182,192,123462,1,0,0:0:0:0:
475,192,123462,1,0,0:0:0:0:
329,192,123634,1,0,0:0:0:0:
256,192,123720,1,0,0:0:0:0:
182,192,123805,1,0,0:0:0:0:
109,192,123891,1,0,0:0:0:0:
36,192,123977,1,0,0:0:0:0:
402,192,123977,1,0,0:0:0:0:
109,192,124148,1,0,0:0:0:0:
475,192,124148,1,0,0:0:0:0:
256,192,124320,1,0,0:0:0:0:
329,192,124320,1,0,0:0:0:0:
182,192,124491,1,0,0:0:0:0:
402,192,124577,1,0,0:0:0:0:
182,192,124662,1,0,0:0:0:0:
256,192,124834,1,0,0:0:0:0:
329,192,124834,1,0,0:0:0:0:
36,192,125005,1,0,0:0:0:0:
109,192,125091,1,0,0:0:0:0:
182,192,125177,1,0,0:0:0:0:
256,192,125262,1,0,0:0:0:0:
329,192,125348,1,0,0:0:0:0:
402,192,125348,1,0,0:0:0:0:
256,192,125520,1,0,0:0:0:0:
329,192,125520,1,0,0:0:0:0:
182,192,125691,1,0,0:0:0:0:
256,192,125691,1,0,0:0:0:0:
109,192,125862,1,0,0:0:0:0:
402,192,125862,1,0,0:0:0:0:
182,192,126034,1,0,0:0:0:0:
475,192,126034,1,0,0:0:0:0:
36,192,126205,1,0,0:0:0:0:
256,192,126205,1,0,0:0:0:0:
402,192,126377,1,0,0:0:0:0:
329,192,126462,1,0,0:0:0:0:
256,192,126548,1,0,0:0:0:0:
182,192,126634,1,0,0:0:0:0:
109,192,126720,1,0,0:0:0:0:
36,192,126720,1,0,0:0:0:0:
36,192,126891,1,0,0:0:0:0:
256,192,126891,1,0,0:0:0:0:
36,192,127062,1,0,0:0:0:0:
402,192,127062,1,0,0:0:0:0:
36,192,127577,1,0,0:0:0:0:
402,192,127577,1,0,0:0:0:0:
109,192,127748,1,0,0:0:0:0:
329,192,127748,1,0,0:0:0:0:
36,192,128262,1,0,0:0:0:0:
475,192,128262,1,0,0:0:0:0:
109,192,128434,1,0,0:0:0:0:
402,192,128434,1,0,0:0:0:0:
36,192,128605,128,0,128777:0:0:0:0:
329,192,128605,1,0,0:0:0:0:
256,192,128777,128,0,128948:0:0:0:0:
475,192,128948,128,0,129120:0:0:0:0:
109,192,129120,128,0,129291:0:0:0:0:
402,192,129120,1,0,0:0:0:0:
256,192,129291,128,0,129462:0:0:0:0:
402,192,129462,128,0,129634:0:0:0:0:
109,192,129462,1,0,0:0:0:0:
182,192,129634,128,0,129805:0:0:0:0:
256,192,129805,128,0,129977:0:0:0:0:
36,192,129805,1,0,0:0:0:0:
475,192,129805,1,0,0:0:0:0:
329,192,129977,128,0,130148:0:0:0:0:
109,192,130148,128,0,130320:0:0:0:0:
256,192,130320,128,0,130491:0:0:0:0:
36,192,130320,1,0,0:0:0:0:
402,192,130491,128,0,130662:0:0:0:0:
182,192,130491,1,0,0:0:0:0:
36,192,130662,128,0,130834:0:0:0:0:
256,192,130834,128,0,131005:0:0:0:0:
109,192,130834,1,0,0:0:0:0:
402,192,130834,1,0,0:0:0:0:
475,192,131005,128,0,131177:0:0:0:0:
109,192,131177,128,0,131348:0:0:0:0:
256,192,131348,128,0,131520:0:0:0:0:
329,192,131348,1,0,0:0:0:0:
182,192,131348,1,0,0:0:0:0:
475,192,131520,128,0,131691:0:0:0:0:
182,192,131691,128,0,131862:0:0:0:0:
329,192,131862,128,0,132034:0:0:0:0:
36,192,131862,1,0,0:0:0:0:
475,192,132034,128,0,132205:0:0:0:0:
256,192,132205,128,0,132377:0:0:0:0:
182,192,132205,1,0,0:0:0:0:
329,192,132205,1,0,0:0:0:0:
402,192,132377,128,0,132548:0:0:0:0:
475,192,132548,128,0,132720:0:0:0:0:
109,192,132548,1,0,0:0:0:0:
256,192,132548,1,0,0:0:0:0:
329,192,132720,128,0,132891:0:0:0:0:
36,192,132720,1,0,0:0:0:0:
182,192,132720,1,0,0:0:0:0:
402,192,132891,128,0,133062:0:0:0:0:
475,192,133062,128,0,133234:0:0:0:0:
36,192,133234,128,0,133405:0:0:0:0:
256,192,133234,1,0,0:0:0:0:
109,192,133405,128,0,133577:0:0:0:0:
182,192,133577,128,0,133748:0:0:0:0:
256,192,133748,128,0,133920:0:0:0:0:
475,192,133748,1,0,0:0:0:0:
36,192,133920,128,0,134091:0:0:0:0:
475,192,133920,1,0,0:0:0:0:
475,192,134091,1,0,0:0:0:0:
182,192,134091,1,0,0:0:0:0:
109,192,134091,1,0,0:0:0:0:
329,192,134091,128,0,135462:0:0:0:0:
256,192,134262,1,0,0:0:0:0:
36,192,134434,1,0,0:0:0:0:
402,192,134434,1,0,0:0:0:0:
182,192,134605,1,0,0:0:0:0:
36,192,134777,1,0,0:0:0:0:
256,192,134777,1,0,0:0:0:0:
475,192,134948,1,0,0:0:0:0:
36,192,135120,1,0,0:0:0:0:
402,192,135120,1,0,0:0:0:0:
256,192,135291,1,0,0:0:0:0:
36,192,135462,128,0,135977:0:0:0:0:
182,192,135462,1,0,0:0:0:0:
475,192,135462,1,0,0:0:0:0:
329,192,135634,1,0,0:0:0:0:
182,192,135805,1,0,0:0:0:0:
256,192,135805,1,0,0:0:0:0:
475,192,135977,128,0,136834:0:0:0:0:
402,192,135977,1,0,0:0:0:0:
256,192,136148,1,0,0:0:0:0:
182,192,136148,1,0,0:0:0:0:
109,192,136320,1,0,0:0:0:0:
36,192,136491,128,0,136834:0:0:0:0:
182,192,136491,1,0,0:0:0:0:
256,192,136662,1,0,0:0:0:0:
182,192,136834,128,0,137520:0:0:0:0:
329,192,136834,1,0,0:0:0:0:
402,192,136834,1,0,0:0:0:0:
109,192,137005,1,0,0:0:0:0:
329,192,137177,1,0,0:0:0:0:
256,192,137177,1,0,0:0:0:0:
402,192,137348,1,0,0:0:0:0:
329,192,137520,128,0,138205:0:0:0:0:
475,192,137520,1,0,0:0:0:0:
36,192,137520,1,0,0:0:0:0:
109,192,137691,1,0,0:0:0:0:
475,192,137862,1,0,0:0:0:0:
182,192,137862,1,0,0:0:0:0:
109,192,138034,1,0,0:0:0:0:
475,192,138205,128,0,139577:0:0:0:0:
256,192,138205,1,0,0:0:0:0:
182,192,138205,1,0,0:0:0:0:
109,192,138377,1,0,0:0:0:0:
256,192,138548,1,0,0:0:0:0:
329,192,138548,1,0,0:0:0:0:
109,192,138720,1,0,0:0:0:0:
256,192,138891,128,0,139577:0:0:0:0:
36,192,138891,1,0,0:0:0:0:
402,192,138891,1,0,0:0:0:0:
329,192,139062,1,0,0:0:0:0:
36,192,139234,1,0,0:0:0:0:
182,192,139234,1,0,0:0:0:0:
329,192,139405,1,0,0:0:0:0:
36,192,139405,1,0,0:0:0:0:
182,192,139405,1,0,0:0:0:0:
36,192,139577,128,0,140605:0:0:0:0:
182,192,139577,1,0,0:0:0:0:
402,192,139577,1,0,0:0:0:0:
109,192,139748,1,0,0:0:0:0:
256,192,139920,1,0,0:0:0:0:
329,192,139920,1,0,0:0:0:0:
109,192,140091,1,0,0:0:0:0:
329,192,140262,1,0,0:0:0:0:
402,192,140262,1,0,0:0:0:0:
109,192,140434,1,0,0:0:0:0:
182,192,140605,128,0,140948:0:0:0:0:
402,192,140605,1,0,0:0:0:0:
475,192,140605,1,0,0:0:0:0:
329,192,140777,1,0,0:0:0:0:
402,192,140948,128,0,141462:0:0:0:0:
109,192,140948,1,0,0:0:0:0:
475,192,140948,1,0,0:0:0:0:
36,192,141120,1,0,0:0:0:0:
182,192,141291,1,0,0:0:0:0:
256,192,141291,1,0,0:0:0:0:
109,192,141462,128,0,141977:0:0:0:0:
256,192,141634,1,0,0:0:0:0:
329,192,141634,1,0,0:0:0:0:
475,192,141805,1,0,0:0:0:0:
36,192,141977,128,0,142320:0:0:0:0:
329,192,141977,1,0,0:0:0:0:
402,192,141977,1,0,0:0:0:0:
182,192,142148,1,0,0:0:0:0:
256,192,142320,128,0,143691:0:0:0:0:
109,192,142320,1,0,0:0:0:0:
402,192,142320,1,0,0:0:0:0:
329,192,142491,1,0,0:0:0:0:
109,192,142662,1,0,0:0:0:0:
402,192,142662,1,0,0:0:0:0:
36,192,142834,1,0,0:0:0:0:
109,192,143005,1,0,0:0:0:0:
402,192,143005,1,0,0:0:0:0:
329,192,143177,1,0,0:0:0:0:
109,192,143348,1,0,0:0:0:0:
402,192,143348,1,0,0:0:0:0:
36,192,143520,1,0,0:0:0:0:
329,192,143691,128,0,143862:0:0:0:0:
475,192,143691,1,0,0:0:0:0:
182,192,143862,128,0,144034:0:0:0:0:
36,192,143862,1,0,0:0:0:0:
402,192,144034,128,0,144205:0:0:0:0:
329,192,144034,1,0,0:0:0:0:
109,192,144205,128,0,144377:0:0:0:0:
182,192,144205,1,0,0:0:0:0:
475,192,144377,128,0,144548:0:0:0:0:
256,192,144377,1,0,0:0:0:0:
402,192,144377,1,0,0:0:0:0:
329,192,144634,1,0,0:0:0:0:
182,192,144634,1,0,0:0:0:0:
256,192,144891,1,0,0:0:0:0:
109,192,144891,1,0,0:0:0:0:
36,192,145405,1,0,0:0:0:0:
256,192,145405,1,0,0:0:0:0:
475,192,145405,1,0,0:0:0:0:
329,192,145577,1,0,0:0:0:0:
109,192,145577,128,0,145748:0:0:0:0:
182,192,145748,1,0,0:0:0:0:
475,192,145748,1,0,0:0:0:0:
329,192,145920,128,0,146091:0:0:0:0:
109,192,145920,1,0,0:0:0:0:
36,192,146091,1,0,0:0:0:0:
475,192,146091,1,0,0:0:0:0:
329,192,146262,1,0,0:0:0:0:
109,192,146263,128,0,146435:0:0:0:0:
182,192,146435,1,0,0:0:0:0:
475,192,146435,1,0,0:0:0:0:
402,192,146605,1,0,0:0:0:0:
182,192,146605,128,0,146776:0:0:0:0:
36,192,146776,1,0,0:0:0:0:
329,192,146777,1,0,0:0:0:0:
256,192,146948,128,0,147120:0:0:0:0:
402,192,146948,1,0,0:0:0:0:
475,192,147119,1,0,0:0:0:0:
109,192,147120,1,0,0:0:0:0:
329,192,147291,128,0,147462:0:0:0:0:
256,192,147291,1,0,0:0:0:0:
36,192,147462,1,0,0:0:0:0:
475,192,147462,1,0,0:0:0:0:
256,192,147634,1,0,0:0:0:0:
402,192,147634,128,0,147805:0:0:0:0:
182,192,147805,1,0,0:0:0:0:
475,192,147805,1,0,0:0:0:0:
109,192,147977,1,0,0:0:0:0:
329,192,147977,128,0,148148:0:0:0:0:
475,192,148148,1,0,0:0:0:0:
36,192,148148,1,0,0:0:0:0:
256,192,148320,128,0,148491:0:0:0:0:
109,192,148320,1,0,0:0:0:0:
475,192,148491,1,0,0:0:0:0:
36,192,148491,1,0,0:0:0:0:
402,192,148662,1,0,0:0:0:0:
182,192,148662,128,0,148834:0:0:0:0:
36,192,148834,1,0,0:0:0:0:
475,192,148834,1,0,0:0:0:0:
329,192,149005,1,0,0:0:0:0:
109,192,149005,128,0,149176:0:0:0:0:
182,192,149176,1,0,0:0:0:0:
475,192,149176,1,0,0:0:0:0:
256,192,149348,1,0,0:0:0:0:
36,192,149348,128,0,149520:0:0:0:0:
475,192,149519,1,0,0:0:0:0:
182,192,149519,1,0,0:0:0:0:
402,192,149691,128,0,149862:0:0:0:0:
256,192,149691,1,0,0:0:0:0:
475,192,149862,1,0,0:0:0:0:
182,192,149862,1,0,0:0:0:0:
256,192,150034,128,0,150205:0:0:0:0:
109,192,150034,1,0,0:0:0:0:
329,192,150205,1,0,0:0:0:0:
36,192,150205,1,0,0:0:0:0:
109,192,150377,128,0,150548:0:0:0:0:
475,192,150377,1,0,0:0:0:0:
256,192,150377,1,0,0:0:0:0:
182,192,150548,1,0,0:0:0:0:
329,192,150548,1,0,0:0:0:0:
256,192,150548,1,0,0:0:0:0:
402,192,150720,1,0,0:0:0:0:
109,192,150720,1,0,0:0:0:0:
329,192,150891,1,0,0:0:0:0:
182,192,150891,1,0,0:0:0:0:
402,192,151062,1,0,0:0:0:0:
109,192,151062,1,0,0:0:0:0:
36,192,151234,1,0,0:0:0:0:
475,192,151234,1,0,0:0:0:0:
109,192,151405,1,0,0:0:0:0:
402,192,151405,1,0,0:0:0:0:
182,192,151577,1,0,0:0:0:0:
329,192,151577,1,0,0:0:0:0:
36,192,151748,1,0,0:0:0:0:
475,192,151748,1,0,0:0:0:0:
109,192,151834,1,0,0:0:0:0:
402,192,151834,1,0,0:0:0:0:
182,192,151920,1,0,0:0:0:0:
329,192,151920,1,0,0:0:0:0:
256,192,151920,1,0,0:0:0:0:
109,192,152091,1,0,0:0:0:0:
402,192,152091,1,0,0:0:0:0:
36,192,152262,1,0,0:0:0:0:
329,192,152262,1,0,0:0:0:0:
109,192,152434,1,0,0:0:0:0:
402,192,152434,1,0,0:0:0:0:
475,192,152605,1,0,0:0:0:0:
182,192,152605,1,0,0:0:0:0:
36,192,152777,1,0,0:0:0:0:
329,192,152777,1,0,0:0:0:0:
182,192,152948,1,0,0:0:0:0:
475,192,152948,1,0,0:0:0:0:
36,192,153120,1,0,0:0:0:0:
329,192,153120,1,0,0:0:0:0:
402,192,153205,1,0,0:0:0:0:
109,192,153205,1,0,0:0:0:0:
475,192,153291,1,0,0:0:0:0:
182,192,153291,1,0,0:0:0:0:
256,192,153291,1,0,0:0:0:0:
402,192,153377,1,0,0:0:0:0:
36,192,153462,1,0,0:0:0:0:
109,192,153548,1,0,0:0:0:0:
402,192,153634,1,0,0:0:0:0:
329,192,153720,1,0,0:0:0:0:
109,192,153805,1,0,0:0:0:0:
182,192,153891,1,0,0:0:0:0:
329,192,153977,1,0,0:0:0:0:
36,192,153977,1,0,0:0:0:0:
402,192,154063,1,0,0:0:0:0:
182,192,154148,1,0,0:0:0:0:
109,192,154234,1,0,0:0:0:0:
402,192,154320,1,0,0:0:0:0:
475,192,154406,1,0,0:0:0:0:
109,192,154491,1,0,0:0:0:0:
36,192,154577,1,0,0:0:0:0:
256,192,154662,1,0,0:0:0:0:
402,192,154662,1,0,0:0:0:0:
109,192,154834,128,0,155005:0:0:0:0:
402,192,155005,1,0,0:0:0:0:
402,192,155177,128,0,155348:0:0:0:0:
109,192,155348,1,0,0:0:0:0:
256,192,155348,1,0,0:0:0:0:
109,192,155605,1,0,0:0:0:0:
402,192,155605,1,0,0:0:0:0:
402,192,155862,1,0,0:0:0:0:
109,192,155862,1,0,0:0:0:0:
36,192,156377,1,0,0:0:0:0:
475,192,156377,1,0,0:0:0:0:
182,192,156548,1,0,0:0:0:0:
329,192,156720,1,0,0:0:0:0:
475,192,156720,1,0,0:0:0:0:
109,192,156891,1,0,0:0:0:0:
256,192,157062,1,0,0:0:0:0:
402,192,157062,1,0,0:0:0:0:
475,192,157234,128,0,157577:0:0:0:0:
109,192,157405,1,0,0:0:0:0:
256,192,157405,1,0,0:0:0:0:
36,192,157577,128,0,157748:0:0:0:0:
182,192,157748,128,0,157920:0:0:0:0:
475,192,157748,1,0,0:0:0:0:
256,192,157748,1,0,0:0:0:0:
329,192,157920,128,0,158091:0:0:0:0:
109,192,158091,128,0,158262:0:0:0:0:
475,192,158091,1,0,0:0:0:0:
36,192,158091,1,0,0:0:0:0:
402,192,158262,128,0,158434:0:0:0:0:
182,192,158434,128,0,158605:0:0:0:0:
109,192,158434,1,0,0:0:0:0:
475,192,158434,1,0,0:0:0:0:
329,192,158605,128,0,158777:0:0:0:0:
36,192,158777,1,0,0:0:0:0:
475,192,158777,1,0,0:0:0:0:
182,192,158948,1,0,0:0:0:0:
36,192,159120,1,0,0:0:0:0:
402,192,159120,1,0,0:0:0:0:
256,192,159291,1,0,0:0:0:0:
36,192,159462,128,0,159634:0:0:0:0:
475,192,159462,1,0,0:0:0:0:
329,192,159634,128,0,159805:0:0:0:0:
109,192,159805,128,0,159977:0:0:0:0:
475,192,159805,1,0,0:0:0:0:
402,192,159977,128,0,160148:0:0:0:0:
256,192,160148,1,0,0:0:0:0:
109,192,160148,1,0,0:0:0:0:
36,192,160320,128,0,160491:0:0:0:0:
182,192,160491,128,0,160662:0:0:0:0:
402,192,160491,1,0,0:0:0:0:
475,192,160662,128,0,160834:0:0:0:0:
329,192,160834,128,0,161005:0:0:0:0:
109,192,160834,1,0,0:0:0:0:
182,192,161005,1,0,0:0:0:0:
36,192,161177,1,0,0:0:0:0:
475,192,161177,1,0,0:0:0:0:
109,192,161348,1,0,0:0:0:0:
402,192,161348,1,0,0:0:0:0:
182,192,161520,1,0,0:0:0:0:
329,192,161520,1,0,0:0:0:0:
475,192,161691,1,0,0:0:0:0:
256,192,161862,1,0,0:0:0:0:
109,192,161862,1,0,0:0:0:0:
402,192,162034,1,0,0:0:0:0:
256,192,162205,1,0,0:0:0:0:
109,192,162205,1,0,0:0:0:0:
475,192,162377,1,0,0:0:0:0:
256,192,162548,1,0,0:0:0:0:
36,192,162548,1,0,0:0:0:0:
475,192,162720,1,0,0:0:0:0:
109,192,162891,1,0,0:0:0:0:
256,192,162891,1,0,0:0:0:0:
475,192,163062,128,0,163234:0:0:0:0:
329,192,163234,128,0,163405:0:0:0:0:
36,192,163234,1,0,0:0:0:0:
182,192,163405,128,0,163577:0:0:0:0:
475,192,163577,1,0,0:0:0:0:
329,192,163577,1,0,0:0:0:0:
182,192,163748,1,0,0:0:0:0:
329,192,163920,1,0,0:0:0:0:
36,192,163920,1,0,0:0:0:0:
256,192,164091,1,0,0:0:0:0:
109,192,164262,1,0,0:0:0:0:
402,192,164262,1,0,0:0:0:0:
256,192,164434,1,0,0:0:0:0:
475,192,164605,1,0,0:0:0:0:
329,192,164605,1,0,0:0:0:0:
182,192,164777,1,0,0:0:0:0:
256,192,164948,1,0,0:0:0:0:
402,192,164948,128,0,165120:0:0:0:0:
109,192,165120,128,0,165291:0:0:0:0:
402,192,165291,128,0,165462:0:0:0:0:
256,192,165291,1,0,0:0:0:0:
109,192,165462,128,0,165634:0:0:0:0:
475,192,165634,1,0,0:0:0:0:
329,192,165634,1,0,0:0:0:0:
256,192,165805,1,0,0:0:0:0:
182,192,165977,1,0,0:0:0:0:
402,192,165977,1,0,0:0:0:0:
109,192,166148,1,0,0:0:0:0:
36,192,166320,1,0,0:0:0:0:
475,192,166320,1,0,0:0:0:0:
109,192,166577,1,0,0:0:0:0:
402,192,166577,1,0,0:0:0:0:
182,192,166834,1,0,0:0:0:0:
329,192,166834,1,0,0:0:0:0:
256,192,167177,128,0,167348:0:0:0:0:
36,192,167348,1,0,0:0:0:0:
475,192,167348,1,0,0:0:0:0:
329,192,167520,1,0,0:0:0:0:
109,192,167691,1,0,0:0:0:0:
256,192,167691,1,0,0:0:0:0:
402,192,167862,1,0,0:0:0:0:
329,192,168034,1,0,0:0:0:0:
182,192,168034,1,0,0:0:0:0:
36,192,168205,1,0,0:0:0:0:
256,192,168377,1,0,0:0:0:0:
475,192,168377,1,0,0:0:0:0:
109,192,168548,1,0,0:0:0:0:
256,192,168720,1,0,0:0:0:0:
402,192,168720,1,0,0:0:0:0:
109,192,168891,1,0,0:0:0:0:
475,192,169062,128,0,169405:0:0:0:0:
329,192,169062,1,0,0:0:0:0:
182,192,169234,1,0,0:0:0:0:
36,192,169405,128,0,169748:0:0:0:0:
329,192,169405,1,0,0:0:0:0:
182,192,169577,1,0,0:0:0:0:
329,192,169748,1,0,0:0:0:0:
475,192,169748,1,0,0:0:0:0:
256,192,169920,1,0,0:0:0:0:
182,192,170091,1,0,0:0:0:0:
36,192,170091,1,0,0:0:0:0:
402,192,170262,1,0,0:0:0:0:
329,192,170434,1,0,0:0:0:0:
182,192,170434,1,0,0:0:0:0:
36,192,170605,1,0,0:0:0:0:
256,192,170777,1,0,0:0:0:0:
109,192,170777,1,0,0:0:0:0:
402,192,170948,1,0,0:0:0:0:
36,192,171120,1,0,0:0:0:0:
329,192,171120,1,0,0:0:0:0:
475,192,171291,128,0,171462:0:0:0:0:
329,192,171462,128,0,171634:0:0:0:0:
109,192,171462,1,0,0:0:0:0:
182,192,171634,128,0,171805:0:0:0:0:
475,192,171805,1,0,0:0:0:0:
36,192,171805,1,0,0:0:0:0:
256,192,171977,1,0,0:0:0:0:
109,192,172148,1,0,0:0:0:0:
402,192,172148,1,0,0:0:0:0:
109,192,172320,1,0,0:0:0:0:
402,192,172320,1,0,0:0:0:0:
109,192,172491,1,0,0:0:0:0:
402,192,172491,1,0,0:0:0:0:
402,192,172662,1,0,0:0:0:0:
182,192,172662,1,0,0:0:0:0:
256,192,172834,1,0,0:0:0:0:
475,192,172834,1,0,0:0:0:0:
256,192,173005,1,0,0:0:0:0:
402,192,173005,1,0,0:0:0:0:
109,192,173177,1,0,0:0:0:0:
329,192,173177,1,0,0:0:0:0:
109,192,173348,1,0,0:0:0:0:
256,192,173348,1,0,0:0:0:0:
329,192,173520,1,0,0:0:0:0:
36,192,173520,1,0,0:0:0:0:
329,192,173691,1,0,0:0:0:0:
182,192,173777,1,0,0:0:0:0:
36,192,173862,1,0,0:0:0:0:
475,192,173862,1,0,0:0:0:0:
402,192,174034,1,0,0:0:0:0:
256,192,174034,1,0,0:0:0:0:
109,192,174205,1,0,0:0:0:0:
36,192,174205,1,0,0:0:0:0:
182,192,174377,1,0,0:0:0:0:
256,192,174377,1,0,0:0:0:0:
475,192,174548,1,0,0:0:0:0:
329,192,174548,1,0,0:0:0:0:
402,192,174720,1,0,0:0:0:0:
256,192,174720,1,0,0:0:0:0:
36,192,174891,1,0,0:0:0:0:
182,192,174891,1,0,0:0:0:0:
109,192,175062,1,0,0:0:0:0:
182,192,175148,1,0,0:0:0:0:
256,192,175234,1,0,0:0:0:0:
475,192,175234,1,0,0:0:0:0:
402,192,175320,1,0,0:0:0:0:
329,192,175405,1,0,0:0:0:0:
256,192,175491,1,0,0:0:0:0:
36,192,175577,1,0,0:0:0:0:
109,192,175662,1,0,0:0:0:0:
182,192,175748,1,0,0:0:0:0:
256,192,175834,1,0,0:0:0:0:
36,192,175920,1,0,0:0:0:0:
475,192,175920,1,0,0:0:0:0:
109,192,176005,1,0,0:0:0:0:
182,192,176091,1,0,0:0:0:0:
256,192,176177,1,0,0:0:0:0:
475,192,176262,1,0,0:0:0:0:
402,192,176348,1,0,0:0:0:0:
329,192,176434,1,0,0:0:0:0:
256,192,176520,1,0,0:0:0:0:
182,192,176605,1,0,0:0:0:0:
475,192,176605,1,0,0:0:0:0:
402,192,176777,128,0,176948:0:0:0:0:
109,192,176948,1,0,0:0:0:0:
109,192,177120,128,0,177291:0:0:0:0:
402,192,177291,1,0,0:0:0:0:
256,192,177291,1,0,0:0:0:0:
256,192,177548,1,0,0:0:0:0:
402,192,177548,1,0,0:0:0:0:
109,192,177805,1,0,0:0:0:0:
256,192,177805,1,0,0:0:0:0:
402,192,177977,1,0,0:0:0:0:
36,192,178320,1,0,0:0:0:0:
475,192,178320,1,0,0:0:0:0:
256,192,178320,1,0,0:0:0:0:
329,192,178491,1,0,0:0:0:0:
182,192,178662,1,0,0:0:0:0:
329,192,178834,1,0,0:0:0:0:
475,192,179005,1,0,0:0:0:0:
182,192,179177,1,0,0:0:0:0:
182,192,179520,1,0,0:0:0:0:
329,192,179691,1,0,0:0:0:0:
182,192,179862,1,0,0:0:0:0:
36,192,180034,1,0,0:0:0:0:
182,192,180205,1,0,0:0:0:0:
475,192,180377,1,0,0:0:0:0:
329,192,180548,1,0,0:0:0:0:
182,192,181062,1,0,0:0:0:0:
36,192,181234,1,0,0:0:0:0:
182,192,181405,1,0,0:0:0:0:
475,192,181577,1,0,0:0:0:0:
329,192,181748,1,0,0:0:0:0:
182,192,181920,1,0,0:0:0:0:
329,192,182262,1,0,0:0:0:0:
182,192,182605,1,0,0:0:0:0:
36,192,182777,1,0,0:0:0:0:
182,192,182948,1,0,0:0:0:0:
329,192,183120,1,0,0:0:0:0:
475,192,183291,1,0,0:0:0:0:
36,192,183805,1,0,0:0:0:0:
256,192,183977,1,0,0:0:0:0:
109,192,184148,1,0,0:0:0:0:
256,192,184320,1,0,0:0:0:0:
402,192,184491,1,0,0:0:0:0:
475,192,184662,1,0,0:0:0:0:
475,192,185005,1,0,0:0:0:0:
329,192,185348,1,0,0:0:0:0:
182,192,185520,1,0,0:0:0:0:
36,192,185691,1,0,0:0:0:0:
329,192,185862,1,0,0:0:0:0:
475,192,186034,1,0,0:0:0:0:
36,192,186548,1,0,0:0:0:0:
36,192,186720,1,0,0:0:0:0:
182,192,186891,1,0,0:0:0:0:
475,192,187062,1,0,0:0:0:0:
329,192,187234,1,0,0:0:0:0:
182,192,187405,1,0,0:0:0:0:
182,192,187748,1,0,0:0:0:0:
256,192,188091,1,0,0:0:0:0:
402,192,188262,1,0,0:0:0:0:
182,192,188434,1,0,0:0:0:0:
475,192,188605,1,0,0:0:0:0:
402,192,188862,1,0,0:0:0:0:
329,192,189120,1,0,0:0:0:0:
36,192,189291,1,0,0:0:0:0:
182,192,189291,1,0,0:0:0:0:
475,192,189291,128,0,190148:0:0:0:0:
329,192,189462,1,0,0:0:0:0:
109,192,189634,1,0,0:0:0:0:
402,192,189805,1,0,0:0:0:0:
329,192,189891,1,0,0:0:0:0:
256,192,189977,1,0,0:0:0:0:
36,192,190148,1,0,0:0:0:0:
182,192,190320,1,0,0:0:0:0:
475,192,190491,128,0,191348:0:0:0:0:
182,192,190491,1,0,0:0:0:0:
36,192,190834,1,0,0:0:0:0:
182,192,191005,1,0,0:0:0:0:
36,192,191177,1,0,0:0:0:0:
109,192,191262,1,0,0:0:0:0:
329,192,191348,128,0,192034:0:0:0:0:
182,192,191348,1,0,0:0:0:0:
475,192,191520,1,0,0:0:0:0:
36,192,191691,1,0,0:0:0:0:
475,192,191862,1,0,0:0:0:0:
402,192,191948,1,0,0:0:0:0:
182,192,192034,128,0,192891:0:0:0:0:
109,192,192034,1,0,0:0:0:0:
329,192,192205,1,0,0:0:0:0:
475,192,192377,1,0,0:0:0:0:
256,192,192548,1,0,0:0:0:0:
329,192,192634,1,0,0:0:0:0:
402,192,192720,1,0,0:0:0:0:
36,192,192805,1,0,0:0:0:0:
109,192,192891,1,0,0:0:0:0:
475,192,193062,1,0,0:0:0:0:
182,192,193234,128,0,194091:0:0:0:0:
475,192,193234,1,0,0:0:0:0:
329,192,193577,1,0,0:0:0:0:
475,192,193748,1,0,0:0:0:0:
36,192,193920,1,0,0:0:0:0:
256,192,194005,1,0,0:0:0:0:
329,192,194091,128,0,194777:0:0:0:0:
475,192,194091,1,0,0:0:0:0:
109,192,194262,1,0,0:0:0:0:
475,192,194434,1,0,0:0:0:0:
256,192,194605,1,0,0:0:0:0:
109,192,194777,128,0,195634:0:0:0:0:
36,192,194777,1,0,0:0:0:0:
402,192,194948,1,0,0:0:0:0:
256,192,195120,1,0,0:0:0:0:
475,192,195291,1,0,0:0:0:0:
402,192,195377,1,0,0:0:0:0:
329,192,195462,1,0,0:0:0:0:
182,192,195634,1,0,0:0:0:0:
402,192,195805,1,0,0:0:0:0:
109,192,195977,128,0,196491:0:0:0:0:
402,192,195977,1,0,0:0:0:0:
329,192,196320,1,0,0:0:0:0:
256,192,196491,128,0,196834:0:0:0:0:
475,192,196491,1,0,0:0:0:0:
36,192,196662,1,0,0:0:0:0:
109,192,196748,1,0,0:0:0:0:
402,192,196834,128,0,197177:0:0:0:0:
182,192,196834,1,0,0:0:0:0:
329,192,197005,1,0,0:0:0:0:
182,192,197177,128,0,197520:0:0:0:0:
36,192,197177,1,0,0:0:0:0:
402,192,197348,1,0,0:0:0:0:
329,192,197434,1,0,0:0:0:0:
475,192,197520,128,0,198205:0:0:0:0:
256,192,197520,1,0,0:0:0:0:
36,192,197691,1,0,0:0:0:0:
182,192,197862,1,0,0:0:0:0:
36,192,198034,1,0,0:0:0:0:
109,192,198120,1,0,0:0:0:0:
182,192,198205,1,0,0:0:0:0:
256,192,198291,1,0,0:0:0:0:
329,192,198377,1,0,0:0:0:0:
109,192,198548,1,0,0:0:0:0:
475,192,198720,128,0,199577:0:0:0:0:
109,192,198720,1,0,0:0:0:0:
109,192,199062,1,0,0:0:0:0:
256,192,199234,1,0,0:0:0:0:
36,192,199405,1,0,0:0:0:0:
109,192,199491,1,0,0:0:0:0:
329,192,199577,128,0,199748:0:0:0:0:
182,192,199577,1,0,0:0:0:0:
182,192,199748,128,0,199920:0:0:0:0:
329,192,199920,128,0,200091:0:0:0:0:
182,192,200091,128,0,200262:0:0:0:0:
36,192,200262,1,0,0:0:0:0:
475,192,200262,1,0,0:0:0:0:
329,192,200262,128,0,201634:0:0:0:0:
182,192,200605,1,0,0:0:0:0:
36,192,200777,1,0,0:0:0:0:
109,192,200862,1,0,0:0:0:0:
182,192,200948,1,0,0:0:0:0:
475,192,201120,1,0,0:0:0:0:
109,192,201291,1,0,0:0:0:0:
109,192,201462,1,0,0:0:0:0:
36,192,201634,128,0,202320:0:0:0:0:
256,192,201805,1,0,0:0:0:0:
182,192,201977,1,0,0:0:0:0:
329,192,202148,1,0,0:0:0:0:
402,192,202234,1,0,0:0:0:0:
256,192,202320,128,0,203005:0:0:0:0:
475,192,202320,1,0,0:0:0:0:
109,192,202491,1,0,0:0:0:0:
402,192,202662,1,0,0:0:0:0:
182,192,202834,1,0,0:0:0:0:
109,192,202920,1,0,0:0:0:0:
475,192,203005,128,0,203348:0:0:0:0:
36,192,203005,1,0,0:0:0:0:
256,192,203177,1,0,0:0:0:0:
329,192,203348,128,0,203520:0:0:0:0:
109,192,203348,1,0,0:0:0:0:
182,192,203520,128,0,203862:0:0:0:0:
475,192,203520,1,0,0:0:0:0:
402,192,203605,1,0,0:0:0:0:
329,192,203691,1,0,0:0:0:0:
36,192,203862,128,0,204034:0:0:0:0:
475,192,203862,1,0,0:0:0:0:
256,192,204034,128,0,204377:0:0:0:0:
109,192,204034,1,0,0:0:0:0:
109,192,204205,1,0,0:0:0:0:
329,192,204377,128,0,204891:0:0:0:0:
36,192,204377,1,0,0:0:0:0:
475,192,204548,1,0,0:0:0:0:
182,192,204720,1,0,0:0:0:0:
402,192,204891,128,0,205405:0:0:0:0:
36,192,204891,1,0,0:0:0:0:
109,192,204977,1,0,0:0:0:0:
182,192,205062,1,0,0:0:0:0:
475,192,205234,1,0,0:0:0:0:
256,192,205405,128,0,205748:0:0:0:0:
36,192,205405,1,0,0:0:0:0:
402,192,205577,1,0,0:0:0:0:
475,192,205748,128,0,207120:0:0:0:0:
109,192,205748,1,0,0:0:0:0:
329,192,205920,1,0,0:0:0:0:
182,192,206091,1,0,0:0:0:0:
402,192,206262,1,0,0:0:0:0:
329,192,206348,1,0,0:0:0:0:
256,192,206434,1,0,0:0:0:0:
182,192,206520,1,0,0:0:0:0:
109,192,206605,1,0,0:0:0:0:
329,192,206777,1,0,0:0:0:0:
329,192,206948,1,0,0:0:0:0:
256,192,207120,128,0,207634:0:0:0:0:
36,192,207120,1,0,0:0:0:0:
475,192,207291,1,0,0:0:0:0:
182,192,207462,1,0,0:0:0:0:
475,192,207634,128,0,208148:0:0:0:0:
402,192,207634,1,0,0:0:0:0:
36,192,207805,1,0,0:0:0:0:
256,192,207977,1,0,0:0:0:0:
329,192,208148,128,0,208491:0:0:0:0:
109,192,208148,1,0,0:0:0:0:
475,192,208320,1,0,0:0:0:0:
256,192,208405,1,0,0:0:0:0:
182,192,208491,128,0,209005:0:0:0:0:
36,192,208491,1,0,0:0:0:0:
329,192,208662,1,0,0:0:0:0:
475,192,208834,1,0,0:0:0:0:
36,192,209005,128,0,210548:0:0:0:0:
256,192,209005,1,0,0:0:0:0:
402,192,209091,1,0,0:0:0:0:
256,192,209177,1,0,0:0:0:0:
402,192,209262,1,0,0:0:0:0:
182,192,209348,1,0,0:0:0:0:
475,192,209520,1,0,0:0:0:0:
475,192,209691,1,0,0:0:0:0:
329,192,209862,1,0,0:0:0:0:
109,192,209862,1,0,0:0:0:0:
475,192,210034,1,0,0:0:0:0:
182,192,210205,1,0,0:0:0:0:
329,192,210377,1,0,0:0:0:0:
475,192,210548,128,0,210720:0:0:0:0:
329,192,210720,128,0,210891:0:0:0:0:
182,192,210891,128,0,211062:0:0:0:0:
36,192,211062,128,0,211234:0:0:0:0:
475,192,211234,1,0,0:0:0:0:
182,192,211234,1,0,0:0:0:0:
329,192,211405,1,0,0:0:0:0:
256,192,211577,1,0,0:0:0:0:
36,192,211577,1,0,0:0:0:0:
402,192,211748,1,0,0:0:0:0:
329,192,211920,1,0,0:0:0:0:
109,192,211920,1,0,0:0:0:0:
182,192,212091,1,0,0:0:0:0:
329,192,212262,1,0,0:0:0:0:
475,192,212262,1,0,0:0:0:0:
109,192,212434,1,0,0:0:0:0:
256,192,212605,1,0,0:0:0:0:
402,192,212605,1,0,0:0:0:0:
182,192,212777,1,0,0:0:0:0:
36,192,212948,1,0,0:0:0:0:
329,192,212948,1,0,0:0:0:0:
256,192,213120,1,0,0:0:0:0:
109,192,213291,1,0,0:0:0:0:
402,192,213291,1,0,0:0:0:0:
329,192,213462,1,0,0:0:0:0:
182,192,213634,1,0,0:0:0:0:
475,192,213634,1,0,0:0:0:0:
329,192,213805,1,0,0:0:0:0:
256,192,213977,1,0,0:0:0:0:
36,192,213977,1,0,0:0:0:0:
182,192,214148,1,0,0:0:0:0:
329,192,214320,1,0,0:0:0:0:
475,192,214320,1,0,0:0:0:0:
109,192,214491,1,0,0:0:0:0:
256,192,214662,1,0,0:0:0:0:
402,192,214662,1,0,0:0:0:0:
36,192,214834,1,0,0:0:0:0:
182,192,215005,1,0,0:0:0:0:
329,192,215005,1,0,0:0:0:0:
475,192,215177,1,0,0:0:0:0:
256,192,215348,1,0,0:0:0:0:
36,192,215348,1,0,0:0:0:0:
402,192,215520,1,0,0:0:0:0:
329,192,215691,1,0,0:0:0:0:
109,192,215691,1,0,0:0:0:0:
182,192,215862,1,0,0:0:0:0:
329,192,216034,1,0,0:0:0:0:
475,192,216034,1,0,0:0:0:0:
182,192,216205,1,0,0:0:0:0:
109,192,216377,1,0,0:0:0:0:
329,192,216377,1,0,0:0:0:0:
329,192,216548,1,0,0:0:0:0:
109,192,216548,1,0,0:0:0:0:
475,192,216720,128,0,218091:0:0:0:0:
109,192,216720,1,0,0:0:0:0:
329,192,216720,1,0,0:0:0:0:
256,192,216891,1,0,0:0:0:0:
182,192,217062,1,0,0:0:0:0:
36,192,217062,1,0,0:0:0:0:
256,192,217234,1,0,0:0:0:0:
109,192,217405,1,0,0:0:0:0:
329,192,217405,1,0,0:0:0:0:
182,192,217577,1,0,0:0:0:0:
402,192,217748,1,0,0:0:0:0:
36,192,217748,1,0,0:0:0:0:
256,192,217920,1,0,0:0:0:0:
182,192,218005,1,0,0:0:0:0:
329,192,218091,128,0,218605:0:0:0:0:
36,192,218091,1,0,0:0:0:0:
109,192,218091,1,0,0:0:0:0:
256,192,218262,1,0,0:0:0:0:
109,192,218434,1,0,0:0:0:0:
475,192,218434,1,0,0:0:0:0:
182,192,218605,128,0,219120:0:0:0:0:
402,192,218605,1,0,0:0:0:0:
329,192,218777,1,0,0:0:0:0:
36,192,218777,1,0,0:0:0:0:
256,192,218948,1,0,0:0:0:0:
36,192,219120,128,0,219462:0:0:0:0:
329,192,219120,1,0,0:0:0:0:
475,192,219120,1,0,0:0:0:0:
182,192,219291,1,0,0:0:0:0:
475,192,219462,1,0,0:0:0:0:
256,192,219462,1,0,0:0:0:0:
475,192,219634,1,0,0:0:0:0:
256,192,219634,1,0,0:0:0:0:
402,192,219805,1,0,0:0:0:0:
182,192,219805,1,0,0:0:0:0:
402,192,219977,1,0,0:0:0:0:
182,192,219977,1,0,0:0:0:0:
329,192,220148,1,0,0:0:0:0:
109,192,220148,1,0,0:0:0:0:
329,192,220320,1,0,0:0:0:0:
109,192,220320,1,0,0:0:0:0:
256,192,220491,1,0,0:0:0:0:
36,192,220491,1,0,0:0:0:0:
256,192,220662,1,0,0:0:0:0:
36,192,220662,1,0,0:0:0:0:
256,192,220834,128,0,222205:0:0:0:0:
475,192,220834,1,0,0:0:0:0:
36,192,221520,1,0,0:0:0:0:
109,192,221605,1,0,0:0:0:0:
182,192,221691,1,0,0:0:0:0:
475,192,221862,1,0,0:0:0:0:
109,192,221948,1,0,0:0:0:0:
402,192,222034,1,0,0:0:0:0:
182,192,222120,1,0,0:0:0:0:
36,192,222205,1,0,0:0:0:0:
475,192,222205,1,0,0:0:0:0:
182,192,222377,1,0,0:0:0:0:
475,192,222548,1,0,0:0:0:0:
329,192,222720,1,0,0:0:0:0:
182,192,222891,1,0,0:0:0:0:
475,192,223062,1,0,0:0:0:0:
182,192,223405,1,0,0:0:0:0:
402,192,223577,1,0,0:0:0:0:
109,192,223920,1,0,0:0:0:0:
329,192,224091,1,0,0:0:0:0:
36,192,224434,1,0,0:0:0:0:
182,192,224605,1,0,0:0:0:0:
329,192,224777,1,0,0:0:0:0:
475,192,224948,1,0,0:0:0:0:
109,192,225120,1,0,0:0:0:0:
256,192,225291,1,0,0:0:0:0:
402,192,225462,1,0,0:0:0:0:
109,192,226320,1,0,0:0:0:0:
402,192,226491,1,0,0:0:0:0:
256,192,226662,1,0,0:0:0:0:
109,192,226834,1,0,0:0:0:0:
36,192,227691,1,0,0:0:0:0:
402,192,227862,1,0,0:0:0:0:
109,192,228034,1,0,0:0:0:0:
329,192,228377,1,0,0:0:0:0:
109,192,228720,1,0,0:0:0:0:
402,192,229062,1,0,0:0:0:0:
109,192,229405,1,0,0:0:0:0:
329,192,229577,1,0,0:0:0:0:
402,192,229920,1,0,0:0:0:0:
182,192,230091,1,0,0:0:0:0:
36,192,230777,1,0,0:0:0:0:
475,192,230948,1,0,0:0:0:0:
329,192,231120,1,0,0:0:0:0:
182,192,231291,1,0,0:0:0:0:
36,192,231462,1,0,0:0:0:0:
475,192,231805,128,0,231977:0:0:0:0:
256,192,231977,128,0,232148:0:0:0:0:
36,192,232148,128,0,232320:0:0:0:0:
402,192,232320,128,0,232491:0:0:0:0:
182,192,232491,1,0,0:0:0:0:
109,192,232662,128,0,232834:0:0:0:0:
329,192,232834,1,0,0:0:0:0:
256,192,233005,128,0,233177:0:0:0:0:
36,192,233177,1,0,0:0:0:0:
475,192,233177,1,0,0:0:0:0:
182,192,233348,1,0,0:0:0:0:
329,192,233520,1,0,0:0:0:0:
109,192,233691,1,0,0:0:0:0:
256,192,233862,1,0,0:0:0:0:
36,192,234034,1,0,0:0:0:0:
256,192,234205,1,0,0:0:0:0:
402,192,234377,1,0,0:0:0:0:
182,192,234548,1,0,0:0:0:0:
256,192,234891,1,0,0:0:0:0:
475,192,235062,1,0,0:0:0:0:
329,192,235405,1,0,0:0:0:0:
109,192,235577,1,0,0:0:0:0:
475,192,235920,1,0,0:0:0:0:
329,192,236091,1,0,0:0:0:0:
182,192,236262,1,0,0:0:0:0:
36,192,236434,1,0,0:0:0:0:
402,192,236777,1,0,0:0:0:0:
256,192,236948,1,0,0:0:0:0:
402,192,237291,1,0,0:0:0:0:
256,192,237462,1,0,0:0:0:0:
109,192,237634,1,0,0:0:0:0:
402,192,237805,1,0,0:0:0:0:
256,192,237977,1,0,0:0:0:0:
36,192,238148,1,0,0:0:0:0:
182,192,238320,1,0,0:0:0:0:
329,192,238491,1,0,0:0:0:0:
36,192,238662,1,0,0:0:0:0:
475,192,238662,1,0,0:0:0:0:
329,192,238834,1,0,0:0:0:0:
182,192,239005,1,0,0:0:0:0:
402,192,239177,1,0,0:0:0:0:
256,192,239348,1,0,0:0:0:0:
109,192,239520,1,0,0:0:0:0:
329,192,239691,1,0,0:0:0:0:
182,192,239862,1,0,0:0:0:0:
36,192,240034,1,0,0:0:0:0:
402,192,240205,1,0,0:0:0:0:
256,192,240377,1,0,0:0:0:0:
109,192,240548,1,0,0:0:0:0:
475,192,240720,1,0,0:0:0:0:
329,192,240891,1,0,0:0:0:0:
182,192,241062,1,0,0:0:0:0:
36,192,241234,1,0,0:0:0:0:
256,192,241405,1,0,0:0:0:0:
475,192,241577,1,0,0:0:0:0:
36,192,241748,1,0,0:0:0:0:
182,192,241920,1,0,0:0:0:0:
329,192,242091,1,0,0:0:0:0:
36,192,242262,1,0,0:0:0:0:
182,192,242434,1,0,0:0:0:0:
475,192,242605,1,0,0:0:0:0:
329,192,242777,1,0,0:0:0:0:
36,192,242777,1,0,0:0:0:0:
182,192,242777,128,0,242948:0:0:0:0:
36,192,242948,128,0,243120:0:0:0:0:
182,192,243120,128,0,243291:0:0:0:0:
329,192,243291,128,0,243462:0:0:0:0:
475,192,243462,128,0,243634:0:0:0:0:
329,192,243634,128,0,243805:0:0:0:0:
109,192,243805,128,0,243977:0:0:0:0:
256,192,243977,128,0,244148:0:0:0:0:
36,192,244148,1,0,0:0:0:0:
475,192,244148,1,0,0:0:0:0:
182,192,244320,128,0,244491:0:0:0:0:
329,192,244491,128,0,244662:0:0:0:0:
36,192,244491,1,0,0:0:0:0:
475,192,244491,1,0,0:0:0:0:
109,192,244834,128,0,245005:0:0:0:0:
475,192,244834,1,0,0:0:0:0:
329,192,244834,1,0,0:0:0:0:
256,192,245005,128,0,245177:0:0:0:0:
402,192,245177,1,0,0:0:0:0:
109,192,245177,1,0,0:0:0:0:
36,192,245348,128,0,245520:0:0:0:0:
329,192,245520,128,0,245691:0:0:0:0:
475,192,245520,1,0,0:0:0:0:
182,192,245520,1,0,0:0:0:0:
109,192,245691,128,0,245862:0:0:0:0:
256,192,245862,128,0,246034:0:0:0:0:
36,192,245862,1,0,0:0:0:0:
475,192,245862,1,0,0:0:0:0:
402,192,246034,128,0,246205:0:0:0:0:
109,192,246205,1,0,0:0:0:0:
475,192,246205,1,0,0:0:0:0:
256,192,246377,128,0,246548:0:0:0:0:
475,192,246548,128,0,246720:0:0:0:0:
36,192,246548,1,0,0:0:0:0:
329,192,246548,1,0,0:0:0:0:
256,192,246891,128,0,247062:0:0:0:0:
109,192,246891,1,0,0:0:0:0:
402,192,246891,1,0,0:0:0:0:
475,192,247062,128,0,247234:0:0:0:0:
329,192,247234,1,0,0:0:0:0:
36,192,247234,1,0,0:0:0:0:
182,192,247405,128,0,247577:0:0:0:0:
402,192,247577,128,0,247748:0:0:0:0:
36,192,247577,1,0,0:0:0:0:
475,192,247577,1,0,0:0:0:0:
182,192,247748,128,0,247920:0:0:0:0:
36,192,247920,128,0,248091:0:0:0:0:
475,192,247920,1,0,0:0:0:0:
329,192,248091,128,0,248262:0:0:0:0:
475,192,248262,128,0,248434:0:0:0:0:
182,192,248262,1,0,0:0:0:0:
36,192,248262,1,0,0:0:0:0:
109,192,248605,128,0,248777:0:0:0:0:
402,192,248605,1,0,0:0:0:0:
182,192,248605,1,0,0:0:0:0:
256,192,248777,128,0,248948:0:0:0:0:
402,192,248948,128,0,249291:0:0:0:0:
36,192,248948,1,0,0:0:0:0:
475,192,248948,1,0,0:0:0:0:
182,192,249291,1,0,0:0:0:0:
329,192,249291,1,0,0:0:0:0:
182,192,249462,1,0,0:0:0:0:
329,192,249462,1,0,0:0:0:0:
109,192,249634,128,0,249805:0:0:0:0:
475,192,249634,1,0,0:0:0:0:
402,192,249634,1,0,0:0:0:0:
256,192,249805,128,0,249977:0:0:0:0:
402,192,249977,128,0,250148:0:0:0:0:
36,192,249977,1,0,0:0:0:0:
109,192,249977,1,0,0:0:0:0:
182,192,250320,128,0,250491:0:0:0:0:
329,192,250320,1,0,0:0:0:0:
36,192,250405,1,0,0:0:0:0:
402,192,250491,128,0,250662:0:0:0:0:
475,192,250491,1,0,0:0:0:0:
36,192,250662,128,0,250834:0:0:0:0:
256,192,250662,1,0,0:0:0:0:
329,192,250662,1,0,0:0:0:0:
182,192,250834,128,0,251005:0:0:0:0:
329,192,251005,128,0,251177:0:0:0:0:
475,192,251005,1,0,0:0:0:0:
36,192,251005,1,0,0:0:0:0:
109,192,251177,128,0,251348:0:0:0:0:
256,192,251348,128,0,251520:0:0:0:0:
36,192,251348,1,0,0:0:0:0:
475,192,251348,1,0,0:0:0:0:
402,192,251520,128,0,251691:0:0:0:0:
109,192,251691,1,0,0:0:0:0:
329,192,251691,1,0,0:0:0:0:
256,192,251862,128,0,252034:0:0:0:0:
475,192,252034,128,0,252205:0:0:0:0:
36,192,252034,1,0,0:0:0:0:
402,192,252034,1,0,0:0:0:0:
182,192,252377,128,0,252548:0:0:0:0:
329,192,252377,1,0,0:0:0:0:
109,192,252377,1,0,0:0:0:0:
402,192,252548,128,0,252720:0:0:0:0:
109,192,252720,1,0,0:0:0:0:
329,192,252720,1,0,0:0:0:0:
182,192,252891,128,0,253062:0:0:0:0:
402,192,253062,128,0,253234:0:0:0:0:
475,192,253062,1,0,0:0:0:0:
36,192,253062,1,0,0:0:0:0:
36,192,253405,128,0,253577:0:0:0:0:
256,192,253405,1,0,0:0:0:0:
475,192,253405,1,0,0:0:0:0:
182,192,253577,128,0,253748:0:0:0:0:
475,192,253748,128,0,253920:0:0:0:0:
36,192,253748,1,0,0:0:0:0:
256,192,253748,1,0,0:0:0:0:
329,192,253920,128,0,254091:0:0:0:0:
109,192,254091,128,0,254262:0:0:0:0:
475,192,254091,1,0,0:0:0:0:
182,192,254091,1,0,0:0:0:0:
256,192,254262,128,0,254434:0:0:0:0:
475,192,254434,128,0,254605:0:0:0:0:
36,192,254434,1,0,0:0:0:0:
402,192,254434,1,0,0:0:0:0:
329,192,254605,128,0,254777:0:0:0:0:
182,192,254777,128,0,254948:0:0:0:0:
475,192,254777,1,0,0:0:0:0:
36,192,254777,1,0,0:0:0:0:
36,192,254948,128,0,255120:0:0:0:0:
475,192,254948,1,0,0:0:0:0:
329,192,254948,1,0,0:0:0:0:
475,192,255120,1,0,0:0:0:0:
329,192,255120,1,0,0:0:0:0:
182,192,255291,128,0,255462:0:0:0:0:
402,192,255462,128,0,255634:0:0:0:0:
36,192,255462,1,0,0:0:0:0:
329,192,255462,1,0,0:0:0:0:
182,192,255805,128,0,255977:0:0:0:0:
109,192,255805,1,0,0:0:0:0:
475,192,255805,1,0,0:0:0:0:
256,192,255891,1,0,0:0:0:0:
402,192,255977,128,0,256148:0:0:0:0:
36,192,255977,1,0,0:0:0:0:
36,192,256148,128,0,256320:0:0:0:0:
256,192,256148,1,0,0:0:0:0:
475,192,256148,1,0,0:0:0:0:
182,192,256320,128,0,256491:0:0:0:0:
329,192,256491,128,0,256662:0:0:0:0:
475,192,256491,1,0,0:0:0:0:
36,192,256491,1,0,0:0:0:0:
109,192,256662,128,0,256834:0:0:0:0:
256,192,256834,128,0,257005:0:0:0:0:
329,192,256834,1,0,0:0:0:0:
475,192,256834,1,0,0:0:0:0:
402,192,257005,128,0,257177:0:0:0:0:
36,192,257177,1,0,0:0:0:0:
182,192,257177,1,0,0:0:0:0:
256,192,257348,128,0,257520:0:0:0:0:
475,192,257520,128,0,257691:0:0:0:0:
402,192,257520,1,0,0:0:0:0:
109,192,257520,1,0,0:0:0:0:
109,192,257862,128,0,258034:0:0:0:0:
475,192,257862,1,0,0:0:0:0:
329,192,257862,1,0,0:0:0:0:
256,192,258034,128,0,258205:0:0:0:0:
36,192,258205,1,0,0:0:0:0:
402,192,258205,1,0,0:0:0:0:
182,192,258377,128,0,258548:0:0:0:0:
329,192,258548,128,0,258720:0:0:0:0:
109,192,258548,1,0,0:0:0:0:
475,192,258548,1,0,0:0:0:0:
36,192,258720,128,0,258891:0:0:0:0:
256,192,258891,128,0,259062:0:0:0:0:
182,192,258891,1,0,0:0:0:0:
402,192,258891,1,0,0:0:0:0:
475,192,259062,128,0,259405:0:0:0:0:
36,192,259234,1,0,0:0:0:0:
256,192,259234,1,0,0:0:0:0:
36,192,259577,128,0,259920:0:0:0:0:
182,192,259577,1,0,0:0:0:0:
402,192,259577,1,0,0:0:0:0:
109,192,259920,1,0,0:0:0:0:
329,192,259920,1,0,0:0:0:0:
475,192,260091,128,0,260262:0:0:0:0:
329,192,260262,128,0,260434:0:0:0:0:
36,192,260262,1,0,0:0:0:0:
256,192,260262,1,0,0:0:0:0:
182,192,260434,128,0,260605:0:0:0:0:
109,192,260434,1,0,0:0:0:0:
402,192,260434,1,0,0:0:0:0:
36,192,260605,128,0,260777:0:0:0:0:
256,192,260605,1,0,0:0:0:0:
475,192,260605,1,0,0:0:0:0:
256,192,260777,128,0,260948:0:0:0:0:
475,192,260948,128,0,261120:0:0:0:0:
36,192,260948,1,0,0:0:0:0:
402,192,260948,1,0,0:0:0:0:
109,192,261291,128,0,261462:0:0:0:0:
182,192,261291,1,0,0:0:0:0:
475,192,261291,1,0,0:0:0:0:
256,192,261377,1,0,0:0:0:0:
402,192,261462,128,0,261634:0:0:0:0:
329,192,261462,1,0,0:0:0:0:
36,192,261634,1,0,0:0:0:0:
256,192,261634,1,0,0:0:0:0:
182,192,261805,128,0,261977:0:0:0:0:
329,192,261977,128,0,262148:0:0:0:0:
109,192,261977,1,0,0:0:0:0:
402,192,261977,1,0,0:0:0:0:
36,192,262148,128,0,262320:0:0:0:0:
182,192,262320,128,0,262491:0:0:0:0:
475,192,262320,1,0,0:0:0:0:
256,192,262320,1,0,0:0:0:0:
329,192,262491,128,0,262662:0:0:0:0:
36,192,262662,1,0,0:0:0:0:
256,192,262662,1,0,0:0:0:0:
182,192,262834,128,0,263005:0:0:0:0:
402,192,263005,128,0,263177:0:0:0:0:
109,192,263005,1,0,0:0:0:0:
329,192,263005,1,0,0:0:0:0:
256,192,263348,1,0,0:0:0:0:
475,192,263348,1,0,0:0:0:0:
256,192,263520,1,0,0:0:0:0:
475,192,263520,1,0,0:0:0:0:
402,192,263691,1,0,0:0:0:0:
182,192,263691,1,0,0:0:0:0:
402,192,263862,1,0,0:0:0:0:
182,192,263862,1,0,0:0:0:0:
329,192,264034,1,0,0:0:0:0:
109,192,264034,1,0,0:0:0:0:
329,192,264205,1,0,0:0:0:0:
109,192,264205,1,0,0:0:0:0:
256,192,264377,1,0,0:0:0:0:
36,192,264377,1,0,0:0:0:0:
256,192,264548,1,0,0:0:0:0:
36,192,264548,1,0,0:0:0:0:
329,192,264720,128,0,264891:0:0:0:0:
109,192,264720,1,0,0:0:0:0:
402,192,264720,1,0,0:0:0:0:
36,192,264891,128,0,265062:0:0:0:0:
182,192,265062,128,0,265234:0:0:0:0:
329,192,265234,128,0,265405:0:0:0:0:
475,192,265405,128,0,265577:0:0:0:0:
329,192,265577,128,0,265748:0:0:0:0:
36,192,265748,128,0,265920:0:0:0:0:
182,192,265920,128,0,266091:0:0:0:0:
475,192,266091,1,0,0:0:0:0:
36,192,266091,1,0,0:0:0:0:
329,192,266262,1,0,0:0:0:0:
182,192,266434,1,0,0:0:0:0:
36,192,266777,1,0,0:0:0:0:
475,192,266777,1,0,0:0:0:0:
36,192,267034,1,0,0:0:0:0:
475,192,267034,1,0,0:0:0:0:
36,192,267291,1,0,0:0:0:0:
475,192,267291,1,0,0:0:0:0:
36,192,267805,1,0,0:0:0:0:
256,192,267805,1,0,0:0:0:0:
475,192,267805,1,0,0:0:0:0:
402,192,267977,1,0,0:0:0:0:
329,192,268148,1,0,0:0:0:0:
109,192,268148,1,0,0:0:0:0:
182,192,268320,1,0,0:0:0:0:
256,192,268491,1,0,0:0:0:0:
475,192,268491,1,0,0:0:0:0:
36,192,268662,1,0,0:0:0:0:
475,192,268834,128,0,269520:0:0:0:0:
182,192,268834,1,0,0:0:0:0:
402,192,268834,1,0,0:0:0:0:
329,192,269005,1,0,0:0:0:0:
256,192,269177,1,0,0:0:0:0:
36,192,269177,1,0,0:0:0:0:
109,192,269348,1,0,0:0:0:0:
329,192,269520,128,0,270205:0:0:0:0:
182,192,269520,1,0,0:0:0:0:
402,192,269520,1,0,0:0:0:0:
109,192,269691,1,0,0:0:0:0:
36,192,269862,1,0,0:0:0:0:
475,192,269862,1,0,0:0:0:0:
256,192,270034,1,0,0:0:0:0:
182,192,270205,128,0,270891:0:0:0:0:
109,192,270205,1,0,0:0:0:0:
402,192,270205,1,0,0:0:0:0:
329,192,270377,1,0,0:0:0:0:
475,192,270548,1,0,0:0:0:0:
256,192,270548,1,0,0:0:0:0:
36,192,270720,1,0,0:0:0:0:
329,192,270891,128,0,271577:0:0:0:0:
109,192,270891,1,0,0:0:0:0:
402,192,270891,1,0,0:0:0:0:
256,192,271062,1,0,0:0:0:0:
182,192,271234,1,0,0:0:0:0:
36,192,271234,1,0,0:0:0:0:
256,192,271405,1,0,0:0:0:0:
109,192,271577,128,0,272605:0:0:0:0:
182,192,271577,1,0,0:0:0:0:
402,192,271577,1,0,0:0:0:0:
329,192,271748,1,0,0:0:0:0:
475,192,271920,1,0,0:0:0:0:
256,192,271920,1,0,0:0:0:0:
182,192,272091,1,0,0:0:0:0:
329,192,272262,1,0,0:0:0:0:
36,192,272262,1,0,0:0:0:0:
402,192,272434,1,0,0:0:0:0:
256,192,272605,128,0,272948:0:0:0:0:
182,192,272605,1,0,0:0:0:0:
475,192,272605,1,0,0:0:0:0:
109,192,272777,1,0,0:0:0:0:
402,192,272948,128,0,273462:0:0:0:0:
36,192,272948,1,0,0:0:0:0:
329,192,272948,1,0,0:0:0:0:
182,192,273120,1,0,0:0:0:0:
109,192,273291,1,0,0:0:0:0:
329,192,273291,1,0,0:0:0:0:
182,192,273462,128,0,273977:0:0:0:0:
475,192,273462,1,0,0:0:0:0:
402,192,273634,1,0,0:0:0:0:
256,192,273634,1,0,0:0:0:0:
36,192,273805,1,0,0:0:0:0:
329,192,273977,128,0,274320:0:0:0:0:
109,192,273977,1,0,0:0:0:0:
475,192,273977,1,0,0:0:0:0:
256,192,274148,1,0,0:0:0:0:
36,192,274320,128,0,275691:0:0:0:0:
182,192,274320,1,0,0:0:0:0:
402,192,274320,1,0,0:0:0:0:
329,192,274491,1,0,0:0:0:0:
256,192,274662,1,0,0:0:0:0:
109,192,274662,1,0,0:0:0:0:
402,192,274834,1,0,0:0:0:0:
329,192,275005,1,0,0:0:0:0:
182,192,275005,1,0,0:0:0:0:
109,192,275177,1,0,0:0:0:0:
256,192,275348,1,0,0:0:0:0:
475,192,275348,1,0,0:0:0:0:
182,192,275520,1,0,0:0:0:0:
402,192,275691,128,0,275862:0:0:0:0:
256,192,275691,1,0,0:0:0:0:
109,192,275691,1,0,0:0:0:0:
109,192,275862,128,0,276034:0:0:0:0:
475,192,275862,1,0,0:0:0:0:
256,192,276034,128,0,276205:0:0:0:0:
329,192,276034,1,0,0:0:0:0:
36,192,276034,1,0,0:0:0:0:
402,192,276205,128,0,276377:0:0:0:0:
182,192,276205,1,0,0:0:0:0:
36,192,276377,1,0,0:0:0:0:
475,192,276377,1,0,0:0:0:0:
109,192,276634,1,0,0:0:0:0:
402,192,276634,1,0,0:0:0:0:
182,192,276891,1,0,0:0:0:0:
329,192,276891,1,0,0:0:0:0:
256,192,277062,1,0,0:0:0:0:
36,192,277405,1,0,0:0:0:0:
256,192,277405,1,0,0:0:0:0:
475,192,277405,128,0,278434:0:0:0:0:
109,192,277577,1,0,0:0:0:0:
182,192,277748,1,0,0:0:0:0:
329,192,277748,1,0,0:0:0:0:
36,192,277920,1,0,0:0:0:0:
109,192,278091,1,0,0:0:0:0:
402,192,278091,1,0,0:0:0:0:
329,192,278262,1,0,0:0:0:0:
109,192,278434,128,0,278948:0:0:0:0:
256,192,278434,1,0,0:0:0:0:
36,192,278434,1,0,0:0:0:0:
329,192,278605,1,0,0:0:0:0:
182,192,278777,1,0,0:0:0:0:
475,192,278777,1,0,0:0:0:0:
402,192,278948,128,0,279462:0:0:0:0:
256,192,278948,1,0,0:0:0:0:
182,192,279120,1,0,0:0:0:0:
36,192,279120,1,0,0:0:0:0:
329,192,279291,1,0,0:0:0:0:
182,192,279462,128,0,279805:0:0:0:0:
109,192,279462,1,0,0:0:0:0:
475,192,279462,1,0,0:0:0:0:
256,192,279634,1,0,0:0:0:0:
36,192,279805,128,0,280491:0:0:0:0:
329,192,279805,1,0,0:0:0:0:
475,192,279805,1,0,0:0:0:0:
182,192,279977,1,0,0:0:0:0:
256,192,280148,1,0,0:0:0:0:
402,192,280148,1,0,0:0:0:0:
109,192,280320,1,0,0:0:0:0:
182,192,280491,128,0,281177:0:0:0:0:
329,192,280491,1,0,0:0:0:0:
475,192,280491,1,0,0:0:0:0:
36,192,280662,1,0,0:0:0:0:
109,192,280834,1,0,0:0:0:0:
402,192,280834,1,0,0:0:0:0:
256,192,281005,1,0,0:0:0:0:
329,192,281177,128,0,281862:0:0:0:0:
475,192,281177,1,0,0:0:0:0:
36,192,281177,1,0,0:0:0:0:
182,192,281348,1,0,0:0:0:0:
109,192,281520,1,0,0:0:0:0:
402,192,281520,1,0,0:0:0:0:
256,192,281691,1,0,0:0:0:0:
475,192,281862,128,0,282548:0:0:0:0:
182,192,281862,1,0,0:0:0:0:
36,192,281862,1,0,0:0:0:0:
329,192,282034,1,0,0:0:0:0:
256,192,282205,1,0,0:0:0:0:
109,192,282205,1,0,0:0:0:0:
402,192,282377,1,0,0:0:0:0:
36,192,282377,1,0,0:0:0:0:
256,192,282548,128,0,283920:0:0:0:0:
36,192,282548,1,0,0:0:0:0:
329,192,282548,1,0,0:0:0:0:
109,192,282720,1,0,0:0:0:0:
402,192,282720,1,0,0:0:0:0:
475,192,282891,1,0,0:0:0:0:
182,192,282891,1,0,0:0:0:0:
109,192,283062,1,0,0:0:0:0:
402,192,283062,1,0,0:0:0:0:
36,192,283234,1,0,0:0:0:0:
329,192,283234,1,0,0:0:0:0:
109,192,283405,1,0,0:0:0:0:
402,192,283405,1,0,0:0:0:0:
475,192,283577,128,0,283920:0:0:0:0:
329,192,283577,1,0,0:0:0:0:
36,192,283577,1,0,0:0:0:0:
109,192,283748,1,0,0:0:0:0:
402,192,283748,1,0,0:0:0:0:
36,192,283920,128,0,284434:0:0:0:0:
182,192,283920,1,0,0:0:0:0:
329,192,283920,1,0,0:0:0:0:
182,192,284091,1,0,0:0:0:0:
329,192,284091,1,0,0:0:0:0:
402,192,284262,1,0,0:0:0:0:
256,192,284262,1,0,0:0:0:0:
475,192,284434,128,0,284948:0:0:0:0:
256,192,284434,1,0,0:0:0:0:
402,192,284434,1,0,0:0:0:0:
36,192,284605,1,0,0:0:0:0:
329,192,284605,1,0,0:0:0:0:
329,192,284777,1,0,0:0:0:0:
36,192,284777,1,0,0:0:0:0:
182,192,284948,128,0,285291:0:0:0:0:
109,192,284948,1,0,0:0:0:0:
402,192,284948,1,0,0:0:0:0:
109,192,285120,1,0,0:0:0:0:
402,192,285120,1,0,0:0:0:0:
36,192,285291,1,0,0:0:0:0:
475,192,285291,1,0,0:0:0:0:
329,192,285291,1,0,0:0:0:0:
109,192,285377,1,0,0:0:0:0:
182,192,285462,1,0,0:0:0:0:
256,192,285548,1,0,0:0:0:0:
109,192,285634,1,0,0:0:0:0:
182,192,285720,1,0,0:0:0:0:
256,192,285805,1,0,0:0:0:0:
329,192,285891,1,0,0:0:0:0:
36,192,285977,1,0,0:0:0:0:
475,192,285977,1,0,0:0:0:0:
402,192,286062,1,0,0:0:0:0:
329,192,286148,1,0,0:0:0:0:
256,192,286234,1,0,0:0:0:0:
402,192,286320,1,0,0:0:0:0:
329,192,286405,1,0,0:0:0:0:
256,192,286491,1,0,0:0:0:0:
182,192,286577,1,0,0:0:0:0:
109,192,286662,1,0,0:0:0:0:
402,192,286662,1,0,0:0:0:0:
182,192,286834,128,0,287005:0:0:0:0:
329,192,286834,128,0,287005:0:0:0:0:
329,192,287177,128,0,287348:0:0:0:0:
182,192,287177,128,0,287348:0:0:0:0:
36,192,287348,1,0,0:0:0:0:
475,192,287348,1,0,0:0:0:0:
475,192,287605,1,0,0:0:0:0:
36,192,287605,1,0,0:0:0:0:
36,192,287862,1,0,0:0:0:0:
475,192,287862,1,0,0:0:0:0:
36,192,288377,1,0,0:0:0:0:
256,192,288377,1,0,0:0:0:0:
475,192,288377,1,0,0:0:0:0:
475,192,288548,128,0,289748:0:0:0:0:
109,192,288548,1,0,0:0:0:0:
182,192,288720,1,0,0:0:0:0:
329,192,288720,1,0,0:0:0:0:
36,192,288891,1,0,0:0:0:0:
182,192,289062,1,0,0:0:0:0:
402,192,289062,1,0,0:0:0:0:
329,192,289234,1,0,0:0:0:0:
256,192,289405,1,0,0:0:0:0:
36,192,289405,1,0,0:0:0:0:
182,192,289577,1,0,0:0:0:0:
329,192,289748,128,0,290091:0:0:0:0:
109,192,289748,1,0,0:0:0:0:
402,192,289748,1,0,0:0:0:0:
256,192,289920,1,0,0:0:0:0:
182,192,290091,128,0,290434:0:0:0:0:
36,192,290091,1,0,0:0:0:0:
475,192,290091,1,0,0:0:0:0:
329,192,290262,128,0,290434:0:0:0:0:
36,192,290434,128,0,290777:0:0:0:0:
475,192,290434,1,0,0:0:0:0:
402,192,290434,1,0,0:0:0:0:
329,192,290605,128,0,290777:0:0:0:0:
182,192,290777,128,0,291291:0:0:0:0:
475,192,290777,1,0,0:0:0:0:
402,192,290777,1,0,0:0:0:0:
256,192,290948,1,0,0:0:0:0:
36,192,291120,1,0,0:0:0:0:
475,192,291120,1,0,0:0:0:0:
329,192,291291,128,0,292834:0:0:0:0:
256,192,291291,1,0,0:0:0:0:
109,192,291462,1,0,0:0:0:0:
475,192,291462,1,0,0:0:0:0:
256,192,291634,1,0,0:0:0:0:
182,192,291805,1,0,0:0:0:0:
36,192,291805,1,0,0:0:0:0:
402,192,291977,1,0,0:0:0:0:
256,192,292148,1,0,0:0:0:0:
109,192,292148,1,0,0:0:0:0:
475,192,292320,1,0,0:0:0:0:
182,192,292491,1,0,0:0:0:0:
36,192,292491,1,0,0:0:0:0:
256,192,292662,1,0,0:0:0:0:
36,192,292834,128,0,293177:0:0:0:0:
109,192,292834,1,0,0:0:0:0:
402,192,292834,1,0,0:0:0:0:
329,192,293005,128,0,293177:0:0:0:0:
182,192,293177,128,0,293520:0:0:0:0:
475,192,293177,1,0,0:0:0:0:
256,192,293177,1,0,0:0:0:0:
402,192,293348,128,0,293520:0:0:0:0:
36,192,293348,1,0,0:0:0:0:
256,192,293348,1,0,0:0:0:0:
329,192,293520,128,0,294034:0:0:0:0:
256,192,293520,1,0,0:0:0:0:
36,192,293520,1,0,0:0:0:0:
109,192,293691,1,0,0:0:0:0:
182,192,293862,1,0,0:0:0:0:
402,192,293862,1,0,0:0:0:0:
475,192,294034,128,0,295234:0:0:0:0:
256,192,294034,1,0,0:0:0:0:
182,192,294205,1,0,0:0:0:0:
36,192,294205,1,0,0:0:0:0:
329,192,294377,1,0,0:0:0:0:
256,192,294548,1,0,0:0:0:0:
109,192,294548,1,0,0:0:0:0:
402,192,294720,1,0,0:0:0:0:
256,192,294891,1,0,0:0:0:0:
36,192,294891,1,0,0:0:0:0:
109,192,295062,1,0,0:0:0:0:
329,192,295234,128,0,295577:0:0:0:0:
182,192,295234,1,0,0:0:0:0:
402,192,295234,1,0,0:0:0:0:
256,192,295405,1,0,0:0:0:0:
36,192,295577,128,0,295920:0:0:0:0:
109,192,295577,1,0,0:0:0:0:
475,192,295577,1,0,0:0:0:0:
402,192,295748,1,0,0:0:0:0:
329,192,295748,128,0,295920:0:0:0:0:
182,192,295920,128,0,296262:0:0:0:0:
256,192,295920,1,0,0:0:0:0:
475,192,295920,1,0,0:0:0:0:
402,192,296091,128,0,296262:0:0:0:0:
36,192,296091,1,0,0:0:0:0:
256,192,296091,1,0,0:0:0:0:
329,192,296262,128,0,296777:0:0:0:0:
256,192,296262,1,0,0:0:0:0:
36,192,296262,1,0,0:0:0:0:
182,192,296434,1,0,0:0:0:0:
109,192,296605,1,0,0:0:0:0:
256,192,296605,1,0,0:0:0:0:
475,192,296777,128,0,298320:0:0:0:0:
402,192,296777,1,0,0:0:0:0:
329,192,296948,1,0,0:0:0:0:
182,192,296948,1,0,0:0:0:0:
36,192,297120,1,0,0:0:0:0:
182,192,297291,1,0,0:0:0:0:
256,192,297291,1,0,0:0:0:0:
402,192,297462,1,0,0:0:0:0:
36,192,297634,1,0,0:0:0:0:
329,192,297634,1,0,0:0:0:0:
109,192,297720,1,0,0:0:0:0:
182,192,297805,1,0,0:0:0:0:
402,192,297977,1,0,0:0:0:0:
36,192,297977,1,0,0:0:0:0:
329,192,298062,1,0,0:0:0:0:
256,192,298148,1,0,0:0:0:0:
256,192,298320,1,0,0:0:0:0:
36,192,298320,1,0,0:0:0:0:
109,192,298577,1,0,0:0:0:0:
329,192,298577,1,0,0:0:0:0:
182,192,298834,1,0,0:0:0:0:
402,192,298834,1,0,0:0:0:0:
36,192,299348,1,0,0:0:0:0:
256,192,299348,1,0,0:0:0:0:
475,192,299348,1,0,0:0:0:0:
109,192,299434,1,0,0:0:0:0:
182,192,299520,1,0,0:0:0:0:
402,192,299691,1,0,0:0:0:0:
36,192,299691,1,0,0:0:0:0:
329,192,299777,1,0,0:0:0:0:
256,192,299862,1,0,0:0:0:0:
109,192,300034,1,0,0:0:0:0:
475,192,300034,1,0,0:0:0:0:
402,192,300120,1,0,0:0:0:0:
329,192,300205,1,0,0:0:0:0:
36,192,300377,1,0,0:0:0:0:
475,192,300377,1,0,0:0:0:0:
109,192,300462,1,0,0:0:0:0:
182,192,300548,1,0,0:0:0:0:
402,192,300720,1,0,0:0:0:0:
109,192,300720,1,0,0:0:0:0:
329,192,300805,1,0,0:0:0:0:
256,192,300891,1,0,0:0:0:0:
36,192,301062,1,0,0:0:0:0:
475,192,301062,1,0,0:0:0:0:
182,192,301148,1,0,0:0:0:0:
329,192,301234,1,0,0:0:0:0:
109,192,301405,1,0,0:0:0:0:
475,192,301405,1,0,0:0:0:0:
256,192,301491,1,0,0:0:0:0:
402,192,301577,1,0,0:0:0:0:
36,192,301748,1,0,0:0:0:0:
329,192,301748,1,0,0:0:0:0:
109,192,301834,1,0,0:0:0:0:
182,192,301920,1,0,0:0:0:0:
475,192,302091,1,0,0:0:0:0:
109,192,302091,1,0,0:0:0:0:
402,192,302177,1,0,0:0:0:0:
329,192,302262,1,0,0:0:0:0:
36,192,302434,1,0,0:0:0:0:
182,192,302520,1,0,0:0:0:0:
329,192,302605,1,0,0:0:0:0:
475,192,302691,1,0,0:0:0:0:
36,192,302777,1,0,0:0:0:0:
182,192,302862,1,0,0:0:0:0:
329,192,302948,1,0,0:0:0:0:
475,192,303034,1,0,0:0:0:0:
36,192,303120,1,0,0:0:0:0:
182,192,303120,1,0,0:0:0:0:
475,192,303291,1,0,0:0:0:0:
402,192,303377,1,0,0:0:0:0:
329,192,303462,1,0,0:0:0:0:
109,192,303548,1,0,0:0:0:0:
182,192,303634,1,0,0:0:0:0:
256,192,303720,1,0,0:0:0:0:
475,192,303805,1,0,0:0:0:0:
329,192,303805,1,0,0:0:0:0:
256,192,303891,1,0,0:0:0:0:
182,192,303977,1,0,0:0:0:0:
109,192,304062,1,0,0:0:0:0:
402,192,304148,1,0,0:0:0:0:
36,192,304148,1,0,0:0:0:0:
329,192,304234,1,0,0:0:0:0:
256,192,304320,1,0,0:0:0:0:
475,192,304320,1,0,0:0:0:0:
182,192,304405,1,0,0:0:0:0:
36,192,304491,128,0,305005:0:0:0:0:
109,192,304491,1,0,0:0:0:0:
402,192,304491,1,0,0:0:0:0:
402,192,304662,1,0,0:0:0:0:
109,192,304662,1,0,0:0:0:0:
182,192,304834,1,0,0:0:0:0:
329,192,304834,1,0,0:0:0:0:
475,192,305005,128,0,305862:0:0:0:0:
182,192,305005,1,0,0:0:0:0:
329,192,305005,1,0,0:0:0:0:
36,192,305177,1,0,0:0:0:0:
256,192,305177,1,0,0:0:0:0:
256,192,305348,1,0,0:0:0:0:
36,192,305348,1,0,0:0:0:0:
109,192,305520,1,0,0:0:0:0:
329,192,305520,1,0,0:0:0:0:
109,192,305691,1,0,0:0:0:0:
329,192,305691,1,0,0:0:0:0:
182,192,305777,1,0,0:0:0:0:
256,192,305862,1,0,0:0:0:0:
36,192,305862,1,0,0:0:0:0:
36,192,306034,1,0,0:0:0:0:
256,192,306034,1,0,0:0:0:0:
36,192,306205,128,0,306548:0:0:0:0:
182,192,306205,1,0,0:0:0:0:
402,192,306205,1,0,0:0:0:0:
182,192,306377,1,0,0:0:0:0:
402,192,306377,1,0,0:0:0:0:
182,192,306548,128,0,306891:0:0:0:0:
329,192,306548,1,0,0:0:0:0:
475,192,306548,1,0,0:0:0:0:
329,192,306720,1,0,0:0:0:0:
475,192,306720,1,0,0:0:0:0:
329,192,306891,128,0,307234:0:0:0:0:
109,192,306891,1,0,0:0:0:0:
402,192,306891,1,0,0:0:0:0:
109,192,307062,1,0,0:0:0:0:
402,192,307062,1,0,0:0:0:0:
256,192,307148,1,0,0:0:0:0:
475,192,307234,128,0,307748:0:0:0:0:
36,192,307234,1,0,0:0:0:0:
109,192,307320,1,0,0:0:0:0:
182,192,307405,1,0,0:0:0:0:
256,192,307491,1,0,0:0:0:0:
36,192,307577,1,0,0:0:0:0:
109,192,307662,1,0,0:0:0:0:
329,192,307748,128,0,308262:0:0:0:0:
182,192,307748,1,0,0:0:0:0:
256,192,307834,1,0,0:0:0:0:
36,192,307920,1,0,0:0:0:0:
182,192,308005,1,0,0:0:0:0:
475,192,308091,1,0,0:0:0:0:
402,192,308177,1,0,0:0:0:0:
182,192,308262,128,0,308605:0:0:0:0:
36,192,308262,1,0,0:0:0:0:
256,192,308348,1,0,0:0:0:0:
475,192,308434,1,0,0:0:0:0:
329,192,308520,1,0,0:0:0:0:
109,192,308605,1,0,0:0:0:0:
402,192,308605,1,0,0:0:0:0:
36,192,308777,128,0,308948:0:0:0:0:
475,192,308777,128,0,308948:0:0:0:0:
109,192,309120,128,0,309291:0:0:0:0:
402,192,309120,128,0,309291:0:0:0:0:
36,192,309291,1,0,0:0:0:0:
475,192,309291,1,0,0:0:0:0:
109,192,309548,1,0,0:0:0:0:
402,192,309548,1,0,0:0:0:0:
182,192,309805,1,0,0:0:0:0:
329,192,309805,1,0,0:0:0:0:
256,192,309977,1,0,0:0:0:0:
36,192,310320,1,0,0:0:0:0:
182,192,310491,1,0,0:0:0:0:
329,192,310662,1,0,0:0:0:0:
475,192,310834,1,0,0:0:0:0:
36,192,311691,1,0,0:0:0:0:
475,192,311691,1,0,0:0:0:0:
36,192,312891,1,0,0:0:0:0:
256,192,312977,1,0,0:0:0:0:
475,192,313062,1,0,0:0:0:0:
