osu file format v13

[General]
AudioFilename: beyond.mp3
AudioLeadIn: 0
PreviewTime: 50305
Countdown: 0
SampleSet: Soft
StackLeniency: 0.7
Mode: 0
LetterboxInBreaks: 0
WidescreenStoryboard: 1

[Editor]
Bookmarks: 7192,54263,79054,93425
DistanceSpacing: 1.2
BeatDivisor: 4
GridSize: 4
TimelineZoom: 2

[Metadata]
Title:Sora no Kanata
TitleUnicode:ソラノカナタ
Artist:wa.
ArtistUnicode:wa.
Creator:Liiraye
Version:Asphyxia's Hard
Source:
Tags:Asphyxia Trust artcore
BeatmapID:428991
BeatmapSetID:172300

[Difficulty]
HPDrainRate:5
CircleSize:4
OverallDifficulty:6
ApproachRate:8
SliderMultiplier:1.4
SliderTickRate:1

[Events]
//Background and Video events
0,0,"waaa.png",0,0
//Break Periods
2,82122,92669
2,116613,124825
//Storyboard Layer 0 (Background)
//Storyboard Layer 1 (Fail)
//Storyboard Layer 2 (Pass)
//Storyboard Layer 3 (Foreground)
//Storyboard Sound Samples
//Background Colour Transformations
3,100,163,162,255

[TimingPoints]
6833,359.281437125748,4,2,0,80,1,0
7192,359.281437125748,4,2,0,80,1,0
7192,-100,4,2,0,80,0,0
29467,-100,4,2,0,80,0,0
30186,-100,4,2,0,50,0,0
30275,-100,4,2,0,80,0,0
31263,-100,4,2,0,50,0,0
31353,-100,4,2,0,80,0,0
31802,-133.333333333333,4,2,0,80,0,0
32162,-133.333333333333,4,2,0,50,0,0
32341,-100,4,2,0,80,0,0
34677,-100,4,2,0,40,0,0
34766,-100,4,2,0,80,0,0
37191,-100,4,2,0,55,0,0
37281,-100,4,2,0,80,0,0
39168,-100,4,2,0,50,0,0
39257,-100,4,2,0,80,0,0
41323,-100,4,2,0,80,0,0
41683,-100,4,2,0,80,0,0
42042,-100,4,2,0,60,0,0
42132,-100,4,2,0,80,0,0
44916,-100,4,2,0,50,0,0
45006,-100,4,2,0,80,0,0
46174,-100,4,2,0,50,0,0
46263,-100,4,2,0,80,0,0
48509,-100,4,2,0,80,0,0
50665,-100,4,2,0,55,0,0
50754,-100,4,2,0,80,0,0
52102,-100,4,2,0,60,0,0
52191,-100,4,2,0,80,0,0
52281,-100,4,2,0,80,0,0
53539,-100,4,2,0,60,0,0
53629,-100,4,2,0,80,0,0
56413,-100,4,2,0,50,0,0
56503,-100,4,2,0,80,0,0
59287,-100,4,2,0,50,0,0
59377,-100,4,2,0,80,0,0
62162,-100,4,2,0,50,0,0
62251,-100,4,2,0,80,0,0
65036,-100,4,2,0,50,0,0
65126,-100,4,2,0,80,0,0
66293,-100,4,2,0,50,0,0
66383,-100,4,2,0,80,0,0
67910,-100,4,2,0,50,0,0
68000,-100,4,2,0,80,0,0
70784,-100,4,2,0,50,0,0
70874,-100,4,2,0,80,0,0
73659,-100,4,2,0,50,0,0
73748,-100,4,2,0,80,0,0
74557,-100,4,2,0,50,0,0
74647,-100,4,2,0,80,0,0
77970,-100,4,2,0,50,0,0
78239,-100,4,2,0,80,0,0
79048,-100,4,2,0,50,0,0
79138,-100,4,2,0,80,0,0
80126,-100,4,2,0,50,0,0
80215,-100,4,2,0,80,0,0
82641,-100,4,2,0,50,0,0
82730,-100,4,2,0,80,0,0
88389,-100,4,2,0,50,0,0
88479,-100,4,2,0,80,0,0
100605,-100,4,2,0,60,0,0
100694,-100,4,2,0,80,0,0
120186,-100,4,2,0,10,0,0
120245,-100,4,2,0,80,0,0
136353,-100,4,2,0,50,0,0
136533,-100,4,2,0,80,0,0
137072,-100,4,2,0,50,0,0
137162,-100,4,2,0,80,0,0
139766,-100,4,2,0,50,0,0
139856,-100,4,2,0,80,0,0
142641,-100,4,2,0,50,0,0
142730,-100,4,2,0,80,0,0
145515,-100,4,2,0,50,0,0
145605,-100,4,2,0,80,0,0
149467,-100,4,2,0,50,0,0
149557,-100,4,2,0,80,0,0
149647,-100,4,2,0,50,0,0
149826,-100,4,2,0,80,0,0
149916,-100,4,2,0,50,0,0
150006,-100,4,2,0,80,0,0
150275,-100,4,2,0,65,0,0
150365,-100,4,2,0,50,0,0
150455,-100,4,2,0,35,0,0
150635,-100,4,2,0,50,0,0
150724,-100,4,2,0,65,0,0
150814,-100,4,2,0,80,0,0
151263,-100,4,2,0,50,0,0
151353,-100,4,2,0,80,0,0
157012,-100,4,2,0,50,0,0
157102,-100,4,2,0,80,0,0
180724,-100,4,2,0,50,0,0
180814,-100,4,2,0,80,0,0
190335,-100,4,2,0,50,0,0
190425,-100,4,2,0,80,0,0
191683,-100,4,2,0,20,0,0

[Colours]
Combo1 : 0,185,185
Combo2 : 255,133,74
Combo3 : 192,179,1
Combo4 : 0,128,64

[HitObjects]
64,92,6832,6,0,P|104:100|144:96,1,70,0|0,0:0|0:0,0:0:0:0:
212,72,7192,6,0,B|252:56|300:88|300:88|344:44|388:32|440:36|476:60|500:96|508:144|488:184|472:208,1,420,2|2,0:0|0:0,0:0:0:0:
240,304,8808,1,0,0:0:0:0:
52,136,9347,2,0,P|40:168|24:280,1,140,0|0,0:0|0:0,0:0:0:0:
176,204,10066,6,0,L|161:43,1,140,0|0,0:0|0:0,0:0:0:0:
281,27,10605,2,0,L|267:173,1,140,2|0,0:0|0:0,0:0:0:0:
260,252,11144,1,0,0:0:0:0:
268,272,11683,1,0,0:0:0:0:
276,292,12221,1,0,0:0:0:0:
436,344,12581,1,0,0:0:0:0:
468,180,12940,6,0,P|456:140|436:112,1,70,2|0,0:0|0:0,0:0:0:0:
296,32,13479,2,0,P|277:61|268:95,1,70,2|0,0:0|0:0,0:0:0:0:
260,264,14018,1,2,0:0:0:0:
44,136,14557,1,0,0:0:0:0:
296,124,15096,2,0,P|300:81|292:45,1,70,2|0,0:0|0:0,0:0:0:0:
220,16,15455,1,0,0:0:0:0:
104,208,15814,6,0,L|34:204,1,70,0|0,0:0|0:0,0:0:0:0:
8,312,16174,1,2,0:0:0:0:
256,192,16353,12,0,17611,0:0:0:0:
112,60,17970,6,0,P|124:92|128:132,1,70,0|0,0:0|0:0,0:0:0:0:
200,232,18329,2,0,P|203:197|216:164,1,70,0|0,0:0|0:0,0:0:0:0:
284,264,18689,6,0,P|264:296|152:308,1,140,4|0,1:0|0:0,0:0:0:0:
116,252,19227,1,8,3:0:0:0:
76,180,19407,2,0,L|92:100,1,70,0|0,0:0|0:0,0:0:0:0:
204,40,19766,1,0,0:0:0:0:
172,116,19946,2,0,P|208:144|320:128,1,140,4|0,3:0|0:0,0:0:0:0:
364,88,20485,1,4,3:0:0:0:
448,72,20665,2,0,L|452:32,2,35,0|0|0,0:0|0:0|0:0,0:0:0:0:
504,136,21024,1,0,0:0:0:0:
420,156,21203,2,0,L|436:244,1,70,4|0,3:0|0:0,0:0:0:0:
344,324,21563,6,0,P|352:288|332:180,1,140,8|2,3:0|0:0,0:0:0:0:
335,187,22012,1,0,0:0:0:0:
335,187,22102,1,2,0:0:0:0:
228,84,22281,2,0,P|216:120|220:168,1,70,2|0,0:0|0:0,0:0:0:0:
236,232,22641,1,0,0:0:0:0:
152,216,22820,2,0,B|80:188|80:228|8:208,1,140,4|0,1:0|0:0,0:0:0:0:
104,283,23359,2,0,P|163:297|226:249,1,140,4|0,1:0|0:0,0:0:0:0:
332,336,23898,1,0,0:0:0:0:
332,336,23988,1,0,0:0:0:0:
332,336,24078,2,0,P|316:300|312:264,1,70,2|0,0:0|0:0,0:0:0:0:
420,140,24437,6,0,P|414:174|399:206,1,70,4|0,3:0|0:0,0:0:0:0:
337,150,24796,1,4,3:0:0:0:
300,76,24976,2,0,B|248:88|212:64|212:64|192:88|164:88,1,140,8|0,3:0|0:0,0:0:0:0:
88,72,25515,1,2,0:0:0:0:
56,152,25694,1,4,3:0:0:0:
56,152,25784,1,0,0:0:0:0:
55,151,25874,6,0,L|33:301,1,140,0|4,0:0|3:0,0:0:0:0:
96,348,26413,2,0,P|76:364|60:372,2,35,0|0|2,0:0|0:0|0:0,0:0:0:0:
132,272,26772,1,8,3:0:0:0:
200,224,26952,1,0,0:0:0:0:
284,236,27132,1,4,3:0:0:0:
284,236,27311,6,0,P|296:280|388:304,1,140,0|8,0:0|3:0,0:0:0:0:
444,256,27850,1,0,0:0:0:0:
440,172,28030,1,0,0:0:0:0:
448,88,28209,1,2,0:0:0:0:
404,16,28389,2,0,L|328:28,1,70,0|0,0:0|0:0,0:0:0:0:
256,56,28748,5,0,3:0:0:0:
172,40,28928,1,0,3:0:0:0:
96,72,29108,1,0,3:0:0:0:
92,156,29287,1,2,3:0:0:0:
212,168,29467,1,0,0:0:0:0:
228,192,29557,1,0,0:0:0:0:
236,220,29647,1,0,0:0:0:0:
236,248,29736,1,0,0:0:0:0:
232,276,29826,2,0,P|224:304|216:316,3,35,0|0|0|0,0:0|0:0|0:0|0:0,0:0:0:0:
184,328,30186,6,0,L|108:332,1,70,2|0,3:0|0:0,0:0:0:0:
96,292,30455,1,0,0:0:0:0:
96,292,30545,2,0,L|27:296,1,70,0|2,0:0|3:0,0:0:0:0:
60,156,30904,2,0,L|16:120,2,35,0|0|0,0:0|0:0|0:0,0:0:0:0:
152,136,31263,2,0,P|136:96|132:56,1,70,2|0,3:0|0:0,0:0:0:0:
156,32,31533,1,0,0:0:0:0:
196,16,31623,2,0,L|244:20,1,35,0|0,0:0|0:0,0:0:0:0:
264,24,31802,6,0,B|300:16|328:40|328:40|356:20|392:28,1,131.25000500679,4|0,0:0|0:0,0:0:0:0:
428,36,32341,6,0,P|448:76|444:124,1,70,4|0,3:0|0:0,0:0:0:0:
444,144,32611,2,0,L|428:216,1,70,4|0,3:0|0:0,0:0:0:0:
392,232,32880,1,2,0:0:0:0:
280,336,33060,6,0,P|288:300|244:204,1,140,4|8,0:0|3:0,0:0:0:0:
168,196,33599,2,0,L|20:216,1,140,0|4,0:0|3:0,0:0:0:0:
8,96,34138,1,8,3:0:0:0:
92,112,34317,1,0,0:0:0:0:
92,112,34407,1,0,0:0:0:0:
92,112,34497,6,0,P|116:84|128:32,1,70,4|2,3:0|3:0,0:0:0:0:
228,136,34856,2,0,P|239:168|262:194,1,70,4|0,3:0|0:0,0:0:0:0:
304,208,35126,1,0,0:0:0:0:
304,208,35215,2,0,P|328:232|336:252,3,35,8|0|0|0,3:0|0:0|0:0|0:0,0:0:0:0:
260,276,35575,2,0,P|246:286|235:300,3,35,2|0|0|0,0:0|0:0|0:0|0:0,0:0:0:0:
296,344,35934,6,0,P|265:370|176:347,1,140,4|8,3:0|3:0,0:0:0:0:
144,272,36473,2,0,L|168:112,1,140,0|4,0:0|3:0,0:0:0:0:
224,76,37012,1,8,3:0:0:0:
344,104,37191,1,2,3:0:0:0:
344,104,37281,1,0,0:0:0:0:
344,104,37371,6,0,L|428:96,1,70,4|2,3:0|3:0,0:0:0:0:
512,208,37730,2,0,L|428:200,1,70,2|4,0:0|3:0,0:0:0:0:
400,208,38000,1,0,0:0:0:0:
364,232,38090,1,2,0:0:0:0:
348,272,38180,1,4,3:0:0:0:
348,316,38269,1,0,0:0:0:0:
368,352,38359,1,0,0:0:0:0:
404,368,38449,2,0,L|408:340,4,17.5,2|0|0|0|0,0:0|0:0|0:0|0:0|0:0,0:0:0:0:
256,360,38808,6,0,L|108:348,1,140,8|2,3:0|3:0,0:0:0:0:
4,256,39347,2,0,P|48:252|132:172,1,140,2|8,0:0|3:0,0:0:0:0:
168,124,39886,2,0,P|198:158|204:187,1,70,2|2,3:0|0:0,0:0:0:0:
312,240,40245,6,0,L|320:206,3,35,4|0|2|0,3:0|0:0|3:0|0:0,0:0:0:0:
396,144,40605,2,0,L|404:178,3,35,8|0|0|0,3:0|0:0|0:0|0:0,0:0:0:0:
428,64,40964,2,0,P|456:36|476:4,1,70,2|0,0:0|0:0,0:0:0:0:
396,144,41323,2,0,P|415:172|440:197,1,70,4|0,3:0|0:0,0:0:0:0:
480,332,41683,6,0,L|340:320,1,140,2|2,0:0|3:0,0:0:0:0:
256,236,42221,1,0,0:0:0:0:
256,236,42311,1,0,0:0:0:0:
256,236,42401,2,0,P|244:200|220:176,1,70,0|4,0:0|3:0,0:0:0:0:
144,144,42760,1,2,3:0:0:0:
76,192,42940,1,0,0:0:0:0:
76,192,43030,1,0,0:0:0:0:
76,192,43120,6,0,P|64:128|108:68,2,140,4|2|4,3:0|3:0|3:0,0:0:0:0:
156,220,44018,2,0,L|148:264,1,35,0|8,0:0|3:0,0:0:0:0:
216,304,44287,2,0,L|222:269,1,35,0|4,0:0|3:0,0:0:0:0:
304,248,44557,6,0,P|348:244|420:316,1,140,4|2,0:0|3:0,0:0:0:0:
512,200,45096,2,0,L|352:168,1,140,0|4,0:0|3:0,0:0:0:0:
300,132,45635,2,0,P|304:92|280:64,1,70,2|0,3:0|0:0,0:0:0:0:
252,44,45904,1,0,0:0:0:0:
252,44,45994,6,0,P|260:24|264:-8,3,35,4|0|2|0,3:0|0:0|3:0|0:0,0:0:0:0:
180,72,46353,2,0,P|172:56|167:39,3,35,8|0|0|0,3:0|0:0|0:0|0:0,0:0:0:0:
136,136,46712,1,2,0:0:0:0:
136,136,46802,1,0,0:0:0:0:
136,136,46892,1,4,3:0:0:0:
60,172,47072,2,0,L|56:216,2,35,2|0|4,3:0|0:0|3:0,0:0:0:0:
204,204,47431,6,0,P|196:280|188:352,1,140,4|8,3:0|3:0,0:0:0:0:
292,280,47970,2,0,B|356:252|356:292|432:268,1,140,0|4,0:0|3:0,0:0:0:0:
352,176,48509,2,0,P|344:136|360:64,1,105,2|0,3:0|0:0,0:0:0:0:
340,36,48868,6,0,P|323:81|295:107,1,70,4|0,3:0|0:0,0:0:0:0:
280,124,49138,2,0,P|240:148|204:148,1,70,8|0,3:0|0:0,0:0:0:0:
176,136,49407,1,4,3:0:0:0:
36,128,49587,2,0,L|48:196,1,70,4|0,3:0|0:0,0:0:0:0:
56,240,49856,2,0,L|40:316,1,70,4|0,3:0|0:0,0:0:0:0:
60,348,50126,1,2,3:0:0:0:
184,332,50305,6,0,L|336:340,1,140,4|2,0:0|3:0,0:0:0:0:
400,244,50844,1,0,0:0:0:0:
400,244,50934,1,0,0:0:0:0:
400,244,51024,2,0,P|368:252|320:244,1,70,2|4,0:0|3:0,0:0:0:0:
260,200,51383,2,0,P|225:196|191:204,1,70,2|0,3:0|0:0,0:0:0:0:
72,104,51742,6,0,L|224:112,1,140,4|2,0:0|3:0,0:0:0:0:
284,72,52281,1,2,0:0:0:0:
284,72,52371,1,2,0:0:0:0:
284,72,52461,2,0,P|296:36|296:0,1,70,0|6,0:0|3:0,0:0:0:0:
360,132,52820,2,0,L|372:212,1,70,8|4,3:0|3:0,0:0:0:0:
444,88,53180,6,0,L|433:18,2,70,4|2|2,0:0|0:0|3:0,0:0:0:0:
464,168,53718,1,2,0:0:0:0:
464,168,53808,1,2,0:0:0:0:
464,168,53898,2,0,L|464:208,3,35,2|2|4|0,0:0|0:0|3:0|0:0,0:0:0:0:
408,256,54257,2,0,L|421:293,3,35,2|2|2|2,3:0|0:0|0:0|0:0,0:0:0:0:
332,296,54617,6,0,P|292:304|212:284,1,105,4|4,3:0|3:0,0:0:0:0:
92,364,55156,1,4,3:0:0:0:
92,364,55335,2,0,P|108:328|116:292,1,70,8|0,3:0|0:0,0:0:0:0:
108,256,55605,2,0,L|96:188,1,70,8|0,3:0|0:0,0:0:0:0:
108,148,55874,1,2,0:0:0:0:
160,84,56054,6,0,P|180:48|176:4,2,70,4|0|2,0:0|0:0|3:0,0:0:0:0:
100,28,56593,2,0,L|220:140,1,140,0|4,0:0|3:0,0:0:0:0:
268,180,57132,1,2,3:0:0:0:
216,244,57311,1,0,0:0:0:0:
216,244,57401,1,0,0:0:0:0:
216,244,57491,6,0,P|232:280|240:328,1,70,4|2,3:0|3:0,0:0:0:0:
324,208,57850,2,0,P|331:173|346:142,1,70,2|0,0:0|0:0,0:0:0:0:
396,240,58209,2,0,P|366:276|276:272,1,140,2|2,0:0|0:0,0:0:0:0:
408,156,58748,1,4,3:0:0:0:
408,156,58838,1,0,0:0:0:0:
408,156,58928,6,0,P|448:172|472:208,2,70,4|0|2,0:0|0:0|3:0,0:0:0:0:
324,168,59467,2,0,L|172:152,1,140,2|8,0:0|3:0,0:0:0:0:
100,164,60006,1,2,3:0:0:0:
36,216,60186,1,0,0:0:0:0:
36,216,60275,1,0,0:0:0:0:
36,216,60365,6,0,P|20:180|20:148,1,70,4|2,3:0|3:0,0:0:0:0:
160,240,60724,2,0,P|158:274|143:306,1,70,0|4,0:0|3:0,0:0:0:0:
124,88,61084,2,0,L|212:96,1,70,2|0,0:0|0:0,0:0:0:0:
324,32,61443,2,0,L|236:40,1,70,8|0,3:0|0:0,0:0:0:0:
284,128,61802,6,0,L|444:136,1,140,4|2,3:0|3:0,0:0:0:0:
392,208,62341,2,0,P|352:168|372:72,1,140,2|8,0:0|3:0,0:0:0:0:
476,176,62880,2,0,P|482:213|472:248,1,70,2|2,3:0|0:0,0:0:0:0:
416,304,63239,6,0,L|432:376,1,70,4|2,3:0|3:0,0:0:0:0:
288,304,63599,2,0,L|303:235,1,70,2|0,0:0|0:0,0:0:0:0:
244,176,63958,1,2,0:0:0:0:
160,164,64138,2,0,P|144:136|136:116,2,35,0|0|2,0:0|0:0|0:0,0:0:0:0:
96,220,64497,1,0,0:0:0:0:
96,220,64587,1,0,0:0:0:0:
96,220,64677,6,0,P|76:248|72:352,1,140,4|2,3:0|3:0,0:0:0:0:
196,344,65215,2,0,B|272:328|260:364|340:344,1,140,0|8,0:0|3:0,0:0:0:0:
396,288,65754,2,0,P|404:260|400:212,1,70,2|0,3:0|0:0,0:0:0:0:
324,96,66114,5,4,3:0:0:0:
276,164,66293,2,0,P|276:200|272:216,2,35,2|0|2,3:0|0:0|3:0,0:0:0:0:
184,184,66653,1,4,3:0:0:0:
184,184,66832,2,0,L|96:172,1,70,4|0,3:0|0:0,0:0:0:0:
24,276,67191,2,0,P|60:272|96:280,1,70,0|4,0:0|3:0,0:0:0:0:
172,308,67551,6,0,L|328:292,1,140,4|2,0:0|3:0,0:0:0:0:
336,200,68090,1,0,0:0:0:0:
336,200,68180,1,0,0:0:0:0:
336,200,68269,2,0,P|316:160|352:64,1,140,2|2,0:0|3:0,0:0:0:0:
236,20,68808,1,0,0:0:0:0:
236,20,68898,1,0,0:0:0:0:
236,20,68988,6,0,P|240:64|228:92,1,70,4|0,3:0|0:0,0:0:0:0:
160,208,69347,2,0,P|149:174|154:140,1,70,2|0,3:0|0:0,0:0:0:0:
231,171,69706,2,0,L|63:159,1,140,2|0,0:0|0:0,0:0:0:0:
20,204,70245,1,4,3:0:0:0:
20,204,70335,1,0,0:0:0:0:
20,204,70425,6,0,P|36:236|36:284,1,70,4|0,0:0|0:0,0:0:0:0:
44,352,70784,2,0,P|80:368|184:336,1,140,2|2,3:0|0:0,0:0:0:0:
208,268,71323,2,0,L|216:224,2,35,4|0|2,3:0|0:0|3:0,0:0:0:0:
276,316,71683,1,0,0:0:0:0:
352,276,71862,6,0,P|380:256|488:236,1,140,4|2,3:0|3:0,0:0:0:0:
500,152,72401,1,4,3:0:0:0:
500,152,72581,2,0,L|504:116,2,35,2|4|0,0:0|3:0|0:0,0:0:0:0:
428,196,72940,1,8,3:0:0:0:
368,128,73120,1,0,0:0:0:0:
368,128,73299,6,0,L|296:132,1,70,4|2,3:0|0:0,0:0:0:0:
240,192,73659,2,0,L|160:196,1,70,2|2,3:0|0:0,0:0:0:0:
60,260,74018,2,0,L|132:264,1,70,4|0,3:0|0:0,0:0:0:0:
176,336,74377,2,0,L|245:339,1,70,2|8,3:0|3:0,0:0:0:0:
328,328,74736,6,0,P|360:300|376:252,1,70,4|0,3:0|0:0,0:0:0:0:
268,232,75096,2,0,P|285:193|279:142,1,70,4|0,3:0|0:0,0:0:0:0:
172,172,75455,2,0,P|171:129|144:86,1,70,4|0,0:0|0:0,0:0:0:0:
64,136,75814,1,4,3:0:0:0:
80,236,75994,1,8,3:0:0:0:
80,236,76084,1,0,0:0:0:0:
80,236,76174,6,0,L|72:312,1,70,4|0,3:0|0:0,0:0:0:0:
184,364,76533,1,2,3:0:0:0:
164,284,76712,1,4,3:0:0:0:
272,272,76892,2,0,L|264:348,1,70,0|2,0:0|3:0,0:0:0:0:
365,292,77251,2,0,P|348:261|340:227,1,70,8|0,3:0|0:0,0:0:0:0:
364,152,77611,5,2,3:0:0:0:
396,76,77790,2,0,L|384:0,1,70,4|2,3:0|3:0,0:0:0:0:
448,144,78150,2,0,L|437:213,1,70,4|8,3:0|3:0,0:0:0:0:
456,296,78509,2,0,L|472:336,2,35,0|0|4,0:0|0:0|3:0,0:0:0:0:
376,272,78868,1,4,3:0:0:0:
300,312,79048,5,2,3:0:0:0:
256,192,79138,12,4,81922,0:0:0:0:
56,112,93419,6,0,P|40:72|40:28,1,70,4|2,3:0|0:0,0:0:0:0:
128,188,93778,2,0,P|124:222|109:254,1,70,4|2,3:0|0:0,0:0:0:0:
44,308,94138,2,0,L|200:296,1,140,8|4,3:0|3:0,0:0:0:0:
268,300,94677,1,2,0:0:0:0:
268,300,94766,1,0,0:0:0:0:
268,300,94856,6,0,L|256:380,1,70,4|2,3:0|0:0,0:0:0:0:
362,309,95215,2,0,L|352:240,1,70,4|2,3:0|0:0,0:0:0:0:
372,156,95575,2,0,B|416:132|460:152|460:152|516:136,1,140,8|4,3:0|3:0,0:0:0:0:
500,32,96114,1,2,0:0:0:0:
500,32,96293,5,4,3:0:0:0:
500,32,96473,2,0,P|456:28|420:28,1,70,2|2,0:0|0:0,0:0:0:0:
288,76,96832,2,0,P|322:75|357:71,2,70,2|2|2,0:0|0:0|0:0,0:0:0:0:
212,40,97371,2,0,L|136:36,1,70,4|0,3:0|0:0,0:0:0:0:
64,120,97730,6,0,P|80:152|88:192,1,70,4|2,3:0|0:0,0:0:0:0:
188,268,98090,2,0,P|172:299|164:333,1,70,0|0,0:0|0:0,0:0:0:0:
276,284,98449,1,2,0:0:0:0:
252,204,98629,1,2,0:0:0:0:
168,188,98808,1,4,3:0:0:0:
224,124,98988,1,2,3:0:0:0:
224,124,99168,6,0,P|288:126|316:148,1,70,4|0,0:0|0:0,0:0:0:0:
336,264,99527,2,0,L|328:316,3,35,4|2|2|0,3:0|0:0|0:0|0:0,0:0:0:0:
252,228,99886,2,0,L|246:193,3,35,4|2|2|0,3:0|0:0|0:0|0:0,0:0:0:0:
208,296,100245,2,0,L|202:331,3,35,4|0|0|0,3:0|0:0|0:0|0:0,0:0:0:0:
172,228,100605,6,0,L|100:220,1,70,8|0,3:0|0:0,0:0:0:0:
40,168,100964,2,0,P|24:144|24:132,3,35,4|2|2|0,3:0|0:0|0:0|0:0,0:0:0:0:
92,108,101323,2,0,P|108:84|108:72,3,35,8|0|0|0,3:0|0:0|0:0|0:0,0:0:0:0:
176,44,101683,2,0,P|180:60|192:73,3,35,4|2|2|0,3:0|0:0|0:0|0:0,0:0:0:0:
264,104,102042,6,0,B|300:112|300:112|424:84,1,140,4|4,0:0|3:0,0:0:0:0:
496,160,102581,1,2,0:0:0:0:
496,160,102760,2,0,P|460:152|416:168,1,70,4|0,0:0|0:0,0:0:0:0:
328,232,103120,2,0,P|364:240|408:224,1,70,8|0,3:0|0:0,0:0:0:0:
288,164,103479,6,0,P|259:195|252:224,1,70,4|8,0:0|3:0,0:0:0:0:
260,360,103838,2,0,P|249:327|224:303,1,70,8|4,3:0|3:0,0:0:0:0:
144,268,104197,1,4,3:0:0:0:
68,232,104377,2,0,L|16:240,1,35,0|4,0:0|3:0,0:0:0:0:
136,76,104736,1,4,3:0:0:0:
136,76,104916,6,0,P|176:92|284:60,1,140,4|0,0:0|0:0,0:0:0:0:
420,88,105455,1,2,3:0:0:0:
420,88,106353,6,0,P|448:120|472:240,1,140,4|0,0:0|0:0,0:0:0:0:
352,304,106892,1,2,3:0:0:0:
352,304,107790,6,0,L|188:280,1,140,4|0,0:0|0:0,0:0:0:0:
94,187,108329,1,2,3:0:0:0:
94,187,109227,6,0,B|72:148|80:108|80:108|60:36,1,140,4|0,0:0|0:0,0:0:0:0:
196,132,109766,1,2,3:0:0:0:
352,72,110126,1,8,3:0:0:0:
352,72,110305,2,0,L|384:72,6,17.5,0|0|0|0|0|0|0,0:0|0:0|0:0|0:0|0:0|0:0|0:0,0:0:0:0:
352,72,110665,6,0,L|376:216,1,140,4|0,3:0|0:0,0:0:0:0:
268,320,111203,1,4,0:0:0:0:
268,320,112102,6,0,B|224:332|184:312|184:312|112:328,1,140,4|0,3:0|0:0,0:0:0:0:
240,216,112641,1,4,0:0:0:0:
240,216,113539,6,0,L|212:72,1,140,4|0,3:0|0:0,0:0:0:0:
364,92,114078,1,4,0:0:0:0:
368,108,114437,1,8,3:0:0:0:
372,120,114796,1,4,3:0:0:0:
12,336,115694,6,0,P|28:308|44:256,1,70,0|0,0:0|0:0,0:0:0:0:
36,260,115964,2,0,L|32:184,1,70,0|0,0:0|0:0,0:0:0:0:
40,176,116233,1,2,0:0:0:0:
108,96,116413,5,2,0:0:0:0:
256,192,125575,12,0,126832,0:0:0:0:
72,80,127191,6,0,P|68:120|84:160,1,70,2|0,0:0|0:0,0:0:0:0:
92,160,127461,2,0,L|76:244,1,70,2|0,0:0|0:0,0:0:0:0:
84,248,127730,1,2,0:0:0:0:
144,308,127910,5,4,0:0:0:0:
224,280,128090,1,0,0:0:0:0:
304,308,128269,2,0,L|292:380,1,70,8|0,3:0|0:0,0:0:0:0:
376,348,128629,2,0,P|340:312|344:208,1,140,2|0,3:0|0:0,0:0:0:0:
388,160,129168,1,0,0:0:0:0:
464,128,129347,6,0,P|466:181|408:240,1,140,0|4,3:0|3:0,0:0:0:0:
266,170,129886,1,0,0:0:0:0:
266,170,130066,2,0,B|212:168|212:168|180:176|180:176|124:170,1,140,2|0,3:0|0:0,0:0:0:0:
48,140,130605,1,4,3:0:0:0:
48,140,130784,6,0,P|28:112|20:72,1,70,8|0,3:0|0:0,0:0:0:0:
140,9,131144,2,0,P|132:42|111:71,1,70,8|0,3:0|0:0,0:0:0:0:
111,70,131503,2,0,P|168:60|236:120,1,140,4|2,0:0|0:0,0:0:0:0:
184,200,132042,1,0,0:0:0:0:
184,200,132132,1,0,0:0:0:0:
184,200,132221,6,0,L|208:324,2,105,2|2|2,0:0|0:0|0:0,0:0:0:0:
280,304,132940,2,0,P|257:360|196:381,2,105,4|2|2,0:0|0:0|0:0,0:0:0:0:
258,222,133659,6,0,P|317:228|364:289,1,140,4|4,0:0|3:0,0:0:0:0:
428,344,134197,1,0,0:0:0:0:
428,344,134377,2,0,P|448:308|448:272,1,70,4|0,3:0|0:0,0:0:0:0:
484,168,134736,2,0,P|487:202|505:232,1,70,8|0,3:0|0:0,0:0:0:0:
496,80,135096,6,0,P|443:86|395:161,1,140,4|8,0:0|3:0,0:0:0:0:
364,232,135635,1,0,0:0:0:0:
364,232,135814,2,0,L|296:220,1,70,8|0,3:0|0:0,0:0:0:0:
164,288,136174,2,0,L|232:276,1,70,4|2,3:0|3:0,0:0:0:0:
116,348,136533,6,0,P|136:312|124:204,1,140,2|0,3:0|0:0,0:0:0:0:
56,176,137072,1,2,3:0:0:0:
56,176,137162,1,0,0:0:0:0:
56,176,137251,2,0,P|32:144|28:128,3,35,0|0|0|0,0:0|0:0|0:0|0:0,0:0:0:0:
100,116,137611,2,0,P|115:84|120:50,1,70,2|0,3:0|0:0,0:0:0:0:
212,24,137970,5,4,3:0:0:0:
288,60,138150,1,2,3:0:0:0:
372,60,138329,1,8,3:0:0:0:
452,32,138509,1,4,3:0:0:0:
452,32,138599,1,0,0:0:0:0:
452,32,138689,2,0,P|468:80|504:140,2,105,2|2|2,0:0|0:0|0:0,0:0:0:0:
372,60,139407,6,0,L|344:216,1,140,4|2,0:0|3:0,0:0:0:0:
456,252,139946,1,2,0:0:0:0:
456,252,140036,1,0,0:0:0:0:
456,252,140126,1,0,0:0:0:0:
372,244,140305,1,4,3:0:0:0:
356,328,140485,1,2,3:0:0:0:
272,316,140665,1,0,0:0:0:0:
272,316,140844,6,0,P|236:300|200:260,1,70,4|2,3:0|3:0,0:0:0:0:
216,152,141203,2,0,P|248:165|274:188,1,70,2|0,0:0|0:0,0:0:0:0:
156,204,141563,2,0,P|137:156|188:78,1,140,0|2,0:0|0:0,0:0:0:0:
232,228,142102,1,4,3:0:0:0:
232,228,142191,1,0,0:0:0:0:
232,228,142281,6,0,P|191:273|108:268,1,140,8|2,3:0|3:0,0:0:0:0:
64,204,142820,2,0,P|36:240|56:332,1,140,2|4,0:0|3:0,0:0:0:0:
140,332,143359,2,0,P|138:298|116:272,1,70,2|0,3:0|0:0,0:0:0:0:
156,193,143718,6,0,L|140:332,1,140,4|2,3:0|0:0,0:0:0:0:
252,296,144257,1,4,3:0:0:0:
252,296,144437,2,0,P|264:248|264:232,1,35,2|8,0:0|3:0,0:0:0:0:
146,160,144706,2,0,P|150:177|156:193,1,35,0|0,0:0|0:0,0:0:0:0:
288,116,144976,1,0,0:0:0:0:
288,116,145066,1,0,0:0:0:0:
288,116,145156,6,0,L|276:28,1,70,4|2,3:0|0:0,0:0:0:0:
364,144,145515,2,0,L|376:104,3,35,2|0|2|2,3:0|0:0|0:0|0:0,0:0:0:0:
440,152,145874,2,0,L|450:185,3,35,2|0|4|0,0:0|0:0|3:0|0:0,0:0:0:0:
388,220,146233,2,0,P|382:258|396:294,1,70,2|2,3:0|0:0,0:0:0:0:
464,252,146593,6,0,L|296:276,1,140,4|0,3:0|0:0,0:0:0:0:
244,295,147132,1,0,0:0:0:0:
168,256,147311,2,0,P|164:324|192:364,2,105,2|2|2,0:0|0:0|0:0,0:0:0:0:
232,200,148030,6,0,L|228:104,1,93.3333333333333,4|2,0:0|0:0,0:0:0:0:
316,36,148479,1,0,0:0:0:0:
472,192,148748,6,0,L|468:285,1,93.3333333333333,4|0,0:0|0:0,0:0:0:0:
380,352,149197,1,0,0:0:0:0:
268,336,149467,6,0,L|208:328,2,46.6666666666667,4|2|4,3:0|0:0|3:0,0:0:0:0:
180,268,149826,2,0,L|133:274,2,46.6666666666667,2|4|2,0:0|3:0|0:0,0:0:0:0:
56,244,150186,6,0,P|40:224|32:188,2,46.6666666666667,4|4|4,3:0|3:0|3:0,0:0:0:0:
28,124,150545,2,0,P|24:88|16:64,2,46.6666666666667,4|4|4,3:0|3:0|3:0,0:0:0:0:
28,124,150904,6,0,P|80:116|164:44,1,140,4|2,0:0|3:0,0:0:0:0:
220,152,151443,1,0,0:0:0:0:
220,152,151623,2,0,P|251:110|262:0,1,140,2|2,0:0|3:0,0:0:0:0:
360,144,152162,1,0,0:0:0:0:
360,144,152341,6,0,P|368:212|407:270,1,140,4|2,3:0|3:0,0:0:0:0:
296,352,152880,1,0,0:0:0:0:
296,352,153060,2,0,P|334:294|343:225,1,140,2|0,0:0|0:0,0:0:0:0:
240,132,153599,1,8,3:0:0:0:
240,132,153778,6,0,B|196:164|196:164|176:148|176:148|156:164|112:184,1,140,4|2,0:0|3:0,0:0:0:0:
180,308,154317,1,0,0:0:0:0:
180,308,154497,2,0,B|224:340|224:340|244:324|244:324|264:340|295:354,1,140,2|2,0:0|3:0,0:0:0:0:
376,328,155036,1,0,0:0:0:0:
376,328,155215,6,0,P|416:296|432:188,1,140,4|2,3:0|3:0,0:0:0:0:
372,124,155754,1,8,3:0:0:0:
252,120,155934,1,0,0:0:0:0:
236,124,156024,1,4,3:0:0:0:
220,128,156114,1,0,0:0:0:0:
204,132,156203,1,0,0:0:0:0:
188,136,156293,2,0,L|144:128,3,35,4|0|0|0,3:0|0:0|0:0|0:0,0:0:0:0:
136,196,156653,6,0,P|96:176|88:128,1,70,6|2,0:0|0:0,0:0:0:0:
160,272,157012,2,0,P|188:256|212:224,1,70,2|2,3:0|0:0,0:0:0:0:
312,160,157371,2,0,L|296:236,1,70,4|0,3:0|0:0,0:0:0:0:
384,332,157730,2,0,L|369:263,1,70,2|2,3:0|0:0,0:0:0:0:
384,132,158090,6,0,P|360:100|328:88,1,70,4|2,3:0|0:0,0:0:0:0:
244,192,158449,2,0,P|263:220|294:235,1,70,8|0,3:0|0:0,0:0:0:0:
240,104,158808,2,0,L|168:96,1,70,4|0,3:0|0:0,0:0:0:0:
92,184,159168,2,0,L|22:176,1,70,4|4,3:0|3:0,0:0:0:0:
168,268,159527,5,2,3:0:0:0:
168,268,159706,2,0,L|152:340,1,70,0|0,0:0|0:0,0:0:0:0:
256,328,160066,1,2,3:0:0:0:
359,336,160245,2,0,L|344:268,1,70,2|0,0:0|0:0,0:0:0:0:
464,268,160605,1,2,3:0:0:0:
464,268,160784,1,0,0:0:0:0:
428,192,160964,5,2,0:0:0:0:
448,112,161144,2,0,P|464:68|452:32,1,70,2|0,3:0|0:0,0:0:0:0:
356,172,161503,2,0,P|352:206|367:237,1,70,2|2,0:0|3:0,0:0:0:0:
360,280,161772,1,0,0:0:0:0:
404,352,161952,2,0,P|384:360|352:364,1,35,2|2,3:0|0:0,0:0:0:0:
228,368,162221,1,2,3:0:0:0:
228,368,162311,1,0,0:0:0:0:
228,368,162401,6,0,L|144:352,1,70,4|4,0:0|3:0,0:0:0:0:
48,280,162760,2,0,L|116:266,1,70,4|8,3:0|3:0,0:0:0:0:
232,192,163120,2,0,L|148:176,1,70,4|4,3:0|3:0,0:0:0:0:
52,104,163479,2,0,L|80:96,4,17.5,4|0|0|0|2,0:0|0:0|0:0|0:0|3:0,0:0:0:0:
180,100,163838,6,0,P|216:96|272:96,1,70,4|8,3:0|3:0,0:0:0:0:
408,168,164197,2,0,P|373:167|338:163,1,70,4|4,0:0|3:0,0:0:0:0:
456,92,164557,1,4,0:0:0:0:
500,164,164736,1,4,3:0:0:0:
460,236,164916,1,4,0:0:0:0:
376,240,165096,1,4,3:0:0:0:
300,196,165275,6,0,P|288:240|344:320,1,140,4|0,0:0|0:0,0:0:0:0:
216,364,165814,1,4,0:0:0:0:
216,364,165994,1,2,0:0:0:0:
216,364,166174,2,0,P|232:324|220:288,1,70,0|4,0:0|0:0,0:0:0:0:
160,248,166533,1,0,0:0:0:0:
100,308,166712,6,0,P|60:312|24:292,1,70,2|4,0:0|0:0,0:0:0:0:
136,176,167072,2,0,P|176:172|212:192,1,70,2|2,0:0|0:0,0:0:0:0:
248,256,167431,2,0,P|280:228|284:216,1,35,4|0,3:0|0:0,0:0:0:0:
260,136,167700,2,0,P|247:123|232:115,1,35,4|0,3:0|0:0,0:0:0:0:
152,32,167970,1,4,3:0:0:0:
152,32,168150,6,0,P|192:44|296:12,1,140,6|0,0:0|0:0,0:0:0:0:
368,20,168689,1,0,0:0:0:0:
432,76,168868,2,0,L|416:144,1,70,0|0,0:0|0:0,0:0:0:0:
504,280,169227,2,0,L|488:212,1,70,0|0,0:0|0:0,0:0:0:0:
412,284,169587,6,0,P|427:329|508:372,1,140,0|0,0:0|0:0,0:0:0:0:
344,364,170126,1,0,0:0:0:0:
344,364,170305,2,0,L|268:360,1,70,0|0,0:0|0:0,0:0:0:0:
164,272,170665,2,0,L|233:275,1,70,0|0,0:0|0:0,0:0:0:0:
304,208,171024,6,0,L|292:168,3,35,0|0|0|0,0:0|0:0|0:0|0:0,0:0:0:0:
212,160,171383,2,0,L|222:193,3,35,2|0|0|0,3:0|0:0|0:0|0:0,0:0:0:0:
140,176,171742,2,0,L|129:142,3,35,0|0|4|0,0:0|0:0|3:0|0:0,0:0:0:0:
48,136,172102,2,0,L|58:169,3,35,4|0|0|0,0:0|0:0|0:0|0:0,0:0:0:0:
40,256,172461,6,0,L|32:280,4,17.5,4|0|0|0|0,3:0|0:0|0:0|0:0|0:0,0:0:0:0:
124,268,172820,2,0,P|128:308|120:348,1,70,2|4,3:0|3:0,0:0:0:0:
248,344,173180,1,0,0:0:0:0:
244,328,173269,1,4,3:0:0:0:
240,312,173359,1,0,0:0:0:0:
236,296,173449,1,0,0:0:0:0:
232,280,173539,2,0,L|236:240,3,35,4|2|2|2,3:0|0:0|0:0|0:0,0:0:0:0:
304,220,173898,6,0,L|296:176,5,35,2|2|2|2|0|0,0:0|0:0|0:0|0:0|0:0|0:0,0:0:0:0:
360,140,174437,2,0,L|340:99,5,35,2|2|2|2|0|0,0:0|0:0|0:0|0:0|0:0|0:0,0:0:0:0:
420,196,174976,2,0,L|404:227,5,35,2|0|2|0|4|0,0:0|0:0|0:0|0:0|3:0|0:0,0:0:0:0:
488,156,175515,2,0,L|500:188,5,35,2|0|0|0|2|0,0:0|0:0|0:0|0:0|0:0|0:0,0:0:0:0:
428,108,176054,1,2,0:0:0:0:
352,48,176233,1,4,3:0:0:0:
352,48,176323,1,2,0:0:0:0:
352,48,176413,1,0,0:0:0:0:
280,88,176593,1,4,3:0:0:0:
200,120,176772,6,0,L|128:96,1,70,8|0,3:0|0:0,0:0:0:0:
28,208,177132,2,0,L|100:184,1,70,2|2,3:0|0:0,0:0:0:0:
84,280,177491,2,0,L|44:296,3,35,0|0|4|0,0:0|0:0|3:0|0:0,0:0:0:0:
128,328,177850,2,0,L|160:315,3,35,2|0|0|0,3:0|0:0|0:0|0:0,0:0:0:0:
160,315,178209,6,0,L|272:328,1,105,4|0,3:0|0:0,0:0:0:0:
280,288,178569,2,0,L|360:296,1,70,8|4,3:0|3:0,0:0:0:0:
432,288,178928,2,0,P|460:260|460:244,3,35,0|4|0|0,0:0|3:0|0:0|0:0,0:0:0:0:
380,224,179287,2,0,P|352:196|352:180,3,35,4|0|0|0,3:0|0:0|0:0|0:0,0:0:0:0:
422,165,179647,6,0,P|398:137|350:125,1,70,4|2,0:0|0:0,0:0:0:0:
220,121,180006,2,0,P|242:94|274:81,1,70,2|2,0:0|0:0,0:0:0:0:
264,187,180365,2,0,P|204:198|142:133,1,140,0|2,0:0|3:0,0:0:0:0:
160,68,180904,1,0,0:0:0:0:
160,68,180994,1,0,0:0:0:0:
160,68,181084,6,0,P|144:32|112:8,1,70,4|2,3:0|0:0,0:0:0:0:
76,84,181443,2,0,L|48:80,4,17.5,2|0|0|0|2,0:0|0:0|0:0|0:0|0:0,0:0:0:0:
60,168,181802,2,0,L|100:176,3,35,0|0|4|0,0:0|0:0|3:0|0:0,0:0:0:0:
72,248,182162,2,0,L|112:256,3,35,2|0|4|0,3:0|0:0|3:0|0:0,0:0:0:0:
48,308,182521,6,0,L|192:272,1,140,4|2,0:0|3:0,0:0:0:0:
256,320,183060,2,0,P|220:292|220:196,1,140,2|4,0:0|3:0,0:0:0:0:
276,148,183599,2,0,P|268:112|260:96,3,35,2|0|0|0,3:0|0:0|0:0|0:0,0:0:0:0:
268,113,183958,6,0,L|304:40,1,70,4|8,3:0|3:0,0:0:0:0:
384,140,184317,1,2,3:0:0:0:
384,140,184497,2,0,L|383:58,1,70,4|0,3:0|0:0,0:0:0:0:
488,152,184856,1,0,0:0:0:0:
488,152,184946,1,0,0:0:0:0:
488,152,185036,2,0,P|500:184|496:228,1,70,8|0,3:0|0:0,0:0:0:0:
440,280,185395,6,0,L|456:336,5,35,4|2|2|2|4|0,3:0|0:0|0:0|0:0|3:0|0:0,0:0:0:0:
356,272,185934,2,0,L|365:305,5,35,2|2|4|2|0|0,0:0|0:0|3:0|0:0|0:0|0:0,0:0:0:0:
272,264,186473,2,0,L|281:297,5,35,4|2|2|2|4|0,3:0|0:0|0:0|0:0|3:0|0:0,0:0:0:0:
188,256,187012,2,0,L|197:289,5,35,2|2|4|0|2|2,0:0|0:0|3:0|0:0|0:0|0:0,0:0:0:0:
188,256,187551,5,4,3:0:0:0:
108,232,187730,1,2,0:0:0:0:
16,128,187910,1,4,3:0:0:0:
96,104,188090,1,8,3:0:0:0:
176,80,188269,6,0,P|188:48|184:8,1,70,2|2,3:0|0:0,0:0:0:0:
296,144,188629,1,2,0:0:0:0:
296,144,188808,2,0,P|284:112|288:72,1,70,2|2,3:0|0:0,0:0:0:0:
400,196,189168,1,2,0:0:0:0:
400,196,189347,2,0,P|412:164|408:124,1,70,2|2,3:0|0:0,0:0:0:0:
308,240,189706,5,2,0:0:0:0:
384,280,189886,1,2,3:0:0:0:
344,352,190066,2,0,P|324:360|304:360,1,35,4|0,3:0|0:0,0:0:0:0:
212,272,190335,2,0,P|192:272|178:277,1,35
92,336,190605,1,0,0:0:0:0:
92,336,190694,1,4,3:0:0:0:
92,336,190784,2,0,P|52:328|24:300,1,70,0|4,0:0|3:0,0:0:0:0:
53,153,191144,6,0,P|93:185|107:235,1,105,0|0,0:0|0:0,0:0:0:0:
96,260,191503,5,4,0:0:0:0:
256,192,191593,12,0,199766,0:0:0:0:
