osu file format v13

[General]
AudioFilename: beyond.mp3
AudioLeadIn: 0
PreviewTime: 50305
Countdown: 0
SampleSet: Soft
StackLeniency: 0.7
Mode: 0
LetterboxInBreaks: 0
WidescreenStoryboard: 1

[Editor]
Bookmarks: 54263,79054
DistanceSpacing: 1.2
BeatDivisor: 4
GridSize: 8
TimelineZoom: 3.199998

[Metadata]
Title:Sora no Kanata
TitleUnicode:ソラノカナタ
Artist:wa.
ArtistUnicode:wa.
Creator:Liiraye
Version:Affinity
Source:
Tags:Asphyxia Trust artcore
BeatmapID:416506
BeatmapSetID:172300

[Difficulty]
HPDrainRate:7
CircleSize:4
OverallDifficulty:8
ApproachRate:9
SliderMultiplier:1.8
SliderTickRate:1

[Events]
//Background and Video events
0,0,"waaa.png",0,0
//Break Periods
//Storyboard Layer 0 (Background)
//Storyboard Layer 1 (Fail)
//Storyboard Layer 2 (Pass)
//Storyboard Layer 3 (Foreground)
//Storyboard Sound Samples
//Background Colour Transformations
3,100,163,162,255

[TimingPoints]
6833,359.281437125748,4,2,0,80,1,0
7192,359.281437125748,4,2,0,80,1,0
7192,-153.846153846154,4,2,0,80,0,0
28748,-100,4,2,0,80,0,0
29287,-153.846153846154,4,2,0,80,0,0
29377,-153.846153846154,4,2,0,80,0,0
29467,-100,4,2,0,80,0,0
30186,-100,4,2,0,50,0,0
30275,-100,4,2,0,80,0,0
31263,-100,4,2,0,50,0,0
31353,-100,4,2,0,80,0,0
31802,-200,4,2,0,80,0,0
32162,-200,4,2,0,50,0,0
32341,-100,4,2,0,80,0,0
34677,-100,4,2,0,40,0,0
34766,-100,4,2,0,80,0,0
37191,-100,4,2,0,55,0,0
37281,-100,4,2,0,80,0,0
39168,-100,4,2,0,50,0,0
39257,-100,4,2,0,80,0,0
41323,-76.9230769230769,4,2,0,80,0,0
41683,-100,4,2,0,80,0,0
42042,-100,4,2,0,60,0,0
42132,-100,4,2,0,80,0,0
44916,-100,4,2,0,50,0,0
45006,-100,4,2,0,80,0,0
46174,-100,4,2,0,50,0,0
46263,-100,4,2,0,80,0,0
48509,-100,4,2,0,80,0,0
50665,-100,4,2,0,55,0,0
50754,-100,4,2,0,80,0,0
52102,-100,4,2,0,60,0,0
52191,-100,4,2,0,80,0,0
52281,-100,4,2,0,80,0,0
53539,-100,4,2,0,60,0,0
53629,-100,4,2,0,80,0,0
56413,-100,4,2,0,50,0,0
56503,-100,4,2,0,80,0,0
59287,-100,4,2,0,50,0,0
59377,-100,4,2,0,80,0,0
62162,-100,4,2,0,50,0,0
62251,-100,4,2,0,80,0,0
65036,-100,4,2,0,50,0,0
65126,-100,4,2,0,80,0,0
66293,-100,4,2,0,50,0,0
66383,-100,4,2,0,80,0,0
67910,-100,4,2,0,50,0,0
68000,-100,4,2,0,80,0,0
70784,-100,4,2,0,50,0,0
70874,-100,4,2,0,80,0,0
73659,-100,4,2,0,50,0,0
73748,-100,4,2,0,80,0,0
74557,-100,4,2,0,50,0,0
74647,-100,4,2,0,80,0,0
77970,-100,4,2,0,50,0,0
78239,-100,4,2,0,80,0,0
79048,-100,4,2,0,50,0,0
79138,-100,4,2,0,80,0,0
80126,-100,4,2,0,50,0,0
80215,-100,4,2,0,80,0,0
82641,-100,4,2,0,50,0,0
82730,-100,4,2,0,80,0,0
88389,-100,4,2,0,50,0,0
88479,-100,4,2,0,80,0,0
100605,-100,4,2,0,60,0,0
100694,-100,4,2,0,80,0,0
115694,-133.333333333333,4,2,0,80,0,0
120186,-133.333333333333,4,2,0,10,0,0
120245,-133.333333333333,4,2,0,80,0,0
127910,-100,4,2,0,80,0,0
136353,-100,4,2,0,50,0,0
136533,-100,4,2,0,80,0,0
137072,-100,4,2,0,50,0,0
137162,-100,4,2,0,80,0,0
138958,-83.3333333333333,4,2,0,80,0,0
139407,-100,4,2,0,80,0,0
139766,-100,4,2,0,50,0,0
139856,-100,4,2,0,80,0,0
142641,-100,4,2,0,50,0,0
142730,-100,4,2,0,80,0,0
145515,-100,4,2,0,50,0,0
145605,-100,4,2,0,80,0,0
149467,-100,4,2,0,50,0,0
149557,-100,4,2,0,80,0,0
149647,-100,4,2,0,50,0,0
149826,-100,4,2,0,80,0,0
149916,-100,4,2,0,50,0,0
150006,-100,4,2,0,80,0,0
150275,-100,4,2,0,65,0,0
150365,-100,4,2,0,50,0,0
150455,-100,4,2,0,35,0,0
150635,-100,4,2,0,50,0,0
150724,-100,4,2,0,65,0,0
150814,-100,4,2,0,80,0,0
151263,-100,4,2,0,50,0,0
151353,-100,4,2,0,80,0,0
157012,-100,4,2,0,50,0,0
157102,-100,4,2,0,80,0,0
180724,-100,4,2,0,50,0,0
180814,-100,4,2,0,80,0,0
184766,-76.9230769230769,4,2,0,80,0,0
185036,-62.5,4,2,0,80,0,0
185395,-100,4,2,0,80,0,0
190335,-100,4,2,0,50,0,0
190425,-100,4,2,0,80,0,0
191144,-74.0740740740741,4,2,0,80,0,0
191683,-74.0740740740741,4,2,0,20,0,0

[Colours]
Combo1 : 0,185,185
Combo2 : 255,133,74
Combo3 : 192,179,1
Combo4 : 0,128,64

[HitObjects]
128,116,6832,5,0,0:0:0:0:
128,116,7012,1,0,0:0:0:0:
129,117,7192,2,0,P|186:145|239:133,1,116.999994644165,2|0,0:0|0:0,0:0:0:0:
291,82,7730,2,0,L|328:200,1,116.999994644165
309,268,8269,1,2,0:0:0:0:
309,268,8808,1,0,0:0:0:0:
309,268,9347,1,0,0:0:0:0:
171,285,9706,1,0,0:0:0:0:
82,176,10066,5,0,0:0:0:0:
82,176,10425,2,0,L|86:255,1,58.4999973220826,0|2,0:0|0:0,0:0:0:0:
269,334,11144,2,0,P|327:270|322:184,1,175.499991966248
158,51,12221,1,0,0:0:0:0:
158,51,12581,1,0,0:0:0:0:
158,50,12940,6,0,P|135:104|140:162,1,116.999994644165,2|0,0:0|0:0,0:0:0:0:
64,223,13479,2,0,P|90:274|139:305,1,116.999994644165,2|0,0:0|0:0,0:0:0:0:
232,320,14018,2,0,P|142:321|62:379,2,175.499991966248,2|0|2,0:0|0:0|0:0,0:0:0:0:
365,274,15455,1,0,0:0:0:0:
399,137,15814,5,0,0:0:0:0:
399,137,16174,2,0,L|403:78,1,58.4999973220826,2|2,0:0|0:0,0:0:0:0:
256,192,16533,12,0,17611,0:0:0:0:
213,133,17970,5,0,0:0:0:0:
213,133,18329,1,0,0:0:0:0:
213,133,18689,6,0,L|190:270,1,116.999994644165,4|0,1:0|0:0,0:0:0:0:
122,275,19227,2,0,L|112:323,2,29.2499986610413,8|0|0,3:0|0:0|0:0,0:0:0:0:
122,275,19587,1,0,0:0:0:0:
95,201,19766,1,0,0:0:0:0:
95,201,19946,2,0,P|90:166|79:137,1,58.4999973220826,4|0,3:0|0:0,0:0:0:0:
67,68,20305,5,0,0:0:0:0:
67,68,20395,1,0,0:0:0:0:
67,68,20485,2,0,P|123:59|192:65,1,116.999994644165,4|0,3:0|0:0,0:0:0:0:
287,116,21024,1,0,0:0:0:0:
403,99,21203,1,4,3:0:0:0:
403,98,21563,6,0,P|387:139|384:183,1,87.749995983124,8|0,3:0|0:0,0:0:0:0:
393,218,21922,2,0,L|407:254,2,29.2499986610413,2|0|2,0:0|0:0|0:0,0:0:0:0:
281,239,22281,2,0,L|261:317,1,58.4999973220826,2|0,0:0|0:0,0:0:0:0:
252,309,22820,6,0,L|294:137,1,175.499991966248,4|4,1:0|1:0,0:0:0:0:
319,65,23539,1,0,0:0:0:0:
319,65,23629,1,0,0:0:0:0:
318,64,23718,2,0,P|289:62|260:63,1,58.4999973220826
193,93,24078,1,2,0:0:0:0:
193,93,24437,6,0,P|151:121|125:182,1,116.999994644165,4|4,3:0|3:0,0:0:0:0:
136,251,24976,2,0,P|117:230|92:216,1,58.4999973220826,8|0,3:0|0:0,0:0:0:0:
30,251,25335,1,0,0:0:0:0:
44,319,25515,1,2,0:0:0:0:
109,345,25694,6,0,P|193:330|229:254,1,175.499991966248,4|4,3:0|3:0,0:0:0:0:
213,186,26413,2,0,L|182:162,2,29.2499986610413,0|0|2,0:0|0:0|0:0,0:0:0:0:
339,190,26772,2,0,P|354:238|352:272,2,58.4999973220826,8|0|4,3:0|0:0|3:0,0:0:0:0:
182,49,27671,5,8,3:0:0:0:
22,186,28209,2,0,P|66:225|123:230,1,116.999994644165,2|0,0:0|0:0,0:0:0:0:
280,136,28748,5,0,3:0:0:0:
215,222,28928,1,0,3:0:0:0:
184,81,29108,1,0,3:0:0:0:
317,260,29287,1,2,3:0:0:0:
465,107,29467,6,0,P|474:83|478:51,1,45
419,217,29647,2,0,L|406:275,1,45,0|0,0:0|0:0,3:0:0:0:
363,113,29826,2,0,L|348:60,1,45
279,192,30006,2,0,P|250:212|220:222,2,45,0|0|2,0:0|0:0|3:0,0:0:0:0:
253,44,30365,5,0,0:0:0:0:
217,45,30455,1,0,0:0:0:0:
184,60,30545,1,0,0:0:0:0:
67,185,30724,2,0,P|110:176|155:181,1,90,2|0,3:0|0:0,0:0:0:0:
191,185,30994,2,0,P|211:164|222:140,2,45
174,259,31263,2,0,L|185:354,1,90,2|0,3:0|0:0,0:0:0:0:
219,357,31533,1,0,0:0:0:0:
253,368,31623,1,0,0:0:0:0:
296,256,31802,6,0,P|311:191|337:164,1,90,4|4,0:0|3:0,0:0:0:0:
325,174,32341,5,4,3:0:0:0:
459,247,32611,1,4,3:0:0:0:
345,44,32880,1,2,0:0:0:0:
214,105,33060,6,2,B|177:137|177:137|160:174,1,90,4|2,0:0|0:0,0:0:0:0:
181,298,33419,1,8,3:0:0:0:
285,281,33599,1,0,0:0:0:0:
320,284,33689,1,0,0:0:0:0:
352,296,33778,2,0,P|372:307|390:321,1,45
387,233,33958,2,0,L|378:130,1,90,4|8,3:0|3:0,0:0:0:0:
291,78,34317,1,0,0:0:0:0:
291,78,34407,1,0,0:0:0:0:
291,77,34497,6,0,P|331:59|376:60,1,90,4|2,3:0|3:0,0:0:0:0:
271,176,34856,2,0,P|230:160|202:126,1,90,4|0,3:0|0:0,0:0:0:0:
117,59,35215,2,0,B|85:86|79:141|103:177|103:177|95:201|63:205|41:190,2,180,8|2|4,3:0|0:0|3:0,0:0:0:0:
218,95,36114,5,0,0:0:0:0:
189,214,36293,1,8,3:0:0:0:
243,325,36473,1,0,0:0:0:0:
243,325,36563,1,0,0:0:0:0:
243,325,36653,2,0,L|298:333,2,45,0|0|4,0:0|0:0|3:0,0:0:0:0:
136,306,37012,2,0,L|45:322,1,90,8|2,3:0|3:0,0:0:0:0:
32,268,37281,1,0,0:0:0:0:
32,268,37371,6,0,L|22:202,2,45,4|0|2,3:0|0:0|3:0,0:0:0:0:
116,200,37730,1,2,0:0:0:0:
116,200,37910,2,0,P|118:155|108:111,1,90,4|2,3:0|0:0,0:0:0:0:
72,41,38180,2,0,P|110:63|155:61,1,90,4|0,3:0|0:0,0:0:0:0:
233,48,38449,2,0,L|261:42,4,22.5,2|0|0|0|0,0:0|0:0|0:0|0:0|0:0,0:0:0:0:
217,155,38808,5,8,3:0:0:0:
225,190,38898,1,2,0:0:0:0:
232,225,38988,2,0,L|244:281,2,45,2|0|2,0:0|0:0|3:0,0:0:0:0:
190,338,39347,6,0,P|172:325|159:305,2,45,2|2|2,0:0|0:0|0:0,0:0:0:0:
222,353,39617,1,0,0:0:0:0:
257,355,39706,1,8,3:0:0:0:
364,306,39886,6,0,L|388:262,1,45,2|2,3:0|0:0,0:0:0:0:
323,195,40066,2,2,L|347:151,1,45,2|0,0:0|0:0,0:0:0:0:
280,71,40245,6,0,P|319:51|363:54,1,90,4|2,3:0|3:0,0:0:0:0:
435,135,40605,2,0,L|451:236,1,90,8|0,3:0|0:0,0:0:0:0:
246,248,40964,2,0,P|202:172|117:150,2,180,2|4|2,0:0|3:0|0:0,0:0:0:0:
163,318,41862,5,0,0:0:0:0:
263,355,42042,1,2,3:0:0:0:
151,229,42221,1,0,0:0:0:0:
116,238,42311,1,0,0:0:0:0:
87,259,42401,2,0,P|75:279|73:305,2,45,0|0|4,0:0|0:0|3:0,0:0:0:0:
87,169,42760,2,0,P|81:132|45:80,1,90,2|0,3:0|0:0,0:0:0:0:
232,64,43120,6,0,L|321:74,2,90,4|8|2,3:0|3:0|3:0,0:0:0:0:
199,175,43659,1,4,3:0:0:0:
303,203,43838,6,0,L|418:235,1,90,4|0,3:0|0:0,0:0:0:0:
429,173,44108,2,0,L|446:266,1,90,8|0,3:0|0:0,0:0:0:0:
407,318,44377,1,4,3:0:0:0:
305,352,44557,6,2,P|217:343|158:278,1,180,4|2,0:0|3:0,3:0:0:0:
188,174,45096,2,0,L|212:134,2,45
34,190,45455,1,4,3:0:0:0:
33,190,45635,2,0,P|27:234|35:278,1,90,2|0,3:0|0:0,0:0:0:0:
113,142,45994,6,8,P|83:108|41:95,2,90,4|2|8,3:0|3:0|3:0,3:0:0:0:
217,168,46533,1,0,0:0:0:0:
323,147,46712,2,0,L|429:118,1,90,2|4,0:0|3:0,0:0:0:0:
386,228,47072,2,0,P|378:280|393:323,1,90,2|4,3:0|3:0,0:0:0:0:
282,291,47431,5,4,3:0:0:0:
182,332,47611,1,0,0:0:0:0:
182,332,47700,1,0,0:0:0:0:
182,332,47790,1,8,3:0:0:0:
82,291,47970,2,0,L|36:304,2,45
154,209,48329,1,4,3:0:0:0:
60,155,48509,2,0,L|44:20,1,135,2|0,3:0|0:0,0:0:0:0:
97,31,48868,6,0,P|162:51|202:45,1,90,4|0,3:0|0:0,0:0:0:0:
268,57,49138,2,0,L|292:145,1,90,8|0,3:0|0:0,0:0:0:0:
220,179,49407,1,4,3:0:0:0:
432,250,49587,6,0,P|444:208|438:163,1,90,4|0,3:0|0:0,0:0:0:0:
352,202,49856,2,0,L|267:243,1,90,4|0,3:0|0:0,0:0:0:0:
295,330,50126,1,2,3:0:0:0:
174,251,50305,5,4,0:0:0:0:
138,244,50395,1,2,0:0:0:0:
104,253,50485,1,2,0:0:0:0:
75,274,50575,1,0,0:0:0:0:
57,305,50665,2,0,P|53:264|32:218,1,90,2|0,3:0|0:0,0:0:0:0:
90,164,50934,2,0,L|83:119,2,45,0|2|2,0:0|0:0|0:0,0:0:0:0:
170,168,51203,2,4,L|269:162,1,90,4|2,3:0|3:0,3:0:0:0:
369,210,51563,1,0,0:0:0:0:
382,176,51653,1,0,0:0:0:0:
381,139,51742,6,0,P|378:116|372:95,3,45,4|0|2|2,0:0|0:0|0:0|0:0,0:0:0:0:
285,32,52102,2,0,P|267:73|267:87,3,45,2|0|2|2,3:0|0:0|0:0|0:0,0:0:0:0:
271,108,52461,1,0,0:0:0:0:
265,143,52551,1,0,0:0:0:0:
250,175,52641,1,6,3:0:0:0:
225,201,52730,1,2,0:0:0:0:
193,216,52820,2,0,P|185:238|180:266,1,45,8|2,3:0|0:0,0:0:0:0:
275,350,53000,2,0,P|281:328|284:306,1,45,4|2,3:0|0:0,0:0:0:0:
176,327,53180,6,0,P|154:335|132:338,3,45,4|2|2|2,0:0|0:0|0:0|0:0,0:0:0:0:
99,324,53539,1,2,3:0:0:0:
78,294,53629,1,0,0:0:0:0:
74,258,53718,2,0,P|81:225|80:199,3,45,2|2|2|2,0:0|0:0|0:0|0:0,0:0:0:0:
116,148,54078,2,0,L|140:96,1,45,4|0,3:0|0:0,0:0:0:0:
64,76,54257,2,0,P|60:50|48:27,3,45,2|2|2|2,3:0|0:0|0:0|0:0,0:0:0:0:
172,83,54617,6,0,P|216:91|261:90,1,90,4|0,3:0|0:0,0:0:0:0:
309,221,54886,2,0,P|265:220|222:235,1,90,4|0,3:0|0:0,0:0:0:0:
170,347,55156,1,4,3:0:0:0:
397,313,55335,6,0,P|411:271|413:226,1,90,8|0,3:0|0:0,0:0:0:0:
261,74,55605,2,0,P|246:116|240:161,1,90,8|0,3:0|0:0,0:0:0:0:
243,332,55874,1,2,0:0:0:0:
242,331,56054,6,0,P|217:295|179:271,2,90,4|0|2,0:0|0:0|3:0,0:0:0:0:
320,256,56593,1,0,0:0:0:0:
331,221,56683,1,0,0:0:0:0:
331,184,56772,2,0,P|329:156|324:133,2,45,0|0|4,0:0|0:0|3:0,0:0:0:0:
223,201,57132,1,2,3:0:0:0:
115,177,57311,1,0,0:0:0:0:
109,141,57401,1,0,0:0:0:0:
109,105,57491,6,0,P|115:60|133:19,1,90,4|2,3:0|3:0,0:0:0:0:
237,81,57850,2,0,P|279:96|323:99,1,90,2|0,0:0|0:0,0:0:0:0:
446,37,58209,1,2,0:0:0:0:
412,27,58299,1,0,0:0:0:0:
376,23,58389,1,4,3:0:0:0:
257,169,58569,1,2,0:0:0:0:
382,307,58748,1,4,3:0:0:0:
382,307,58928,6,0,P|394:263|393:218,2,90,4|0|2,0:0|0:0|3:0,0:0:0:0:
257,325,59467,1,2,0:0:0:0:
221,327,59557,1,0,0:0:0:0:
184,326,59647,2,0,L|136:318,2,45,0|0|8,0:0|0:0|3:0,0:0:0:0:
226,227,60006,2,0,L|263:194,2,45,2|0|0,3:0|0:0|0:0,0:0:0:0:
116,140,60365,5,4,3:0:0:0:
60,274,60545,1,2,3:0:0:0:
60,274,60635,1,0,0:0:0:0:
60,274,60724,2,0,L|51:370,1,90,0|4,0:0|3:0,0:0:0:0:
156,256,61084,1,2,0:0:0:0:
156,256,61174,2,0,L|163:183,2,45,4|0|0,3:0|0:0|0:0,0:0:0:0:
65,179,61443,2,0,P|85:139|123:116,1,90,8|0,3:0|0:0,0:0:0:0:
247,144,61802,5,4,3:0:0:0:
282,138,61892,1,2,0:0:0:0:
314,123,61982,1,2,0:0:0:0:
341,99,62072,1,0,0:0:0:0:
360,69,62162,1,2,3:0:0:0:
233,27,62341,6,0,L|183:16,2,45,2|2|2,0:0|0:0|0:0,0:0:0:0:
268,31,62611,1,0,0:0:0:0:
303,28,62700,1,8,3:0:0:0:
432,69,62880,5,2,3:0:0:0:
435,104,62970,1,2,0:0:0:0:
439,140,63060,1,2,0:0:0:0:
442,176,63150,1,0,0:0:0:0:
446,212,63239,6,0,L|453:301,1,90,4|2,3:0|3:0,0:0:0:0:
350,337,63599,2,0,L|237:362,1,90,2|0,0:0|0:0,0:0:0:0:
173,294,63958,2,0,L|260:271,1,90,2|4,0:0|3:0,0:0:0:0:
326,186,64317,2,0,P|302:129|361:19,1,180,2|4,0:0|3:0,0:0:0:0:
436,91,64856,5,0,0:0:0:0:
407,194,65036,1,2,3:0:0:0:
473,279,65215,1,0,0:0:0:0:
473,279,65305,1,0,0:0:0:0:
473,279,65395,2,0,L|501:329,1,45
450,352,65575,2,0,B|407:340|407:340|362:295,1,90,8|2,3:0|3:0,0:0:0:0:
305,209,65934,1,0,0:0:0:0:
305,209,66024,1,0,0:0:0:0:
305,209,66114,6,0,L|237:307,2,90,4|2|2,3:0|3:0|3:0,0:0:0:0:
235,125,66653,1,4,3:0:0:0:
127,125,66832,6,0,P|118:78|133:27,1,90,4|0,3:0|0:0,0:0:0:0:
205,36,67102,2,0,P|249:34|293:23,1,90,4|0,3:0|0:0,0:0:0:0:
293,23,67371,1,4,3:0:0:0:
407,121,67551,6,0,P|425:161|428:206,1,90,4|0,0:0|0:0,0:0:0:0:
369,298,67910,1,2,3:0:0:0:
261,308,68090,1,0,0:0:0:0:
261,308,68180,1,0,0:0:0:0:
261,308,68269,2,0,L|211:257,2,45,2|0|4,0:0|0:0|3:0,0:0:0:0:
416,356,68629,1,2,3:0:0:0:
378,225,68808,1,0,0:0:0:0:
303,110,68988,6,0,P|265:75|222:65,2,90,4|0|2,3:0|0:0|3:0,0:0:0:0:
241,200,69527,1,0,0:0:0:0:
205,204,69617,1,0,0:0:0:0:
169,209,69706,1,2,0:0:0:0:
134,214,69796,1,0,0:0:0:0:
98,222,69886,2,0,L|58:315,1,90,8|0,3:0|0:0,0:0:0:0:
171,366,70245,1,4,3:0:0:0:
171,366,70425,6,0,L|241:200,1,180,4|2,0:0|3:0,0:0:0:0:
354,162,70964,2,0,L|395:141,1,45
325,53,71144,2,0,L|283:73,1,45,2|0,0:0|0:0,0:0:0:0:
175,102,71323,2,0,P|132:93|101:62,1,90,4|2,3:0|3:0,0:0:0:0:
239,22,71683,1,0,0:0:0:0:
357,112,71862,6,0,P|384:147|398:189,1,90,4|8,3:0|3:0,0:0:0:0:
323,312,72221,1,2,3:0:0:0:
183,322,72401,2,0,L|129:244,1,90,4|2,3:0|0:0,0:0:0:0:
162,179,72671,2,0,P|207:199|252:197,1,90,4|0,3:0|0:0,0:0:0:0:
321,181,72940,2,0,L|333:201,4,22.5,8|0|0|0|0,3:0|0:0|0:0|0:0|0:0,0:0:0:0:
276,52,73299,5,4,3:0:0:0:
311,44,73389,1,2,0:0:0:0:
346,44,73479,2,0,P|371:43|399:45,2,45,2|0|2,0:0|0:0|3:0,0:0:0:0:
413,170,73838,6,0,P|396:142|390:119,2,45,2|2|4,0:0|0:0|3:0,0:0:0:0:
428,202,74108,1,0,0:0:0:0:
429,238,74197,1,0,0:0:0:0:
349,352,74377,6,0,L|333:299,1,45,2|2,3:0|0:0,0:0:0:0:
217,193,74557,2,0,L|230:236,1,45,8|0,3:0|0:0,0:0:0:0:
140,330,74736,6,0,L|52:352,1,90,4|0,3:0|0:0,0:0:0:0:
74,187,75096,2,0,L|56:142,2,45,4|0|0,3:0|0:0|0:0,0:0:0:0:
202,81,75455,1,4,0:0:0:0:
344,161,75635,1,0,0:0:0:0:
341,196,75724,1,0,0:0:0:0:
331,230,75814,1,4,3:0:0:0:
234,106,75994,1,8,3:0:0:0:
372,23,76174,6,0,P|417:38|449:65,1,90,4|0,3:0|0:0,0:0:0:0:
449,65,76443,1,0,0:0:0:0:
449,65,76533,1,2,3:0:0:0:
348,218,76712,2,0,L|241:205,1,90,4|0,3:0|0:0,0:0:0:0:
65,307,77072,1,2,3:0:0:0:
65,307,77251,2,0,L|154:317,1,90,8|0,3:0|0:0,0:0:0:0:
217,191,77611,6,0,L|208:138,1,45,2|0,3:0|0:0,0:0:0:0:
130,132,77790,2,0,L|144:222,1,90,4|2,3:0|3:0,0:0:0:0:
230,312,78150,1,4,3:0:0:0:
354,292,78329,2,0,P|396:256|404:174,1,135,8|0,3:0|0:0,0:0:0:0:
391,127,78689,2,0,L|384:68,1,45,4|0,3:0|0:0,0:0:0:0:
274,106,78868,2,0,L|264:61,1,45,4|0,3:0|0:0,0:0:0:0:
165,143,79048,5,2,3:0:0:0:
88,42,79227,1,0,0:0:0:0:
88,42,79317,1,0,0:0:0:0:
88,42,79407,1,0,0:0:0:0:
208,76,79587,2,0,P|274:84|319:66,1,90,2|0,3:0|0:0,0:0:0:0:
348,88,79856,2,0,L|370:152,1,45
378,278,80126,1,2,3:0:0:0:
334,264,80215,1,0,0:0:0:0:
289,271,80305,1,0,0:0:0:0:
253,298,80395,1,0,0:0:0:0:
211,313,80485,5,0,0:0:0:0:
166,307,80575,1,0,0:0:0:0:
130,278,80665,2,0,L|109:182,1,90,2|0,3:0|0:0,0:0:0:0:
129,139,80934,2,0,L|154:95,2,45,0|2|0,0:0|3:0|0:0,0:0:0:0:
215,169,81203,2,0,P|245:178|276:176,1,45
304,103,81383,2,0,P|326:95|346:85,1,45
253,27,81563,2,0,L|219:21,6,22.5
253,27,81922,5,4,0:0:0:0:
201,122,82102,1,0,0:0:0:0:
112,184,82281,2,0,L|139:269,1,90,4|2,3:0|0:0,0:0:0:0:
228,331,82641,1,2,3:0:0:0:
335,321,82820,1,0,0:0:0:0:
335,321,82910,1,0,0:0:0:0:
335,321,83000,1,0,0:0:0:0:
373,219,83180,1,2,3:0:0:0:
152,76,83359,5,0,0:0:0:0:
211,165,83539,1,0,0:0:0:0:
307,69,83718,1,4,3:0:0:0:
441,75,83898,1,4,3:0:0:0:
308,94,84078,1,2,3:0:0:0:
453,199,84257,2,0,P|473:218|495:248,2,45
323,190,84617,1,4,3:0:0:0:
295,212,84706,1,0,0:0:0:0:
261,226,84796,5,8,3:0:0:0:
145,267,84976,2,0,P|114:298|98:340,1,90,2|4,0:0|3:0,0:0:0:0:
206,354,85335,2,0,P|259:357|313:342,1,90,2|2,0:0|0:0,0:0:0:0:
417,208,85694,1,2,0:0:0:0:
328,270,85874,1,2,0:0:0:0:
397,351,86054,1,2,0:0:0:0:
328,270,86233,6,0,P|300:236|291:189,1,90,2|2,0:0|0:0,0:0:0:0:
209,62,86593,1,4,3:0:0:0:
107,24,86772,1,4,3:0:0:0:
50,116,86952,2,0,L|33:210,2,90,4|8|0,3:0|3:0|0:0,0:0:0:0:
148,160,87491,1,8,3:0:0:0:
254,149,87671,6,0,P|318:128|384:138,1,135,4|0,0:0|0:0,0:0:0:0:
418,180,88030,2,0,L|429:269,1,90,4|0,3:0|0:0,0:0:0:0:
355,349,88389,1,2,3:0:0:0:
297,257,88569,1,0,0:0:0:0:
297,257,88659,1,0,0:0:0:0:
297,257,88748,1,0,0:0:0:0:
148,160,88928,1,2,3:0:0:0:
138,324,89108,5,0,0:0:0:0:
138,324,89287,2,0,L|75:320,2,45,0|0|4,0:0|0:0|3:0,0:0:0:0:
225,260,89647,1,8,3:0:0:0:
264,149,89826,2,0,L|237:60,1,90,2|0,3:0|0:0,0:0:0:0:
237,62,90096,1,0,0:0:0:0:
237,62,90186,1,0,0:0:0:0:
340,15,90365,1,8,3:0:0:0:
452,31,90545,6,0,P|445:94|416:123,1,90,4|2,3:0|0:0,0:0:0:0:
343,180,90904,2,0,L|318:283,2,90,4|2|2,3:0|0:0|3:0,0:0:0:0:
447,206,91443,1,2,0:0:0:0:
453,241,91533,1,2,0:0:0:0:
459,276,91623,1,2,0:0:0:0:
315,351,91802,1,0,0:0:0:0:
170,278,91982,5,2,0:0:0:0:
127,120,92162,2,0,B|239:56|271:184|385:120,1,270,4|2,0:0|0:0,0:0:0:0:
456,32,92880,1,4,3:0:0:0:
456,32,93239,2,0,L|464:136,1,90,8|4,3:0|3:0,0:0:0:0:
380,278,93599,5,2,0:0:0:0:
380,278,93778,2,0,L|373:188,1,90,4|2,3:0|0:0,0:0:0:0:
324,91,94138,2,0,L|261:78,1,45,8|0,3:0|0:0,0:0:0:0:
179,156,94317,2,0,L|223:165,1,45,2|0,3:0|0:0,0:0:0:0:
283,239,94497,2,0,L|265:348,1,90,4|2,3:0|0:0,0:0:0:0:
158,329,94856,6,0,P|116:315|85:283,1,90,4|2,3:0|0:0,0:0:0:0:
112,151,95215,2,0,P|154:165|185:197,1,90,4|2,3:0|0:0,0:0:0:0:
293,291,95575,1,8,3:0:0:0:
313,261,95665,1,0,0:0:0:0:
325,227,95754,1,2,3:0:0:0:
328,191,95844,1,0,0:0:0:0:
323,156,95934,1,4,3:0:0:0:
218,99,96114,1,2,0:0:0:0:
218,99,96293,6,0,L|129:129,1,90,4|2,3:0|0:0,0:0:0:0:
55,305,96653,1,2,0:0:0:0:
72,198,96832,1,2,0:0:0:0:
261,201,97012,1,2,0:0:0:0:
175,266,97191,1,2,0:0:0:0:
158,159,97371,2,0,L|168:69,1,90,4|0,3:0|0:0,0:0:0:0:
338,153,97730,6,0,L|327:242,1,90,4|2,3:0|0:0,0:0:0:0:
260,327,98090,1,0,0:0:0:0:
367,343,98269,1,0,0:0:0:0:
245,185,98449,1,2,0:0:0:0:
95,199,98629,1,2,0:0:0:0:
159,84,98808,1,4,3:0:0:0:
238,203,98988,1,2,3:0:0:0:
86,182,99168,6,0,L|62:95,1,90,4|0,0:0|0:0,0:0:0:0:
193,156,99527,2,2,L|205:199,2,45,4|2|2,3:0|0:0|0:0,0:0:0:0:
330,202,99886,2,2,L|318:158,2,45,4|2|2,3:0|0:0|0:0,0:0:0:0:
395,330,100245,1,4,3:0:0:0:
482,215,100425,1,0,0:0:0:0:
395,100,100605,6,0,P|351:108|315:134,1,90,8|0,3:0|0:0,0:0:0:0:
236,244,100964,1,4,3:0:0:0:
236,244,101054,1,2,0:0:0:0:
236,244,101144,1,2,0:0:0:0:
91,235,101323,1,8,3:0:0:0:
233,127,101503,1,0,0:0:0:0:
232,343,101683,1,4,3:0:0:0:
232,343,101772,1,2,0:0:0:0:
232,343,101862,1,2,0:0:0:0:
378,235,102042,5,4,0:0:0:0:
233,127,102221,2,0,B|216:85|216:85|233:27,2,90,2|4|2,0:0|3:0|0:0,0:0:0:0:
258,232,102760,2,0,P|198:284|111:233,1,180,4|8,0:0|3:0,0:0:0:0:
166,149,103299,1,0,0:0:0:0:
107,350,103479,5,4,0:0:0:0:
300,306,103659,2,0,P|355:314|396:343,2,90,8|8|4,3:0|3:0|3:0,0:0:0:0:
319,199,104197,2,0,L|346:67,2,135,4|4|4,3:0|3:0|3:0,3:0:0:0:
159,269,104916,5,4,0:0:0:0:
159,269,105455,1,2,3:0:0:0:
379,83,106353,5,4,0:0:0:0:
379,83,106892,1,2,3:0:0:0:
47,99,107790,5,4,0:0:0:0:
47,99,108329,1,2,3:0:0:0:
440,283,109227,5,4,0:0:0:0:
228,161,109766,1,2,3:0:0:0:
228,161,110126,5,8,3:0:0:0:
228,161,110305,2,0,L|231:130,6,22.5
243,212,110665,6,0,L|237:301,1,90,4|2,3:0|0:0,0:0:0:0:
446,246,111203,1,4,0:0:0:0:
322,69,111563,1,0,0:0:0:0:
215,51,111742,2,0,L|209:5,2,45,2|0|0,0:0|0:0|0:0,0:0:0:0:
108,121,112102,6,0,L|73:28,1,90,4|2,3:0|0:0,0:0:0:0:
29,284,112641,1,4,0:0:0:0:
224,191,113000,1,0,0:0:0:0:
280,283,113180,2,0,L|285:329,2,45,2|0|0,0:0|0:0|0:0,0:0:0:0:
382,105,113539,5,4,3:0:0:0:
362,211,113718,1,2,0:0:0:0:
177,115,114078,2,0,P|136:191|178:266,2,180,4|8|4,0:0|3:0|3:0,0:0:0:0:
219,290,115694,6,0,P|270:291|314:267,2,101.250003862381,0|0|2,0:0|0:0|0:0,0:0:0:0:
169,226,116413,2,0,B|141:168|80:157|80:157|58:117|79:74,1,202.500007724762,2|0,0:0|0:0,0:0:0:0:
294,73,118209,5,0,0:0:0:0:
296,105,118569,1,0,0:0:0:0:
298,135,118928,1,2,0:0:0:0:
288,272,119287,6,0,P|257:285|223:288,2,67.5000025749208,2|0|0,0:0|0:0|0:0,0:0:0:0:
356,229,119826,2,0,P|421:213|485:231,1,135.000005149842,2|0,0:0|0:0,0:0:0:0:
187,318,121084,5,2,0:0:0:0:
159,287,121443,1,0,0:0:0:0:
132,256,121802,1,2,0:0:0:0:
40,162,122162,5,2,0:0:0:0:
68,116,122341,1,0,0:0:0:0:
115,89,122521,1,0,0:0:0:0:
155,52,122700,1,2,0:0:0:0:
332,244,123599,5,0,0:0:0:0:
332,244,123778,1,0,0:0:0:0:
332,244,123958,2,0,P|305:296|327:365,2,135.000005149842,2|2|0,0:0|0:0|0:0,0:0:0:0:
429,151,125036,6,0,P|435:116|428:78,1,67.5000025749208,2|0,0:0|0:0,0:0:0:0:
399,40,125395,1,0,0:0:0:0:
347,22,125575,1,0,0:0:0:0:
135,234,127191,5,2,0:0:0:0:
133,240,127461,1,2,0:0:0:0:
131,246,127730,1,2,0:0:0:0:
178,322,127910,6,0,L|289:309,1,90,4|0,0:0|0:0,0:0:0:0:
339,210,128269,2,0,L|235:223,1,90,8|0,3:0|0:0,0:0:0:0:
168,157,128629,1,2,3:0:0:0:
111,64,128808,2,0,L|105:16,2,45
217,47,129168,1,0,0:0:0:0:
317,86,129347,5,0,3:0:0:0:
423,102,129527,1,0,0:0:0:0:
431,66,129617,1,0,0:0:0:0:
432,26,129706,2,0,B|421:15|391:18|378:40|378:40|397:71|399:102|385:133|357:151,1,180,4|2,3:0|3:0,0:0:0:0:
255,134,130245,2,0,P|224:168|259:246,1,135,8|0,3:0|0:0,0:0:0:0:
326,241,130605,1,4,3:0:0:0:
326,241,130784,6,0,L|307:349,1,90,8|0,3:0|0:0,0:0:0:0:
211,285,131144,2,0,L|193:378,1,90,8|0,3:0|0:0,0:0:0:0:
86,351,131503,2,0,P|94:262|50:185,1,180,4|2,0:0|0:0,0:0:0:0:
78,80,132042,1,0,0:0:0:0:
113,76,132132,1,0,0:0:0:0:
148,73,132221,6,0,L|250:67,1,90,2|0,0:0|0:0,0:0:0:0:
315,42,132491,2,0,P|283:89|297:174,1,135,2|2,0:0|0:0,0:0:0:0:
402,315,132940,6,0,P|399:271|375:234,1,90,4|0,0:0|0:0,0:0:0:0:
290,252,133209,2,0,P|239:222|147:259,1,135,2|2,0:0|0:0,0:0:0:0:
62,327,133659,6,0,L|66:237,1,90,4|0,0:0|0:0,0:0:0:0:
222,262,134018,2,0,L|226:172,1,90,4|0,3:0|0:0,0:0:0:0:
105,138,134377,2,0,L|109:48,1,90,4|0,3:0|0:0,0:0:0:0:
257,33,134736,2,0,P|300:42|333:71,1,90,8|0,3:0|0:0,0:0:0:0:
416,195,135096,6,0,L|424:94,1,90,4|0,0:0|0:0,0:0:0:0:
423,105,135365,1,0,0:0:0:0:
423,105,135455,1,8,3:0:0:0:
326,154,135635,1,0,0:0:0:0:
223,120,135814,2,0,L|167:114,2,45,8|0|0,3:0|0:0|0:0,0:0:0:0:
195,224,136174,1,4,3:0:0:0:
210,331,136353,1,2,3:0:0:0:
305,281,136533,6,0,L|394:285,1,90,2|0,3:0|0:0,0:0:0:0:
394,285,136802,1,0,0:0:0:0:
394,285,136892,1,0,0:0:0:0:
448,158,137072,1,2,3:0:0:0:
422,132,137162,1,0,0:0:0:0:
386,127,137251,1,0,0:0:0:0:
352,139,137341,1,0,0:0:0:0:
325,162,137431,1,0,0:0:0:0:
293,180,137521,1,0,0:0:0:0:
256,180,137611,2,0,P|234:172|218:157,1,45,2|0,3:0|0:0,0:0:0:0:
280,83,137790,2,0,P|270:59|271:27,1,45
402,79,137970,6,0,L|412:30,1,45,4|0,3:0|0:0,0:0:0:0:
467,171,138150,2,0,L|458:215,1,45,2|0,3:0|0:0,0:0:0:0:
380,66,138329,2,0,L|390:17,1,45,8|0,3:0|0:0,0:0:0:0:
489,188,138509,2,0,L|480:232,1,45,4|0,3:0|0:0,0:0:0:0:
373,239,138689,6,0,P|323:244|287:272,1,90,2|0,0:0|0:0,0:0:0:0:
179,324,138958,2,0,P|188:297|190:270,1,53.9999983520508,2|0,0:0|0:0,0:0:0:0:
97,112,139227,1,2,0:0:0:0:
97,112,139407,6,0,P|139:126|183:123,1,90,4|0,0:0|0:0,0:0:0:0:
301,76,139766,1,2,3:0:0:0:
399,153,139946,1,2,0:0:0:0:
420,181,140036,1,0,0:0:0:0:
434,214,140126,1,0,0:0:0:0:
440,250,140215,1,0,0:0:0:0:
437,286,140305,2,0,P|420:337|391:370,1,90,4|2,3:0|3:0,0:0:0:0:
304,279,140665,1,0,0:0:0:0:
292,244,140754,1,0,0:0:0:0:
279,210,140844,6,0,L|272:149,2,45,4|0|2,3:0|0:0|3:0,0:0:0:0:
188,296,141203,2,0,P|156:328|113:340,1,90,2|0,0:0|0:0,0:0:0:0:
87,194,141563,1,0,0:0:0:0:
87,194,141742,2,0,P|118:162|161:150,1,90,4|2,3:0|0:0,0:0:0:0:
288,148,142102,1,4,3:0:0:0:
324,149,142191,1,0,0:0:0:0:
358,157,142281,5,8,3:0:0:0:
392,165,142371,1,0,0:0:0:0:
425,178,142461,2,0,L|452:131,2,45,0|0|2,0:0|0:0|3:0,0:0:0:0:
328,260,142820,1,2,0:0:0:0:
323,295,142910,1,0,0:0:0:0:
325,331,143000,1,0,0:0:0:0:
199,247,143180,2,0,P|185:231|173:211,2,45,4|0|2,3:0|0:0|3:0,0:0:0:0:
323,156,143539,1,0,0:0:0:0:
323,156,143629,1,0,0:0:0:0:
323,156,143718,6,0,P|333:112|363:80,1,90,4|2,3:0|3:0,0:0:0:0:
438,169,144078,5,2,0:0:0:0:
256,84,144257,1,4,3:0:0:0:
256,84,144347,1,0,0:0:0:0:
256,84,144437,2,0,L|202:87,1,45,2|8,0:0|3:0,0:0:0:0:
137,134,144617,2,0,P|184:146|211:207,1,90
220,212,144886,1,0,0:0:0:0:
246,236,144976,1,0,0:0:0:0:
280,245,145066,1,0,0:0:0:0:
315,240,145156,5,4,3:0:0:0:
326,260,145245,1,2,2:0:0:0:
337,279,145335,2,0,L|361:323,2,45,2|2|2,0:0|0:0|3:0,0:0:0:0:
428,212,145694,5,2,0:0:0:0:
418,177,145784,1,2,0:0:0:0:
397,148,145874,1,2,0:0:0:0:
368,127,145964,1,0,0:0:0:0:
334,117,146054,1,4,3:0:0:0:
158,33,146233,5,2,3:0:0:0:
150,78,146323,1,2,0:0:0:0:
142,122,146413,1,2,0:0:0:0:
134,166,146503,1,0,0:0:0:0:
126,210,146593,5,4,3:0:0:0:
225,288,146772,1,2,3:0:0:0:
47,350,146952,1,0,0:0:0:0:
72,98,147311,1,2,0:0:0:0:
185,312,147581,1,2,0:0:0:0:
305,100,147850,1,2,0:0:0:0:
157,201,148030,5,4,0:0:0:0:
348,254,148269,1,2,0:0:0:0:
121,169,148509,1,0,0:0:0:0:
404,101,148748,1,4,0:0:0:0:
253,330,148988,1,0,0:0:0:0:
131,82,149227,1,2,0:0:0:0:
318,186,149467,6,0,P|360:198|389:195,2,60,4|2|4,3:0|0:0|3:0,0:0:0:0:
268,90,149826,2,0,P|231:84|191:91,2,60,2|4|2,0:0|3:0|0:0,0:0:0:0:
318,186,150186,1,4,3:0:0:0:
316,240,150305,1,4,3:0:0:0:
285,283,150425,1,4,3:0:0:0:
235,300,150545,1,4,3:0:0:0:
183,287,150665,1,4,3:0:0:0:
148,247,150784,1,4,3:0:0:0:
141,195,150904,5,4,0:0:0:0:
185,76,151084,1,0,0:0:0:0:
65,36,151263,1,2,3:0:0:0:
67,161,151443,1,0,0:0:0:0:
58,196,151533,1,0,0:0:0:0:
49,231,151623,1,2,0:0:0:0:
285,283,151802,2,4,L|194:288,1,90,4|2,3:0|3:0,3:0:0:0:
161,166,152162,1,0,0:0:0:0:
178,134,152251,1,0,0:0:0:0:
205,111,152341,2,0,P|226:102|248:97,1,45,4|0,3:0|0:0,0:0:0:0:
328,139,152521,1,0,0:0:0:0:
328,139,152611,1,0,0:0:0:0:
328,139,152700,6,0,L|343:42,1,90,2|0,3:0|0:0,0:0:0:0:
464,105,153060,1,2,0:0:0:0:
484,134,153150,1,0,0:0:0:0:
492,169,153239,1,4,3:0:0:0:
485,204,153329,1,0,0:0:0:0:
464,232,153419,1,0,0:0:0:0:
433,251,153509,1,0,0:0:0:0:
413,280,153599,1,8,3:0:0:0:
406,315,153689,1,0,0:0:0:0:
416,350,153778,6,0,P|379:325|335:316,1,90,4|0,0:0|0:0,0:0:0:0:
211,342,154138,1,2,3:0:0:0:
257,224,154317,1,0,0:0:0:0:
257,224,154407,1,0,0:0:0:0:
257,224,154497,2,0,L|277:162,1,45,2|0,0:0|0:0,0:0:0:0:
180,91,154677,2,0,L|163:135,1,45,4|0,3:0|0:0,0:0:0:0:
291,80,154856,2,0,L|408:117,1,90,2|0,3:0|0:0,0:0:0:0:
377,236,155215,5,4,3:0:0:0:
466,333,155395,1,0,0:0:0:0:
485,303,155485,1,0,0:0:0:0:
496,268,155575,1,2,3:0:0:0:
418,150,155754,1,8,3:0:0:0:
418,150,155844,1,0,0:0:0:0:
325,336,156024,1,4,3:0:0:0:
325,336,156114,1,0,0:0:0:0:
191,163,156293,1,4,3:0:0:0:
191,163,156383,1,0,0:0:0:0:
191,163,156473,1,0,0:0:0:0:
191,163,156563,1,0,0:0:0:0:
191,163,156653,5,6,0:0:0:0:
193,198,156742,1,2,0:0:0:0:
187,234,156832,1,2,0:0:0:0:
172,267,156922,1,2,0:0:0:0:
150,295,157012,2,0,P|137:313|128:334,3,45,2|0|2|2,3:0|0:0|0:0|0:0,0:0:0:0:
98,217,157371,2,0,P|87:197|71:181,3,45,4|2|0|0,3:0|0:0|0:0|0:0,0:0:0:0:
122,91,157730,2,0,P|154:68|168:45,3,45,2|2|2|2,3:0|0:0|0:0|0:0,0:0:0:0:
189,47,158090,5,4,3:0:0:0:
221,33,158180,1,0,0:0:0:0:
257,36,158269,1,2,0:0:0:0:
287,55,158359,1,2,0:0:0:0:
304,86,158449,1,8,3:0:0:0:
316,120,158539,1,0,0:0:0:0:
341,145,158629,1,0,0:0:0:0:
375,157,158718,1,0,0:0:0:0:
411,155,158808,2,0,P|430:144|446:128,2,45,4|0|0,3:0|0:0|0:0,0:0:0:0:
351,236,159168,2,0,L|341:285,1,45,4|0,3:0|0:0,0:0:0:0:
271,246,159347,2,0,L|261:295,1,45,4|0,3:0|0:0,0:0:0:0:
190,261,159527,6,0,L|171:364,1,90,2|0,3:0|0:0,0:0:0:0:
62,293,159886,1,0,0:0:0:0:
84,168,160066,2,0,P|118:141|163:137,1,90,2|2,3:0|0:0,0:0:0:0:
287,158,160425,1,0,0:0:0:0:
411,134,160605,2,0,L|428:34,2,90,2|0|2,3:0|0:0|0:0,0:0:0:0:
379,254,161144,5,2,3:0:0:0:
379,254,161233,1,0,0:0:0:0:
378,254,161323,2,0,P|393:304|420:340,1,90,0|2,0:0|0:0,0:0:0:0:
272,314,161683,2,0,P|238:320|220:329,1,45,2|0,3:0|0:0,0:0:0:0:
63,191,161952,2,0,P|72:163|75:139,1,45,2|2,3:0|0:0,0:0:0:0:
270,47,162221,2,0,P|263:69|262:91,1,45,2|0,3:0|0:0,0:0:0:0:
267,145,162401,5,4,0:0:0:0:
338,217,162581,1,4,3:0:0:0:
410,145,162760,1,4,3:0:0:0:
338,73,162940,1,8,3:0:0:0:
421,232,163120,1,4,3:0:0:0:
240,235,163299,1,4,3:0:0:0:
246,55,163479,2,0,L|234:31,4,22.5,4|0|0|0|2,0:0|0:0|0:0|0:0|3:0,0:0:0:0:
134,146,163838,6,0,L|90:154,1,45,4|0,3:0|0:0,0:0:0:0:
220,228,164018,2,0,L|265:221,1,45,8|0,3:0|0:0,0:0:0:0:
116,137,164197,2,0,L|72:145,1,45,4|0,0:0|0:0,0:0:0:0:
237,237,164377,2,0,L|282:230,1,45,4|0,3:0|0:0,0:0:0:0:
124,241,164557,6,0,L|119:295,1,45,4|0,0:0|0:0,0:0:0:0:
234,136,164736,2,0,L|238:91,1,45,4|0,3:0|0:0,0:0:0:0:
110,258,164916,2,0,L|105:312,1,45,4|0,0:0|0:0,0:0:0:0:
249,122,165096,2,0,L|253:77,1,45,4|0,3:0|0:0,0:0:0:0:
339,34,165275,6,0,P|381:49|409:84,1,90,4|0,0:0|0:0,0:0:0:0:
412,210,165635,1,0,0:0:0:0:
328,304,165814,1,4,0:0:0:0:
328,304,165904,1,0,0:0:0:0:
328,304,165994,1,2,0:0:0:0:
328,128,166174,1,0,0:0:0:0:
175,206,166353,1,4,0:0:0:0:
141,38,166533,1,0,0:0:0:0:
106,48,166623,1,0,0:0:0:0:
78,71,166712,1,2,0:0:0:0:
72,197,166892,6,0,L|45:250,1,45,4|0,0:0|0:0,0:0:0:0:
124,262,167072,2,0,L|97:315,1,45,2|0,0:0|0:0,0:0:0:0:
180,321,167251,2,0,L|153:374,1,45,2|0,0:0|0:0,0:0:0:0:
262,258,167431,2,0,P|320:226|382:248,2,135,4|4|4,3:0|3:0|3:0,0:0:0:0:
262,259,168150,1,6,0:0:0:0:
256,192,168329,12,0,171024,0:0:0:0:
176,280,171383,5,2,3:0:0:0:
176,280,171563,2,0,P|144:285|128:287,2,45
292,231,171922,1,4,3:0:0:0:
415,257,172102,2,0,L|430:168,1,90,4|0,0:0|0:0,0:0:0:0:
299,34,172461,5,4,3:0:0:0:
299,34,172641,2,0,L|283:122,1,90,0|2,0:0|3:0,0:0:0:0:
192,236,173000,1,4,3:0:0:0:
176,238,173090,1,0,0:0:0:0:
55,147,173269,1,4,3:0:0:0:
48,131,173359,1,0,0:0:0:0:
167,62,173539,2,0,P|193:77|222:79,3,45,4|2|2|2,3:0|0:0|0:0|0:0,0:0:0:0:
243,85,173898,5,2,0:0:0:0:
276,98,173988,1,2,0:0:0:0:
299,126,174078,1,2,0:0:0:0:
307,161,174168,1,2,0:0:0:0:
302,196,174257,1,0,0:0:0:0:
289,230,174347,1,0,0:0:0:0:
287,266,174437,5,2,0:0:0:0:
301,299,174527,1,2,0:0:0:0:
328,322,174617,1,2,0:0:0:0:
362,331,174706,1,2,0:0:0:0:
398,329,174796,1,0,0:0:0:0:
426,307,174886,1,0,0:0:0:0:
439,274,174976,2,0,P|445:252|446:229,1,45,2|0,0:0|0:0,0:0:0:0:
461,137,175156,2,0,P|448:118|433:101,1,45,2|0,0:0|0:0,0:0:0:0:
341,44,175335,6,0,L|344:88,1,45,4|0,3:0|0:0,0:0:0:0:
255,206,175515,2,0,L|251:161,1,45,2|0,0:0|0:0,0:0:0:0:
170,41,175694,2,0,L|227:39,1,45
130,139,175874,2,0,L|85:140,1,45,2|0,0:0|0:0,0:0:0:0:
34,220,176054,1,2,0:0:0:0:
37,255,176144,1,2,0:0:0:0:
51,288,176233,1,4,3:0:0:0:
74,315,176323,1,2,0:0:0:0:
107,328,176413,1,0,0:0:0:0:
142,330,176503,1,0,0:0:0:0:
176,320,176593,2,0,L|214:284,1,45,4|0,3:0|0:0,0:0:0:0:
299,318,176772,6,0,P|341:305|386:306,2,90,8|0|2,3:0|0:0|3:0,0:0:0:0:
279,201,177311,1,2,0:0:0:0:
244,188,177401,1,0,0:0:0:0:
208,187,177491,2,0,P|181:196|160:211,2,45,0|0|4,0:0|0:0|3:0,0:0:0:0:
368,51,177850,1,2,3:0:0:0:
368,51,177940,1,0,0:0:0:0:
368,51,178030,1,0,0:0:0:0:
368,51,178120,1,0,0:0:0:0:
368,51,178209,6,0,P|400:114|390:178,1,135,4|0,3:0|0:0,0:0:0:0:
327,248,178569,2,0,P|302:212|296:168,1,90,8|4,3:0|3:0,0:0:0:0:
200,159,178838,1,0,0:0:0:0:
200,159,178928,2,0,L|159:179,1,45,0|4,0:0|3:0,0:0:0:0:
41,106,179108,2,0,L|81:85,1,45
88,190,179287,2,0,L|102:376,1,180,4|4,3:0|0:0,0:0:0:0:
101,369,179826,5,2,0:0:0:0:
219,325,180006,1,2,0:0:0:0:
343,340,180186,1,2,0:0:0:0:
378,348,180275,1,0,0:0:0:0:
414,348,180365,2,0,P|446:337|464:322,1,45
431,248,180545,2,0,L|419:145,1,90,4|2,3:0|3:0,0:0:0:0:
344,36,180904,1,0,0:0:0:0:
293,151,181084,5,4,3:0:0:0:
459,87,181263,1,2,0:0:0:0:
257,76,181443,2,0,L|234:51,4,22.5,2|0|0|0|2,0:0|0:0|0:0|0:0|0:0,0:0:0:0:
200,189,181802,2,0,L|192:254,1,45
119,269,181982,2,0,P|81:247|62:207,1,90,4|2,3:0|3:0,0:0:0:0:
132,62,182341,1,4,3:0:0:0:
132,62,182431,1,0,0:0:0:0:
132,62,182521,6,0,L|220:78,2,90,4|2|2,0:0|0:0|3:0,0:0:0:0:
163,184,183060,2,2,P|229:239|314:220,1,180,2|4,0:0|3:0,0:0:0:0:
395,124,183599,1,2,3:0:0:0:
309,31,183778,1,0,0:0:0:0:
309,31,183868,1,0,0:0:0:0:
308,31,183958,2,0,P|281:66|270:109,2,90,4|8|2,3:0|3:0|3:0,0:0:0:0:
423,84,184497,6,0,L|430:173,1,90,4|0,3:0|0:0,0:0:0:0:
361,226,184766,6,0,P|322:279|330:339,1,116.999994644165,4|0,3:0|0:0,0:0:0:0:
404,345,185036,6,0,B|360:339|360:339|306:352|306:352|257:344,1,144,8|0,3:0|0:0,0:0:0:0:
78,338,185395,6,0,P|83:316|94:296,3,45,4|2|2|2,3:0|0:0|0:0|0:0,0:0:0:0:
155,238,185754,2,0,P|149:216|138:196,3,45,4|0|2|2,3:0|0:0|0:0|0:0,0:0:0:0:
109,175,186114,1,4,3:0:0:0:
84,149,186203,1,2,0:0:0:0:
71,115,186293,1,0,0:0:0:0:
72,80,186383,1,0,0:0:0:0:
88,47,186473,1,4,3:0:0:0:
114,24,186563,1,2,0:0:0:0:
148,12,186653,1,2,0:0:0:0:
184,15,186742,1,2,0:0:0:0:
216,32,186832,6,0,L|248:68,3,45,4|0|2|2,3:0|0:0|0:0|0:0,0:0:0:0:
328,96,187191,2,0,P|340:70|355:56,3,45,4|0|2|2,3:0|0:0|0:0|0:0,0:0:0:0:
429,121,187551,2,0,L|432:168,3,45,4|0|2|2,3:0|0:0|0:0|0:0,0:0:0:0:
416,287,187910,2,0,L|396:238,1,45,4|2,3:0|0:0,0:0:0:0:
274,222,188090,2,0,L|291:263,1,45,8|2,3:0|0:0,0:0:0:0:
315,312,188269,5,2,3:0:0:0:
170,346,188449,1,2,0:0:0:0:
133,344,188539,1,0,0:0:0:0:
100,328,188629,1,2,0:0:0:0:
18,208,188808,1,2,3:0:0:0:
154,260,188988,1,2,0:0:0:0:
154,260,189078,1,0,0:0:0:0:
154,260,189168,1,2,0:0:0:0:
306,126,189347,1,2,3:0:0:0:
168,175,189527,1,2,0:0:0:0:
196,197,189617,1,0,0:0:0:0:
224,219,189706,1,2,0:0:0:0:
105,67,189886,5,2,3:0:0:0:
217,63,190066,2,0,L|266:56,1,45,4|0,3:0|0:0,0:0:0:0:
336,107,190245,2,0,L|385:100,1,45,2|2,3:0|3:0,0:0:0:0:
434,169,190425,2,0,L|451:314,2,135,4|4|4,3:0|3:0|3:0,0:0:0:0:
285,254,191144,6,0,P|173:244|154:188,1,182.250000695229,0|0,0:0|0:0,0:0:0:0:
165,106,191503,1,4,0:0:0:0:
256,192,191683,12,0,199766,0:0:0:0:
