osu file format v13

[General]
AudioFilename: Mellow.mp3
AudioLeadIn: 2500
PreviewTime: 79612
Countdown: 0
SampleSet: Soft
StackLeniency: 0.7
Mode: 0
LetterboxInBreaks: 0
WidescreenStoryboard: 0

[Editor]
DistanceSpacing: 0.5
BeatDivisor: 8
GridSize: 4
TimelineZoom: 1

[Metadata]
Title:Mellow
TitleUnicode:メロウ
Artist:wa.
ArtistUnicode:wa.
Creator:Seikatu
Version:Another
Source:
Tags:agnostic form i.i.c Realization
BeatmapID:380596
BeatmapSetID:155094

[Difficulty]
HPDrainRate:6
CircleSize:4
OverallDifficulty:7
ApproachRate:8
SliderMultiplier:1.6
SliderTickRate:2

[Events]
//Background and Video events
0,0,"bg.jpg",0,0
//Break Periods
2,105812,117662
//Storyboard Layer 0 (Background)
//Storyboard Layer 1 (Fail)
//Storyboard Layer 2 (Pass)
//Storyboard Layer 3 (Foreground)
//Storyboard Sound Samples

[TimingPoints]
3212,400,4,2,1,35,1,0
4012,-133.333333333333,4,2,1,35,0,0
28812,-100,4,2,2,50,0,0
51212,-100,4,2,2,15,0,0
51312,-100,4,2,2,35,0,0
52812,-100,4,2,2,50,0,0
54412,-166.666666666667,4,2,1,20,0,0
66612,-142.857142857143,4,2,1,20,0,0
67212,-125,4,2,1,50,0,0
67412,-125,4,2,3,50,0,0
80012,-100,4,2,3,35,0,1
80412,-100,4,2,1,50,0,1
92712,-100,4,2,1,50,0,0
92812,-100,4,2,1,50,0,1
96012,-100,4,2,1,65,0,1
96062,-100,4,2,1,50,0,1
96612,-100,4,2,1,65,0,1
96662,-100,4,2,1,50,0,1
97212,-100,4,2,1,65,0,1
97262,-100,4,2,1,50,0,1
97812,-100,4,2,1,65,0,1
97862,-100,4,2,1,50,0,1
105512,-100,4,2,1,50,0,0
105612,-100,4,2,1,50,0,1
105712,-100,4,2,1,50,0,0
118412,-125,4,2,3,50,0,0
131212,-100,4,2,1,50,0,1
131312,-100,4,2,1,50,0,0
156812,-100,4,2,3,35,0,1
157212,-100,4,2,1,50,0,1
169512,-100,4,2,1,50,0,0
169612,-100,4,2,1,50,0,1
172812,-100,4,2,1,65,0,1
172862,-100,4,2,1,50,0,1
173412,-100,4,2,1,65,0,1
173462,-100,4,2,1,50,0,1
174012,-100,4,2,1,65,0,1
174062,-100,4,2,1,50,0,1
174612,-100,4,2,1,65,0,1
174662,-100,4,2,1,50,0,1
182312,-100,4,2,1,50,0,0
182412,-100,4,2,3,50,0,1
182512,-100,4,2,3,50,0,0

[Colours]
Combo1 : 196,219,255
Combo2 : 94,117,247

[HitObjects]
256,192,2012,12,2,3212,0:0:0:0:
256,192,3612,5,0,0:0:0:0:
164,116,4012,2,0,L|96:120,2,60.0000022888184
276,72,4812,1,2,0:0:0:0:
280,76,5012,2,0,L|288:152,1,60.0000022888184
156,176,5412,2,0,L|164:104,1,60.0000022888184
176,252,5812,2,0,P|133:251|101:231,2,60.0000022888184
304,104,6412,6,0,L|296:32,2,60.0000022888184,2|0|0,0:0|0:0|0:0,0:0:0:0:
208,204,7012,1,0,0:0:0:0:
334,141,7212,2,0,L|344:69,2,60.0000022888184
221,223,7812,1,0,0:0:0:0:
366,177,8012,2,0,L|395:110,1,60.0000022888184,2|0,0:0|0:0,0:0:0:0:
236,245,8412,2,0,L|212:300,1,60.0000022888184
398,245,8812,2,0,P|434:209|438:185,1,60.0000022888184
319,84,9212,2,0,P|283:120|279:144,1,60.0000022888184
156,100,9612,6,0,P|128:88|104:68,2,60.0000022888184,2|0|0,0:0|0:0|0:0,0:0:0:0:
340,156,10412,1,0,0:0:0:0:
336,160,10612,2,0,L|332:224,1,60.0000022888184
154,170,11212,1,2,0:0:0:0:
158,174,11412,2,0,P|186:165|216:168,1,60.0000022888184
304,177,11812,2,0,P|296:205|279:230,1,60.0000022888184
232,297,12212,2,0,P|210:276|198:249,1,60.0000022888184
170,163,12612,1,0,0:0:0:0:
211,83,12812,6,0,P|243:63|283:51,2,60.0000022888184,2|0|0,0:0|0:0|0:0,0:0:0:0:
164,204,13412,1,0,0:0:0:0:
300,141,13612,2,0,P|337:139|378:149,2,60.0000022888184
160,229,14212,1,0,0:0:0:0:
295,258,14412,2,0,P|295:294|287:326,1,60.0000022888184,2|0,0:0|0:0,0:0:0:0:
158,253,14812,2,0,P|158:217|166:185,1,60.0000022888184,2|0,0:0|0:0,0:0:0:0:
256,192,15212,12,4,16012,0:0:0:0:
252,184,16212,6,0,P|256:156|256:112,1,60.0000022888184,0|2,0:0|0:0,0:0:0:0:
168,240,16612,1,2,0:0:0:0:
164,244,16812,2,0,P|160:272|160:308,1,60.0000022888184,2|0,0:0|0:0,0:0:0:0:
163,334,17412,1,2,0:0:0:0:
88,192,17612,2,0,P|104:152|124:132,2,60.0000022888184,2|0|2,0:0|0:0|0:0,0:0:0:0:
196,156,18212,2,0,P|216:132|244:116,2,60.0000022888184,0|2|0,0:0|0:0|0:0,0:0:0:0:
164,244,18812,1,2,0:0:0:0:
271,203,19012,1,2,0:0:0:0:
384,189,19212,6,0,P|393:218|393:250,1,60.0000022888184,2|0,0:0|0:0,0:0:0:0:
361,332,19612,1,2,0:0:0:0:
282,289,19812,2,0,P|250:297|218:297,1,60.0000022888184,0|2,0:0|0:0,0:0:0:0:
136,156,20212,2,0,P|168:148|200:148,1,60.0000022888184,0|2,0:0|0:0,0:0:0:0:
92,235,20612,2,0,P|60:215|44:187,1,60.0000022888184,2|2,0:0|0:0,0:0:0:0:
184,237,21012,2,0,P|176:269|148:301,1,60.0000022888184,0|2,0:0|0:0,0:0:0:0:
203,105,21412,2,0,P|229:81|268:70,1,60.0000022888184,0|2,0:0|0:0,0:0:0:0:
272,152,21812,1,0,0:0:0:0:
172,196,22012,2,0,L|88:208,1,60.0000022888184,2|2,0:0|0:0,0:0:0:0:
212,272,22412,5,2,0:0:0:0:
280,212,22612,1,0,0:0:0:0:
348,268,22812,1,2,0:0:0:0:
428,224,23012,2,0,L|444:156,1,60.0000022888184,0|2,0:0|0:0,0:0:0:0:
356,80,23412,2,0,L|340:148,1,60.0000022888184,0|2,0:0|0:0,0:0:0:0:
252,148,23812,1,2,0:0:0:0:
172,108,24012,2,0,P|144:96|104:92,2,60.0000022888184,2|0|2,0:0|0:0|0:0,0:0:0:0:
262,123,24612,2,0,L|271:63,1,60.0000022888184,0|2,0:0|0:0,0:0:0:0:
338,153,25012,1,0,0:0:0:0:
424,120,25212,2,0,P|460:120|492:116,1,60.0000022888184,2|2,0:0|0:0,0:0:0:0:
272,64,25612,6,0,L|208:60,2,60.0000022888184,2|0|2,0:0|0:0|0:0,0:0:0:0:
424,120,26212,2,0,P|424:156|432:192,1,60.0000022888184,0|2,0:0|0:0,0:0:0:0:
448,288,26612,1,0,0:0:0:0:
344,248,26812,2,0,L|280:256,1,60.0000022888184,2|2,0:0|0:0,0:0:0:0:
448,288,27212,2,0,P|456:324|472:356,2,60.0000022888184,2|0|2,0:0|0:0|0:0,0:0:0:0:
349,238,27812,2,0,L|285:246,1,60.0000022888184,0|2,0:0|0:0,0:0:0:0:
213,198,28212,1,0,0:0:0:0:
159,270,28412,2,0,P|181:288|212:297,1,60.0000022888184,2|0,0:0|0:0,0:0:0:0:
229,299,28712,1,0,0:0:0:0:
246,300,28812,6,0,P|286:292|319:271,1,80,4|0,0:1|0:0,0:0:0:0:
396,172,29212,1,10,0:0:0:0:
424,268,29412,1,0,0:0:0:0:
434,286,29512,1,0,0:0:0:0:
450,300,29612,1,2,0:0:0:0:
336,136,29812,1,0,0:0:0:0:
336,136,30012,2,0,L|251:144,1,80,10|2,0:0|0:0,0:0:0:0:
180,84,30412,2,0,P|216:124|224:244,1,160,2|10,0:0|0:0,0:0:0:0:
208,336,31012,1,0,0:0:0:0:
307,263,31212,2,0,P|325:252|347:246,2,40,2|0|8,0:0|0:0|0:0,0:0:0:0:
208,336,31612,1,10,0:0:0:0:
200,316,31712,1,0,0:0:0:0:
188,300,31812,1,2,0:0:0:0:
172,288,31912,1,0,0:0:0:0:
152,280,32012,6,0,P|176:244|140:136,1,160,2|10,0:0|0:0,0:0:0:0:
256,96,32612,1,0,0:0:0:0:
272,104,32712,1,0,0:0:0:0:
288,108,32812,1,2,0:0:0:0:
400,112,33012,2,0,P|443:104|481:77,1,80,0|10,0:0|0:0,0:0:0:0:
400,112,33412,2,0,P|368:164|388:264,1,160
396,272,33912,1,0,0:0:0:0:
412,284,34012,1,10,0:0:0:0:
268,304,34212,1,0,0:0:0:0:
248,308,34312,1,0,0:0:0:0:
228,312,34412,2,0,P|232:268|228:224,1,80,2|8,0:0|0:0,0:0:0:0:
116,192,34812,2,0,P|112:236|116:280,1,80,10|2,0:0|0:0,0:0:0:0:
160,120,35212,6,0,P|83:113|33:173,1,160,2|10,0:0|0:0,0:0:0:0:
244,88,35812,1,0,0:0:0:0:
245,67,35912,1,0,0:0:0:0:
246,47,36012,1,2,0:0:0:0:
236,176,36212,2,0,L|248:264,1,80,0|10,0:0|0:0,0:0:0:0:
348,76,36612,2,0,L|368:236,1,160,2|0,0:0|0:0,0:0:0:0:
371,256,37112,1,0,0:0:0:0:
374,277,37212,1,10,0:0:0:0:
390,375,37412,1,0,0:0:0:0:
266,343,37612,2,0,L|276:262,1,80,0|10,0:0|0:0,0:0:0:0:
168,266,38012,1,10,0:0:0:0:
164,286,38112,1,0,0:0:0:0:
160,305,38212,1,2,0:0:0:0:
156,325,38312,1,0,0:0:0:0:
152,344,38412,6,0,P|104:320|28:324,1,120,2|0,0:0|0:0,0:0:0:0:
20,328,38812,2,0,L|28:240,1,80,10|0,0:0|0:0,0:0:0:0:
30,227,39112,1,0,0:0:0:0:
33,206,39212,1,2,0:0:0:0:
156,108,39412,2,0,L|168:196,1,80,0|10,0:0|0:0,0:0:0:0:
260,232,39812,2,0,P|320:208|408:268,1,160,2|0,0:0|0:0,0:0:0:0:
408,268,40312,1,0,0:0:0:0:
414,286,40412,1,10,0:0:0:0:
440,168,40612,2,0,L|444:120,2,40,0|0|2,0:0|0:0|0:0,0:0:0:0:
260,234,41012,2,0,P|236:186|236:142,1,80,8|10,0:0|0:0,0:0:0:0:
236,140,41312,1,0,0:0:0:0:
244,120,41412,1,2,0:0:0:0:
256,104,41512,1,0,0:0:0:0:
272,92,41612,6,0,P|320:108|424:52,1,160,4|10,0:1|0:0,0:0:0:0:
160,96,42212,1,0,0:0:0:0:
154,115,42312,1,0,0:0:0:0:
152,135,42412,2,0,P|155:178|167:215,1,80,2|0,0:0|0:0,0:0:0:0:
284,304,42812,1,10,0:0:0:0:
284,304,43012,2,0,B|241:295|241:295|196:338|130:318,1,160,2|0,0:0|0:0,0:0:0:0:
117,310,43512,1,0,0:0:0:0:
103,297,43612,1,10,0:0:0:0:
72,210,43812,2,0,P|88:166|92:122,1,80,0|2,0:0|0:0,0:0:0:0:
220,64,44212,2,0,P|224:108|248:152,1,80,8|10,0:0|0:0,0:0:0:0:
248,156,44512,1,0,0:0:0:0:
260,172,44612,1,2,0:0:0:0:
276,184,44712,1,0,0:0:0:0:
292,192,44812,6,0,P|327:218|347:249,1,80,2|0,0:0|0:0,0:0:0:0:
392,344,45212,1,10,0:0:0:0:
256,308,45412,1,0,0:0:0:0:
236,312,45512,1,0,0:0:0:0:
218,321,45612,1,2,0:0:0:0:
120,244,45812,2,0,P|112:200|116:156,1,80,0|10,0:0|0:0,0:0:0:0:
220,64,46212,2,0,L|228:16,2,40,2|0|0,0:0|0:0|0:0,0:0:0:0:
116,156,46612,1,0,0:0:0:0:
228,68,46812,2,0,P|264:72|312:96,1,80,10|0,0:0|0:0,0:0:0:0:
320,104,47112,1,0,0:0:0:0:
332,120,47212,1,2,0:0:0:0:
260,216,47412,2,0,P|283:243|298:293,1,80,8|10,0:0|0:0,0:0:0:0:
302,304,47712,1,0,0:0:0:0:
301,324,47812,1,2,0:0:0:0:
295,343,47912,1,0,0:0:0:0:
287,359,48012,5,2,0:0:0:0:
256,192,48212,12,0,51212,0:0:0:0:
256,192,52012,12,4,54412,0:1:0:0:
192,136,55012,5,0,0:0:0:0:
332,160,55612,1,2,0:0:0:0:
332,160,57612,6,0,P|300:200|300:300,2,143.999995605469,2|0|2,0:0|0:0|0:0,0:0:0:0:
332,160,60812,5,2,0:0:0:0:
192,132,61412,1,0,0:0:0:0:
128,260,62012,1,2,0:0:0:0:
212,216,62412,5,2,0:0:0:0:
292,96,63012,1,0,0:0:0:0:
428,140,63612,1,2,0:0:0:0:
368,216,64012,5,2,0:0:0:0:
228,252,64612,1,0,0:0:0:0:
128,148,65212,1,2,0:0:0:0:
128,148,65412,1,0,0:0:0:0:
104,292,66012,1,2,0:0:0:0:
104,292,66212,1,0,0:0:0:0:
262,289,66612,2,0,P|259:259|253:233,1,55.9999982910157
217,158,67012,1,0,0:0:0:0:
293,99,67212,5,4,0:1:0:0:
368,154,67412,2,0,P|395:169|431:177,2,64,0|2|0,0:0|0:0|0:0,0:0:0:0:
294,66,68012,1,10,0:0:0:0:
167,84,68412,2,0,L|159:160,1,64,2|10,0:0|0:0,0:0:0:0:
252,280,68812,1,2,0:0:0:0:
252,280,69012,2,0,P|288:244|384:248,1,128,8|0,0:0|0:0,0:0:0:0:
452,276,69612,1,2,0:0:0:0:
380,96,70012,1,2,0:0:0:0:
288,72,70212,1,2,0:0:0:0:
192,84,70412,6,0,P|144:124|80:124,1,128,2|2,0:0|0:0,0:0:0:0:
112,36,71012,1,0,0:0:0:0:
52,220,71212,2,0,P|52:268|48:296,1,64,10|0,0:0|0:0,0:0:0:0:
80,124,71612,2,0,P|84:84|80:48,1,64,2|10,0:0|0:0,0:0:0:0:
152,200,72012,2,0,P|176:228|224:240,2,64,2|8|2,0:0|0:0|0:0,0:0:0:0:
80,124,72612,1,0,0:0:0:0:
184,96,72812,2,0,L|252:92,1,64,2|0,0:0|0:0,0:0:0:0:
364,192,73212,2,0,L|296:188,1,64,2|2,0:0|0:0,0:0:0:0:
440,140,73612,6,0,P|459:202|431:255,1,128,2|2,0:0|0:0,0:0:0:0:
361,321,74212,1,0,0:0:0:0:
286,261,74412,2,0,P|234:233|150:265,1,128,10|2,0:0|0:0,0:0:0:0:
220,324,75012,1,10,0:0:0:0:
94,220,75212,2,0,L|90:156,1,64,2|8,0:0|0:0,0:0:0:0:
209,64,75612,2,0,L|205:128,1,64,2|0,0:0|0:0,0:0:0:0:
188,252,76012,2,0,P|240:236|304:264,1,128,2|2,0:0|0:0,0:0:0:0:
368,336,76612,1,2,0:0:0:0:
408,252,76812,6,0,P|412:192|380:124,1,128,2|2,0:0|0:0,0:0:0:0:
268,112,77412,1,0,0:0:0:0:
272,116,77612,2,0,P|276:152|272:188,1,64,10|0,0:0|0:0,0:0:0:0:
148,264,78012,2,0,P|144:228|148:192,1,64,2|10,0:0|0:0,0:0:0:0:
264,108,78412,1,2,0:0:0:0:
256,192,78512,12,4,80012,0:1:0:0:
256,192,80412,6,0,L|344:176,1,80,10|0,0:0|0:0,0:0:0:0:
308,284,80812,1,2,0:0:0:0:
328,280,80912,1,0,0:0:0:0:
348,276,81012,1,0,0:0:0:0:
220,312,81212,1,10,0:0:0:0:
200,308,81312,1,0,0:0:0:0:
180,304,81412,1,2,0:0:0:0:
160,300,81512,1,0,0:0:0:0:
140,296,81612,6,0,P|160:216|132:144,1,160,4|10,0:1|0:0,0:0:0:0:
204,72,82212,1,4,0:1:0:0:
308,64,82412,2,0,L|312:104,2,40,2|8|0,0:0|0:0|0:0,0:0:0:0:
204,72,82812,1,10,0:0:0:0:
100,120,83012,1,2,0:0:0:0:
108,144,83112,1,0,0:0:0:0:
112,164,83212,6,4,P|112:224|72:320,1,160,4|10,0:1|0:0,0:1:0:0:
176,276,83812,1,0,0:0:0:0:
196,268,83912,1,0,0:0:0:0:
216,264,84012,1,2,0:0:0:0:
236,264,84112,1,0,0:0:0:0:
256,268,84212,1,0,0:0:0:0:
224,352,84412,1,10,0:0:0:0:
340,296,84612,1,2,0:0:0:0:
356,284,84712,1,0,0:0:0:0:
372,272,84812,6,0,L|377:190,1,80,4|0,0:1|0:0,0:0:0:0:
383,92,85212,1,10,0:0:0:0:
212,70,85412,1,0,0:0:0:0:
297,83,85612,1,8,0:0:0:0:
308,100,85712,1,8,0:0:0:0:
312,120,85812,1,8,0:0:0:0:
312,140,85912,1,0,0:0:0:0:
308,160,86012,1,10,0:0:0:0:
300,176,86112,1,0,0:0:0:0:
288,192,86212,1,8,0:0:0:0:
272,200,86312,1,8,0:0:0:0:
252,204,86412,6,0,B|204:220|204:220|144:264|176:344,1,160,4|10,0:1|0:0,0:0:0:0:
248,296,87012,1,0,0:0:0:0:
81,250,87212,1,2,0:0:0:0:
78,229,87312,1,0,0:0:0:0:
76,208,87412,2,0,L|66:124,1,80,0|10,0:0|0:0,0:0:0:0:
160,76,87812,5,2,0:0:0:0:
180,84,87912,1,0,0:0:0:0:
200,88,88012,2,0,P|248:88|352:28,1,160,4|10,0:1|0:0,0:0:0:0:
444,72,88612,1,4,0:1:0:0:
468,168,88812,2,0,L|476:208,2,40,2|8|2,0:0|0:0|0:0,0:0:0:0:
444,72,89212,1,10,0:0:0:0:
392,193,89412,5,10,0:0:0:0:
383,211,89512,1,8,0:0:0:0:
372,228,89612,2,0,P|309:274|228:264,1,160,4|10,0:1|0:0,0:0:0:0:
141,186,90212,1,0,0:0:0:0:
141,186,90412,2,0,P|127:145|124:106,1,80,2|0,0:0|0:0,0:0:0:0:
276,48,90812,2,0,P|287:88|288:126,1,80,10|2,0:0|0:0,0:0:0:0:
301,140,91112,1,0,0:0:0:0:
312,155,91212,2,0,P|316:199|292:247,1,80,4|0,0:1|0:0,0:0:0:0:
232,312,91612,1,10,0:0:0:0:
368,292,91812,5,0,0:0:0:0:
384,280,91912,1,0,0:0:0:0:
400,268,92012,2,0,L|421:233,3,40,4|8|8|0,0:1|0:0|0:0|0:0,0:0:0:0:
397,201,92412,2,0,L|405:161,3,40,10|0|10|8,0:0|0:0|0:0|0:0,0:0:0:0:
380,130,92812,6,0,P|367:94|338:55,1,80,4|8,0:1|0:0,0:0:0:0:
325,51,93112,2,0,P|287:57|242:79,1,80,4|8,0:1|0:0,0:0:0:0:
232,84,93412,1,8,0:0:0:0:
301,157,93612,1,2,0:0:0:0:
252,244,93812,2,0,P|200:240|160:216,1,80,0|10,0:0|0:0,0:0:0:0:
60,144,94212,5,2,0:0:0:0:
84,148,94312,1,0,0:0:0:0:
104,160,94412,2,0,P|132:192|124:312,1,160,4|10,0:1|0:0,0:0:0:0:
244,324,95012,1,0,0:0:0:0:
264,328,95112,1,0,0:0:0:0:
284,328,95212,1,2,0:0:0:0:
304,324,95312,1,8,0:0:0:0:
324,316,95412,1,0,0:0:0:0:
428,240,95612,1,10,0:0:0:0:
304,224,95812,5,2,0:0:0:0:
288,212,95912,1,0,0:0:0:0:
276,196,96012,2,0,P|264:148|268:116,2,80,4|0|10,0:1|0:0|0:0,0:0:0:0:
379,135,96612,2,0,P|384:85|398:57,2,80,4|2|10,0:1|0:0|0:0,0:0:0:0:
456,227,97212,2,0,P|468:275|464:307,2,80,4|0|10,0:1|0:0|0:0,0:0:0:0:
344,272,97812,2,0,P|338:321|324:349,2,80,4|2|10,0:1|0:0|0:0,0:0:0:0:
276,172,98412,2,0,L|112:164,1,160,4|4,0:1|0:1,0:0:0:0:
344,212,99212,6,0,P|328:256|328:296,1,80,4|2,0:1|0:0,0:0:0:0:
426,276,99612,1,8,0:0:0:0:
424,176,99812,1,0,0:0:0:0:
412,156,99912,1,0,0:0:0:0:
392,140,100012,2,0,P|352:128|304:136,1,80,2|0,0:0|0:0,0:0:0:0:
112,196,100412,2,0,P|148:208|196:204,1,80,10|2,0:0|0:0,0:0:0:0:
327,245,100812,6,0,P|286:249|243:261,1,80,4|0,0:1|0:0,0:0:0:0:
154,291,101212,1,10,0:0:0:0:
192,204,101412,2,0,P|200:160|196:120,1,80,0|2,0:0|0:0,0:0:0:0:
192,104,101712,1,8,0:0:0:0:
184,88,101812,1,0,0:0:0:0:
316,88,102012,1,10,0:0:0:0:
316,88,102212,1,2,0:0:0:0:
416,184,102412,6,0,L|336:192,1,80,4|0,0:1|0:0,0:0:0:0:
216,184,102812,1,10,0:0:0:0:
193,273,103012,1,0,0:0:0:0:
74,200,103212,1,4,0:1:0:0:
66,108,103412,1,0,0:0:0:0:
160,224,103612,1,10,0:0:0:0:
138,313,103812,1,0,0:0:0:0:
80,186,104012,5,4,0:1:0:0:
93,171,104112,1,8,0:0:0:0:
109,159,104212,1,0,0:0:0:0:
208,144,104412,2,0,P|244:162|268:200,1,80,10|4,0:0|0:1,0:0:0:0:
257,306,104812,1,10,0:0:0:0:
167,372,105012,1,8,0:0:0:0:
171,352,105112,1,0,0:0:0:0:
175,332,105212,1,10,0:0:0:0:
179,312,105312,1,2,0:0:0:0:
183,292,105412,1,8,0:0:0:0:
187,272,105512,1,8,0:0:0:0:
191,252,105612,5,4,0:1:0:0:
145,139,118412,6,0,P|193:99|255:105,1,128,4|2,0:1|0:0,0:0:0:0:
340,151,119012,1,0,0:0:0:0:
429,115,119212,2,0,L|413:243,1,128,10|2,0:0|0:0,0:0:0:0:
413,243,119812,1,10,0:0:0:0:
348,314,120012,2,0,P|314:311|285:306,1,64,2|8,0:0|0:0,0:0:0:0:
220,163,120412,2,0,P|252:168|284:183,1,64,2|0,0:0|0:0,0:0:0:0:
88,256,120812,2,0,P|64:232|56:188,1,64,2|0,0:0|0:0,0:0:0:0:
184,260,121212,2,0,P|212:300|216:328,1,64,2|2,0:0|0:0,0:0:0:0:
136,184,121612,6,0,P|136:144|212:83,1,128,2|2,0:0|0:0,0:0:0:0:
184,260,122212,2,0,P|154:274|119:274,1,64,0|8,0:0|0:0,0:0:0:0:
234,178,122612,2,0,P|277:223|276:287,1,128
232,356,123212,1,2,0:0:0:0:
118,279,123412,2,0,P|116:247|121:215,1,64,8|2,0:0|0:0,0:0:0:0:
234,178,123812,2,0,P|294:202|386:130,1,192,0|2,0:0|0:0,0:0:0:0:
456,202,124612,1,2,0:0:0:0:
456,202,124812,6,0,P|473:145|464:66,1,128,2|2,0:0|0:0,0:0:0:0:
376,77,125412,1,0,0:0:0:0:
285,61,125612,1,10,0:0:0:0:
200,96,125812,2,0,P|148:100|120:100,2,64,0|2|10,0:0|0:0|0:0,0:0:0:0:
276,156,126412,2,0,P|284:200|188:296,2,192,2|0|2,0:0|0:0|0:0,0:0:0:0:
196,204,128012,6,0,P|156:172|156:92,1,128,2|2,0:0|0:0,0:0:0:0:
244,124,128612,1,0,0:0:0:0:
292,208,128812,2,0,P|288:244|268:284,1,64,10|0,0:0|0:0,0:0:0:0:
352,152,129212,2,0,P|369:183|375:228,1,64,2|10,0:0|0:0,0:0:0:0:
376,72,129612,2,0,P|408:88|468:160,1,128,2|2,0:0|0:0,0:0:0:0:
376,72,130412,1,2,0:0:0:0:
360,72,130512,1,0,0:0:0:0:
344,72,130612,1,0,0:0:0:0:
326,75,130712,1,0,0:0:0:0:
312,80,130812,1,2,0:0:0:0:
298,88,130912,1,0,0:0:0:0:
287,98,131012,1,2,0:0:0:0:
275,111,131112,1,0,0:0:0:0:
267,126,131212,5,4,0:1:0:0:
168,156,131412,2,0,P|124:168|80:168,2,80,0|2|0,0:0|0:0|0:0,0:0:0:0:
324,188,132212,2,0,P|368:200|412:200,2,80,0|2|2,0:0|0:0|0:0,0:0:0:0:
172,236,133012,2,0,P|128:248|84:248,2,80,0|2|0,0:0|0:0|0:0,0:0:0:0:
292,312,133812,1,2,0:0:0:0:
296,320,134012,1,2,0:0:0:0:
300,328,134212,1,0,0:0:0:0:
328,224,134612,6,0,P|376:236|416:236,2,80,0|2|0,0:0|0:0|0:0,0:0:0:0:
212,148,135412,2,0,P|164:160|124:160,2,80,0|2|2,0:0|0:0|0:0,0:0:0:0:
376,96,136012,1,2,0:0:0:0:
242,102,136212,1,0,0:0:0:0:
384,72,136412,2,0,P|392:112|420:156,1,80,2|0,0:0|0:0,0:0:0:0:
240,123,136812,2,0,P|224:163|183:194,1,80,2|0,0:0|0:0,0:0:0:0:
402,237,137212,2,0,P|440:226|475:200,1,80,2|2,0:0|0:0,0:0:0:0:
278,233,137612,6,0,P|237:242|193:268,1,80,2|0,0:0|0:0,0:0:0:0:
332,304,138012,1,2,0:0:0:0:
332,304,138212,2,0,P|308:236|368:144,1,160
416,112,138812,1,2,0:0:0:0:
300,88,139012,1,2,0:0:0:0:
420,116,139212,6,0,P|424:168|424:204,1,80,2|0,0:0|0:0,0:0:0:0:
308,248,139612,2,0,P|304:196|304:160,1,80,2|0,0:0|0:0,0:0:0:0:
388,256,140012,2,0,P|372:296|264:316,1,160,2|2,0:0|0:0,0:0:0:0:
256,113,140612,1,2,0:0:0:0:
256,113,140812,2,0,P|309:169|308:248,1,160,2|2,0:0|0:0,0:0:0:0:
220,205,141412,1,0,0:0:0:0:
372,109,141612,2,0,P|412:110|451:125,1,80,2|0,0:0|0:0,0:0:0:0:
412,293,142012,2,0,P|372:292|333:277,1,80,2|2,0:0|0:0,0:0:0:0:
220,205,142412,6,0,P|196:143|232:54,2,160,2|2|2,0:0|0:0|0:0,0:0:0:0:
231,217,143612,1,2,0:0:0:0:
245,226,144012,6,0,P|322:234|389:191,1,160,6|2,0:2|0:0,0:0:0:0:
414,107,144612,1,0,0:0:0:0:
291,97,145012,2,0,L|277:13,2,80,0|2|2,0:0|0:0|0:0,0:0:0:0:
288,204,145612,2,0,P|268:248|160:264,1,160,2|0,0:0|0:0,0:0:0:0:
118,344,146212,2,0,P|134:264|86:188,1,160,2|0,0:0|0:0,0:0:0:0:
233,277,146812,2,0,P|273:293|317:289,1,80,2|2,0:0|0:0,0:0:0:0:
288,204,147212,6,0,P|340:184|359:88,1,160,6|2,0:0|0:0,0:0:0:0:
208,83,147812,1,6,0:0:0:0:
208,83,148212,2,0,P|245:96|280:119,1,80,0|2,0:0|0:0,0:0:0:0:
433,75,148812,1,0,0:0:0:0:
433,75,149012,2,0,P|497:118|499:195,1,160,2|0,0:0|0:0,0:0:0:0:
404,165,149612,2,0,P|340:122|338:45,1,160,6|6,0:0|0:0,0:0:0:0:
140,76,150412,6,0,P|144:144|72:204,1,160,4|2,0:0|0:0,0:0:0:0:
52,112,151012,1,0,0:0:0:0:
156,268,151212,2,0,L|240:276,1,80,2|0,0:0|0:0,0:0:0:0:
371,190,151612,2,0,L|283:198,1,80,2|2,0:0|0:0,0:0:0:0:
407,265,152012,6,0,P|455:206|428:128,1,160,2|2,0:0|0:0,0:0:0:0:
353,86,152612,1,0,0:0:0:0:
287,149,152812,2,0,L|279:241,1,80,2|0,0:0|0:0,0:0:0:0:
184,258,153212,2,0,L|176:350,1,80,2|2,0:0|0:0,0:0:0:0:
152,180,153612,6,0,L|141:18,1,160,2|2,0:0|0:0,0:0:0:0:
141,20,154212,1,0,0:0:0:0:
239,89,154412,2,0,P|283:101|331:89,1,80,2|0,0:0|0:0,0:0:0:0:
470,124,154812,2,0,P|426:136|391:170,1,80,2|2,0:0|0:0,0:0:0:0:
256,192,155212,12,4,156812,0:1:0:0:
256,192,157212,6,0,P|260:236|250:271,1,80,10|0,0:0|0:0,0:0:0:0:
151,203,157612,1,2,0:0:0:0:
147,183,157712,1,0,0:0:0:0:
147,163,157812,1,0,0:0:0:0:
244,88,158012,2,0,L|272:60,3,40,10|0|2|0,0:0|0:0|0:0|0:0,0:0:0:0:
292,48,158412,2,0,L|268:220,1,160,4|10,0:1|0:0,0:0:0:0:
399,125,159012,1,4,0:1:0:0:
384,224,159212,1,2,0:0:0:0:
381,244,159312,1,8,0:0:0:0:
379,264,159412,1,0,0:0:0:0:
363,363,159612,1,10,0:0:0:0:
220,304,159812,5,2,0:0:0:0:
214,282,159912,1,0,0:0:0:0:
200,264,160012,2,0,P|232:180|196:104,1,160,4|10,0:1|0:0,0:0:0:0:
304,48,160612,1,0,0:0:0:0:
438,100,160812,1,2,0:0:0:0:
424,116,160912,2,0,P|412:160|412:200,1,80,8|0,0:0|0:0,0:0:0:0:
416,214,161212,1,10,0:0:0:0:
312,280,161412,1,2,0:0:0:0:
300,296,161512,1,0,0:0:0:0:
284,312,161612,2,0,P|208:340|132:328,2,160,4|10|4,0:1|0:0|0:1,0:0:0:0:
300,304,162512,1,8,0:0:0:0:
312,288,162612,1,8,0:0:0:0:
320,272,162712,1,0,0:0:0:0:
324,252,162812,1,10,0:0:0:0:
324,232,162912,1,0,0:0:0:0:
320,212,163012,1,10,0:0:0:0:
312,192,163112,1,8,0:0:0:0:
300,176,163212,6,0,P|248:180|188:136,1,120,4|0,0:1|0:0,0:0:0:0:
184,128,163612,1,10,0:0:0:0:
280,56,163812,1,0,0:0:0:0:
112,66,164012,1,2,0:0:0:0:
100,82,164112,1,0,0:0:0:0:
94,101,164212,2,0,P|89:138|106:193,1,80,0|10,0:0|0:0,0:0:0:0:
232,292,164612,1,2,0:0:0:0:
274,216,164812,2,0,P|197:212|148:272,1,160,4|10,0:1|0:0,0:0:0:0:
251,334,165412,1,4,0:1:0:0:
358,336,165612,2,0,L|382:370,2,40,2|8|0,0:0|0:0|0:0,0:0:0:0:
393,234,166012,1,10,0:0:0:0:
340,149,166212,5,2,0:0:0:0:
327,134,166312,1,0,0:0:0:0:
312,124,166412,2,0,P|268:104|188:124,1,120,4|0,0:1|0:0,0:0:0:0:
180,128,166812,1,10,0:0:0:0:
124,224,167012,1,0,0:0:0:0:
126,244,167112,1,0,0:0:0:0:
133,263,167212,2,0,P|157:293|196:314,1,80,2|0,0:0|0:0,0:0:0:0:
288,188,167612,5,10,0:0:0:0:
304,176,167712,1,0,0:0:0:0:
324,172,167812,1,2,0:0:0:0:
344,176,167912,1,0,0:0:0:0:
360,184,168012,2,0,L|364:92,1,80,4|0,0:1|0:0,0:0:0:0:
328,264,168412,2,0,L|323:344,1,80,10|0,0:0|0:0,0:0:0:0:
288,188,168812,5,4,0:1:0:0:
276,172,168912,1,8,0:0:0:0:
260,160,169012,1,8,0:0:0:0:
240,152,169112,1,0,0:0:0:0:
220,148,169212,1,10,0:0:0:0:
200,148,169312,1,0,0:0:0:0:
180,152,169412,1,10,0:0:0:0:
160,160,169512,1,8,0:0:0:0:
144,172,169612,6,0,P|105:191|66:189,1,80,4|8,0:1|0:0,0:0:0:0:
52,179,169912,2,0,P|38:143|41:98,1,80,4|8,0:1|0:0,0:1:0:0:
49,84,170212,1,8,0:0:0:0:
175,62,170412,2,0,L|190:23,2,40,2|0|0,0:0|0:0|0:0,0:0:0:0:
252,164,170812,2,0,P|304:184|340:184,1,80,8|2,0:0|0:0,0:0:0:0:
376,120,171212,6,0,P|352:172|392:268,1,160,4|10,0:1|0:0,0:0:0:0:
452,308,171812,1,4,0:1:0:0:
304,304,172012,1,2,0:0:0:0:
284,308,172112,1,8,0:0:0:0:
264,312,172212,1,0,0:0:0:0:
180,248,172412,1,10,0:0:0:0:
160,252,172512,1,0,0:0:0:0:
140,256,172612,1,10,0:0:0:0:
120,260,172712,1,8,0:0:0:0:
100,264,172812,6,0,P|116:184|104:100,1,160,4|10,0:1|0:0,0:0:0:0:
196,244,173412,2,0,P|263:281|337:254,1,160,4|8,0:1|0:0,0:0:0:0:
272,197,174012,2,0,L|259:356,1,160,4|8,0:1|0:0,0:0:0:0:
371,332,174612,2,0,L|384:173,1,160,4|8,0:1|0:0,0:0:0:0:
392,81,175212,1,4,0:1:0:0:
392,81,175612,1,4,0:1:0:0:
392,81,176012,6,0,P|336:125|264:101,1,120,4|0,0:1|0:0,0:0:0:0:
272,113,176412,1,10,0:0:0:0:
316,32,176612,1,0,0:0:0:0:
436,155,176812,2,0,P|446:192|448:243,1,80,2|0,0:0|0:0,0:0:0:0:
333,297,177212,2,0,P|332:257|339:218,1,80,10|2,0:0|0:0,0:0:0:0:
254,285,177612,6,0,P|194:309|114:257,1,160,4|10,0:1|0:0,0:0:0:0:
163,97,178212,2,0,P|199:136|202:200,1,120,4|8,0:1|0:0,0:0:0:0:
197,220,178612,1,0,0:0:0:0:
294,150,178812,2,0,L|386:162,1,80,10|0,0:0|0:0,0:0:0:0:
455,275,179212,6,0,L|363:263,1,80,4|0,0:1|0:0,0:0:0:0:
257,249,179612,1,10,0:0:0:0:
158,234,179812,1,0,0:0:0:0:
294,150,180012,1,2,0:0:0:0:
393,135,180212,1,0,0:0:0:0:
257,249,180412,2,0,L|176:237,1,80,10|2,0:0|0:0,0:0:0:0:
294,150,180812,5,4,0:1:0:0:
314,146,180912,1,8,0:0:0:0:
334,142,181012,1,0,0:0:0:0:
406,288,181212,2,0,P|386:250|387:212,1,80,10|4,0:0|0:1,0:0:0:0:
425,128,181612,1,10,0:0:0:0:
307,41,181812,1,8,0:0:0:0:
315,58,181912,1,0,0:0:0:0:
319,78,182012,1,10,0:0:0:0:
320,96,182112,1,0,0:0:0:0:
315,115,182212,1,10,0:0:0:0:
306,134,182312,1,8,0:0:0:0:
295,150,182412,5,4,0:1:0:0:
