osu file format v12

[General]
AudioFilename: GabrielMirage Rebirth.mp3
AudioLeadIn: 0
PreviewTime: 14343
Countdown: 0
SampleSet: Normal
StackLeniency: 0.7
Mode: 1
LetterboxInBreaks: 1
EpilepsyWarning: 1
WidescreenStoryboard: 0

[Editor]
Bookmarks: 25343,36009,41176,46676,57343,68009,89343,100009,114676
DistanceSpacing: 0.1
BeatDivisor: 4
GridSize: 32

[Metadata]
Title:GabrielMirage -Rebirth-
TitleUnicode:GabrielMirage -Rebirth-
Artist:wa.
ArtistUnicode:wa.
Creator:dialgadu77
Version:Taiko Muzukashii
Source:
Tags:artcore soundcloud revo revolver_revo cherry blossom inaba-tan
BeatmapID:272648
BeatmapSetID:100714

[Difficulty]
HPDrainRate:5
CircleSize:4
OverallDifficulty:5
ApproachRate:5
SliderMultiplier:1.4
SliderTickRate:1

[Events]
//Background and Video events
0,0,"Desert-Mirage-1-EH1FR6X182-1024x768.jpg",0,0
//Break Periods
2,89533,98799
//Storyboard Layer 0 (Background)
//Storyboard Layer 1 (Fail)
//Storyboard Layer 2 (Pass)
//Storyboard Layer 3 (Foreground)
//Storyboard Sound Samples
//Background Colour Transformations
3,100,163,162,255

[TimingPoints]
4000,333.333333333333,4,1,0,100,1,0
14666,-100,4,1,0,100,0,1
35999,-100,4,1,0,100,0,0
99999,-100,4,1,0,100,0,1
110666,-100,4,1,0,80,0,0

[HitObjects]
256,192,3999,21,0,0:0:0:0:
256,192,4166,1,0,0:0:0:0:
256,192,4333,5,8,0:0:0:0:
256,192,4499,1,8,0:0:0:0:
256,192,4999,1,8,0:0:0:0:
256,192,5333,5,0,0:0:0:0:
256,192,5666,1,0,0:0:0:0:
256,192,5833,5,8,0:0:0:0:
256,192,6166,1,8,0:0:0:0:
256,192,6333,5,0,0:0:0:0:
256,192,6666,1,0,0:0:0:0:
256,192,6833,1,0,0:0:0:0:
256,192,6999,1,8,0:0:0:0:
256,192,7166,1,8,0:0:0:0:
256,192,7499,1,8,0:0:0:0:
256,192,7833,1,0,0:0:0:0:
256,192,7999,1,0,0:0:0:0:
256,192,8333,1,0,0:0:0:0:
256,192,8499,1,8,0:0:0:0:
256,192,8833,1,8,0:0:0:0:
256,192,9166,1,8,0:0:0:0:
256,192,9333,1,0,0:0:0:0:
256,192,9499,1,0,0:0:0:0:
256,192,9666,1,8,0:0:0:0:
256,192,9833,1,8,0:0:0:0:
256,192,10333,1,8,0:0:0:0:
256,192,10666,1,0,0:0:0:0:
256,192,10999,1,0,0:0:0:0:
256,192,11166,1,8,0:0:0:0:
256,192,11249,1,8,0:0:0:0:
256,192,11333,1,8,0:0:0:0:
256,192,11499,1,8,0:0:0:0:
256,192,11833,1,8,0:0:0:0:
256,192,11999,1,0,0:0:0:0:
256,192,12166,1,0,0:0:0:0:
256,192,12333,1,8,0:0:0:0:
256,192,12499,1,8,0:0:0:0:
256,192,12833,1,8,0:0:0:0:
256,192,13166,1,0,0:0:0:0:
256,192,13333,1,12,0:0:0:0:
256,192,13666,1,0,0:0:0:0:
256,192,13833,1,12,0:0:0:0:
256,192,14166,1,0,0:0:0:0:
256,192,14249,1,0,0:0:0:0:
256,192,14333,1,8,0:0:0:0:
256,192,14499,1,0,0:0:0:0:
256,192,14666,1,4,0:0:0:0:
256,192,14999,1,8,0:0:0:0:
256,192,15499,1,0,0:0:0:0:
256,192,15666,1,8,0:0:0:0:
256,192,15999,1,0,0:0:0:0:
256,192,16333,1,8,0:0:0:0:
256,192,16833,1,0,0:0:0:0:
256,192,16999,1,8,0:0:0:0:
256,192,17166,1,0,0:0:0:0:
256,192,17333,1,0,0:0:0:0:
256,192,17666,1,8,0:0:0:0:
256,192,18166,1,0,0:0:0:0:
256,192,18333,1,8,0:0:0:0:
256,192,18666,1,0,0:0:0:0:
256,192,18999,1,8,0:0:0:0:
256,192,19166,1,0,0:0:0:0:
256,192,19499,1,0,0:0:0:0:
256,192,19666,1,8,0:0:0:0:
256,192,19833,1,0,0:0:0:0:
256,192,19999,1,0,0:0:0:0:
256,192,20333,1,8,0:0:0:0:
256,192,20833,1,0,0:0:0:0:
256,192,20999,1,8,0:0:0:0:
256,192,21333,1,0,0:0:0:0:
256,192,21666,1,8,0:0:0:0:
256,192,21833,1,0,0:0:0:0:
256,192,21916,1,0,0:0:0:0:
256,192,21999,1,0,0:0:0:0:
256,192,22166,1,0,0:0:0:0:
256,192,22333,1,8,0:0:0:0:
256,192,22499,1,0,0:0:0:0:
256,192,22666,1,0,0:0:0:0:
256,192,22999,5,8,0:0:0:0:
256,192,23499,1,0,0:0:0:0:
256,192,23666,1,8,0:0:0:0:
256,192,23999,5,0,0:0:0:0:
256,192,24166,5,8,0:0:0:0:
256,192,24249,1,8,0:0:0:0:
256,192,24333,1,8,0:0:0:0:
256,192,24499,1,0,0:0:0:0:
256,192,24666,1,8,0:0:0:0:
256,192,24833,5,0,0:0:0:0:
256,192,24916,1,0,0:0:0:0:
256,192,24999,1,0,0:0:0:0:
256,192,25166,1,0,0:0:0:0:
256,192,25333,1,4,0:0:0:0:
256,192,25666,1,8,0:0:0:0:
256,192,26166,1,0,0:0:0:0:
256,192,26333,1,8,0:0:0:0:
256,192,26666,1,0,0:0:0:0:
256,192,26833,1,0,0:0:0:0:
256,192,27000,1,8,0:0:0:0:
256,192,27500,1,0,0:0:0:0:
256,192,27666,1,8,0:0:0:0:
256,192,27833,1,0,0:0:0:0:
256,192,28000,1,0,0:0:0:0:
256,192,28333,1,8,0:0:0:0:
256,192,28833,1,0,0:0:0:0:
256,192,29000,1,8,0:0:0:0:
256,192,29166,1,0,0:0:0:0:
256,192,29333,1,0,0:0:0:0:
256,192,29499,1,0,0:0:0:0:
256,192,29666,1,8,0:0:0:0:
256,192,29833,1,0,0:0:0:0:
256,192,30166,1,0,0:0:0:0:
256,192,30333,1,8,0:0:0:0:
256,192,30500,1,0,0:0:0:0:
256,192,30583,1,0,0:0:0:0:
256,192,30666,1,0,0:0:0:0:
256,192,31000,1,8,0:0:0:0:
256,192,31500,1,0,0:0:0:0:
256,192,31666,1,8,0:0:0:0:
256,192,31999,1,0,0:0:0:0:
256,192,32166,1,0,0:0:0:0:
256,192,32333,1,8,0:0:0:0:
256,192,32499,1,0,0:0:0:0:
256,192,32583,1,0,0:0:0:0:
256,192,32666,1,0,0:0:0:0:
256,192,32833,1,0,0:0:0:0:
256,192,32999,1,8,0:0:0:0:
256,192,33166,1,0,0:0:0:0:
256,192,33333,1,0,0:0:0:0:
256,192,33666,1,8,0:0:0:0:
256,192,34166,1,0,0:0:0:0:
256,192,34333,1,8,0:0:0:0:
256,192,34499,1,0,0:0:0:0:
256,192,34666,5,12,0:0:0:0:
256,192,35166,1,12,0:0:0:0:
256,192,35499,1,0,0:0:0:0:
256,192,35583,1,0,0:0:0:0:
256,192,35666,1,8,0:0:0:0:
256,192,35833,1,8,0:0:0:0:
256,192,35999,1,4,0:0:0:0:
256,192,36166,1,0,0:0:0:0:
256,192,36333,1,0,0:0:0:0:
256,192,36499,1,8,0:0:0:0:
256,192,36666,1,8,0:0:0:0:
256,192,37333,1,0,0:0:0:0:
256,192,37999,1,8,0:0:0:0:
256,192,38499,1,0,0:0:0:0:
256,192,38666,1,0,0:0:0:0:
256,192,38916,1,8,0:0:0:0:
256,192,39166,1,0,0:0:0:0:
256,192,39333,1,0,0:0:0:0:
256,192,39833,1,8,0:0:0:0:
256,192,39999,1,0,0:0:0:0:
256,192,40999,1,0,0:0:0:0:
256,192,41166,1,0,0:0:0:0:
256,192,41333,1,4,0:0:0:0:
256,192,41666,1,0,0:0:0:0:
256,192,41999,1,8,0:0:0:0:
256,192,42333,1,0,0:0:0:0:
256,192,42499,1,0,0:0:0:0:
256,192,42583,1,0,0:0:0:0:
256,192,42666,1,0,0:0:0:0:
256,192,42833,1,8,0:0:0:0:
256,192,42999,1,0,0:0:0:0:
256,192,43333,1,8,0:0:0:0:
256,192,43666,1,0,0:0:0:0:
256,192,43749,1,0,0:0:0:0:
256,192,43833,1,0,0:0:0:0:
256,192,43999,1,0,0:0:0:0:
256,192,44166,1,0,0:0:0:0:
256,192,44333,1,8,0:0:0:0:
256,192,44499,1,0,0:0:0:0:
256,192,44666,1,0,0:0:0:0:
256,192,44833,1,8,0:0:0:0:
256,192,44999,1,0,0:0:0:0:
256,192,45166,1,0,0:0:0:0:
64,96,45333,2,0,B|480:96|480:96|320:96,1,560
256,192,46999,1,0,0:0:0:0:
256,192,47166,1,8,0:0:0:0:
256,192,47333,1,0,0:0:0:0:
256,192,47499,1,0,0:0:0:0:
256,192,47666,1,8,0:0:0:0:
256,192,47999,1,0,0:0:0:0:
256,192,48166,1,0,0:0:0:0:
256,192,48333,1,0,0:0:0:0:
256,192,48499,1,8,0:0:0:0:
256,192,48666,1,8,0:0:0:0:
256,192,48833,1,0,0:0:0:0:
256,192,48916,1,0,0:0:0:0:
256,192,48999,1,0,0:0:0:0:
256,192,49166,1,8,0:0:0:0:
256,192,49333,1,0,0:0:0:0:
256,192,49666,1,8,0:0:0:0:
256,192,49833,1,8,0:0:0:0:
256,192,49999,1,0,0:0:0:0:
256,192,50166,1,0,0:0:0:0:
256,192,50333,1,8,0:0:0:0:
256,192,50499,1,0,0:0:0:0:
256,192,50583,1,0,0:0:0:0:
256,192,50666,1,8,0:0:0:0:
256,192,50833,1,0,0:0:0:0:
256,192,50999,1,8,0:0:0:0:
256,192,51166,1,8,0:0:0:0:
256,192,51333,1,0,0:0:0:0:
256,192,51416,1,0,0:0:0:0:
256,192,51499,1,0,0:0:0:0:
256,192,51666,1,8,0:0:0:0:
256,192,51833,1,0,0:0:0:0:
256,192,52166,1,0,0:0:0:0:
256,192,52333,1,8,0:0:0:0:
256,192,52499,1,8,0:0:0:0:
256,192,52833,1,0,0:0:0:0:
256,192,52999,1,8,0:0:0:0:
256,192,53166,1,8,0:0:0:0:
256,192,53333,1,8,0:0:0:0:
256,192,53499,1,0,0:0:0:0:
256,192,53666,1,8,0:0:0:0:
256,192,53833,1,0,0:0:0:0:
256,192,54166,1,0,0:0:0:0:
256,192,54333,1,8,0:0:0:0:
256,192,54499,1,0,0:0:0:0:
256,192,54666,5,12,0:0:0:0:
256,192,54833,1,12,0:0:0:0:
256,192,54999,1,0,0:0:0:0:
256,192,55333,1,4,0:0:0:0:
256,192,55499,1,4,0:0:0:0:
256,192,55666,1,12,0:0:0:0:
256,192,55999,5,8,0:0:0:0:
256,192,56166,1,8,0:0:0:0:
256,192,56333,1,0,0:0:0:0:
256,192,56666,1,0,0:0:0:0:
256,192,56833,1,0,0:0:0:0:
256,192,56999,1,0,0:0:0:0:
256,192,57166,1,8,0:0:0:0:
256,192,57333,1,4,0:0:0:0:
256,192,57666,1,8,0:0:0:0:
256,192,57833,1,0,0:0:0:0:
256,192,57999,1,8,0:0:0:0:
256,192,58249,1,8,0:0:0:0:
256,192,58499,1,8,0:0:0:0:
256,192,58666,1,4,0:0:0:0:
256,192,59166,1,8,0:0:0:0:
256,192,59333,1,0,0:0:0:0:
256,192,59555,1,0,0:0:0:0:
256,192,59777,1,0,0:0:0:0:
256,192,59999,1,0,0:0:0:0:
256,192,60333,1,8,0:0:0:0:
256,192,60499,1,0,0:0:0:0:
256,192,60583,1,0,0:0:0:0:
256,192,60666,1,0,0:0:0:0:
256,192,60833,1,0,0:0:0:0:
256,192,60999,1,8,0:0:0:0:
256,192,61166,1,8,0:0:0:0:
256,192,61333,1,0,0:0:0:0:
256,192,61499,1,0,0:0:0:0:
256,192,61666,1,8,0:0:0:0:
256,192,61833,1,0,0:0:0:0:
256,192,61999,1,8,0:0:0:0:
256,192,62166,1,0,0:0:0:0:
256,192,62249,1,0,0:0:0:0:
256,192,62333,1,0,0:0:0:0:
256,192,62499,1,8,0:0:0:0:
256,192,62666,1,4,0:0:0:0:
256,192,62833,1,0,0:0:0:0:
256,192,62999,1,0,0:0:0:0:
256,192,63166,1,0,0:0:0:0:
256,192,63333,1,0,0:0:0:0:
256,192,63499,1,0,0:0:0:0:
256,192,63666,1,0,0:0:0:0:
256,192,63833,1,0,0:0:0:0:
256,192,63999,1,8,0:0:0:0:
256,192,64166,1,0,0:0:0:0:
256,192,64333,1,0,0:0:0:0:
256,192,64499,1,0,0:0:0:0:
256,192,64666,1,8,0:0:0:0:
256,192,64749,1,0,0:0:0:0:
256,192,64833,1,0,0:0:0:0:
256,192,64999,1,0,0:0:0:0:
256,192,65166,1,0,0:0:0:0:
256,192,65333,12,0,67833,0:0:0:0:
256,192,67999,5,4,0:0:0:0:
256,192,68333,5,0,0:0:0:0:
256,192,68499,5,0,0:0:0:0:
256,192,68666,5,8,0:0:0:0:
256,192,69333,1,0,0:0:0:0:
256,192,69499,1,8,0:0:0:0:
256,192,69666,1,0,0:0:0:0:
256,192,69833,1,0,0:0:0:0:
256,192,69999,1,8,0:0:0:0:
256,192,70166,1,0,0:0:0:0:
256,192,70333,1,8,0:0:0:0:
256,192,70499,1,0,0:0:0:0:
256,192,70666,1,0,0:0:0:0:
256,192,70916,1,0,0:0:0:0:
256,192,71166,1,0,0:0:0:0:
256,192,71833,1,8,0:0:0:0:
256,192,71999,1,0,0:0:0:0:
256,192,72333,1,8,0:0:0:0:
256,192,72499,1,0,0:0:0:0:
256,192,72833,1,8,0:0:0:0:
256,192,72999,1,0,0:0:0:0:
256,192,73333,1,8,0:0:0:0:
256,192,73555,1,8,0:0:0:0:
256,192,73777,1,8,0:0:0:0:
256,192,73999,1,12,0:0:0:0:
256,192,74666,1,0,0:0:0:0:
256,192,74833,1,8,0:0:0:0:
256,192,74999,1,0,0:0:0:0:
256,192,75166,1,0,0:0:0:0:
256,192,75333,1,8,0:0:0:0:
256,192,75499,1,0,0:0:0:0:
256,192,75666,1,8,0:0:0:0:
256,192,75833,1,8,0:0:0:0:
256,192,75999,1,0,0:0:0:0:
256,192,76222,1,0,0:0:0:0:
256,192,76444,1,0,0:0:0:0:
256,192,76666,1,0,0:0:0:0:
256,192,77166,1,8,0:0:0:0:
256,192,77333,1,0,0:0:0:0:
256,192,77666,1,8,0:0:0:0:
256,192,77833,1,0,0:0:0:0:
256,192,78166,1,8,0:0:0:0:
256,192,78333,1,0,0:0:0:0:
256,192,78666,1,0,0:0:0:0:
256,192,78833,1,0,0:0:0:0:
256,192,78999,1,0,0:0:0:0:
256,192,79166,1,0,0:0:0:0:
256,192,79333,1,8,0:0:0:0:
256,192,79999,1,0,0:0:0:0:
256,192,80166,1,8,0:0:0:0:
256,192,80333,1,0,0:0:0:0:
256,192,80499,1,0,0:0:0:0:
256,192,80666,1,8,0:0:0:0:
256,192,80833,1,0,0:0:0:0:
256,192,80999,1,8,0:0:0:0:
256,192,81166,1,8,0:0:0:0:
256,192,81333,1,0,0:0:0:0:
256,192,81583,1,0,0:0:0:0:
256,192,81833,1,0,0:0:0:0:
256,192,82499,1,8,0:0:0:0:
256,192,82666,1,0,0:0:0:0:
256,192,82999,1,8,0:0:0:0:
256,192,83166,1,0,0:0:0:0:
256,192,83499,1,8,0:0:0:0:
256,192,83666,1,0,0:0:0:0:
256,192,83999,1,0,0:0:0:0:
256,192,84222,1,0,0:0:0:0:
256,192,84444,1,0,0:0:0:0:
256,192,84666,1,8,0:0:0:0:
256,192,85333,1,0,0:0:0:0:
256,192,85499,1,8,0:0:0:0:
256,192,85666,1,0,0:0:0:0:
256,192,85833,1,0,0:0:0:0:
256,192,85999,1,8,0:0:0:0:
256,192,86166,1,0,0:0:0:0:
256,192,86333,1,8,0:0:0:0:
256,192,86499,1,8,0:0:0:0:
256,192,86666,1,0,0:0:0:0:
256,192,86888,1,0,0:0:0:0:
256,192,87111,1,0,0:0:0:0:
256,192,87333,1,0,0:0:0:0:
256,192,87833,1,8,0:0:0:0:
256,192,87999,1,0,0:0:0:0:
256,192,88333,1,8,0:0:0:0:
256,192,88499,1,0,0:0:0:0:
256,192,88833,1,8,0:0:0:0:
256,192,88999,1,0,0:0:0:0:
256,192,89333,5,4,0:0:0:0:
256,192,99999,5,4,0:0:0:0:
256,192,100333,1,8,0:0:0:0:
256,192,100499,1,8,0:0:0:0:
256,192,100666,1,0,0:0:0:0:
256,192,100833,1,0,0:0:0:0:
256,192,100999,1,8,0:0:0:0:
256,192,101166,1,0,0:0:0:0:
256,192,101333,1,0,0:0:0:0:
256,192,101666,1,8,0:0:0:0:
256,192,101833,1,0,0:0:0:0:
256,192,101999,1,8,0:0:0:0:
256,192,102166,1,0,0:0:0:0:
256,192,102333,1,8,0:0:0:0:
256,192,102416,1,8,0:0:0:0:
256,192,102499,1,0,0:0:0:0:
256,192,102666,1,0,0:0:0:0:
256,192,102999,1,8,0:0:0:0:
256,192,103166,1,0,0:0:0:0:
256,192,103333,1,8,0:0:0:0:
256,192,103499,1,0,0:0:0:0:
256,192,103666,1,8,0:0:0:0:
256,192,103833,1,8,0:0:0:0:
256,192,103999,1,0,0:0:0:0:
256,192,104166,1,0,0:0:0:0:
256,192,104333,1,0,0:0:0:0:
256,192,104499,1,8,0:0:0:0:
256,192,104833,1,8,0:0:0:0:
256,192,104999,1,8,0:0:0:0:
256,192,105166,1,8,0:0:0:0:
256,192,105333,1,0,0:0:0:0:
256,192,105666,1,8,0:0:0:0:
256,192,105833,1,0,0:0:0:0:
256,192,106166,1,0,0:0:0:0:
256,192,106333,1,8,0:0:0:0:
256,192,106499,1,8,0:0:0:0:
256,192,106666,1,0,0:0:0:0:
256,192,106999,1,8,0:0:0:0:
256,192,107166,1,8,0:0:0:0:
256,192,107332,1,8,0:0:0:0:
256,192,107499,1,0,0:0:0:0:
256,192,107666,1,8,0:0:0:0:
256,192,107833,1,0,0:0:0:0:
256,192,107916,1,0,0:0:0:0:
256,192,107999,1,0,0:0:0:0:
256,192,108333,1,0,0:0:0:0:
256,192,108499,1,8,0:0:0:0:
256,192,108666,1,8,0:0:0:0:
256,192,108999,1,8,0:0:0:0:
256,192,109166,1,0,0:0:0:0:
256,192,109333,5,12,0:0:0:0:
256,192,109666,1,0,0:0:0:0:
256,192,109833,1,12,0:0:0:0:
256,192,110166,1,0,0:0:0:0:
256,192,110333,1,8,0:0:0:0:
256,192,110499,1,8,0:0:0:0:
256,192,110666,1,4,0:0:0:0:
256,192,110833,1,0,0:0:0:0:
256,192,110999,1,8,0:0:0:0:
256,192,111166,12,0,114666,0:0:0:0:
