osu file format v14

[General]
AudioFilename: Akatsuki No Tsuki.mp3
AudioLeadIn: 0
PreviewTime: 185408
Countdown: 0
SampleSet: None
StackLeniency: 0.7
Mode: 2
LetterboxInBreaks: 0
WidescreenStoryboard: 0

[Editor]
Bookmarks: 7113,110238
DistanceSpacing: 1
BeatDivisor: 2
GridSize: 16
TimelineZoom: 1.4

[Metadata]
Title:Akatsuki no Tsuki
TitleUnicode:暁ノ月
Artist:void feat. Komatsuna
ArtistUnicode:void feat. 小松菜
Creator:Spectator
Version:GAMI's Salad
Source:
Tags:GAMI Frobe [Superstar] remind a locus samurai dancehall electro planet mournfinale
BeatmapID:689535
BeatmapSetID:297668

[Difficulty]
HPDrainRate:4
CircleSize:3.5
OverallDifficulty:7
ApproachRate:7
SliderMultiplier:1
SliderTickRate:2

[Events]
//Background and Video events
0,0,"void.jpg",0,0
//Break Periods
2,77199,85645
2,142654,149736
2,164471,168826
//Storyboard Layer 0 (Background)
//Storyboard Layer 1 (Fail)
//Storyboard Layer 2 (Pass)
//Storyboard Layer 3 (Foreground)
//Storyboard Sound Samples

[TimingPoints]
636,340.909090909091,4,3,1,30,1,0
636,-133.333333333333,4,3,1,30,0,0
2170,-133.333333333333,4,3,1,20,0,0
2340,-133.333333333333,4,3,1,30,0,0
2596,-133.333333333333,4,3,1,7,0,0
3022,-133.333333333333,4,3,1,30,0,0
4897,-133.333333333333,4,3,1,20,0,0
5067,-133.333333333333,4,3,1,30,0,0
5920,-133.333333333333,4,3,1,15,0,0
6090,-133.333333333333,4,3,1,30,0,0
8136,-133.333333333333,4,3,1,15,0,0
8476,-133.333333333333,4,3,1,30,0,0
8817,-133.333333333333,4,3,1,15,0,0
9499,-133.333333333333,4,3,1,17,0,0
10011,-133.333333333333,4,3,1,21,0,0
10522,-133.333333333333,4,3,1,24,0,0
11033,-133.333333333333,4,3,1,26,0,0
11545,-100,4,3,1,45,0,0
21772,-100,4,1,1,50,0,0
22113,-100,4,1,1,35,0,0
22454,-100,4,3,1,48,0,0
24670,-100,4,3,72,48,0,0
24840,-100,4,3,1,48,0,0
30124,-100,4,3,72,48,0,0
30295,-100,4,3,1,48,0,0
32851,-100,4,3,1,35,0,0
33022,-100,4,3,1,45,0,0
33363,-100,4,3,1,50,0,0
35579,-100,4,3,72,50,0,0
35749,-100,4,3,1,50,0,0
43249,-100,4,3,1,49,0,0
43590,-100,4,3,1,52,0,0
43931,-100,4,3,1,54,0,0
44272,-100,4,3,1,53,0,0
45124,-100,4,3,72,53,0,0
45295,-100,4,3,1,53,0,0
46488,-100,4,3,72,53,0,0
46658,-100,4,3,1,53,0,0
49726,-100,4,3,1,55,0,0
51942,-100,4,3,72,55,0,0
52113,-100,4,3,1,55,0,0
54499,-100,4,1,50,75,0,0
54840,-100,4,1,50,40,0,0
55181,-100,4,3,20,90,0,1
55266,-100,4,3,1,65,0,1
59783,-100,4,3,1,80,0,1
60636,-100,4,3,1,65,0,1
63363,-100,4,3,1,70,0,1
66005,-100,4,3,1,70,0,0
66090,-100,4,3,1,65,0,1
76914,-100,4,3,1,65,0,0
76999,-100,4,2,0,65,0,1
77084,-100,4,3,1,65,0,0
86545,-100,4,1,1,30,0,0
86886,-100,4,1,1,35,0,0
87226,-100,4,1,1,40,0,0
87397,-100,4,1,1,45,0,0
87908,-100,4,3,1,51,0,0
98817,-100,4,3,1,53,0,0
108704,-100,4,3,1,54,0,0
109045,-100,4,3,1,55,0,0
109386,-100,4,3,1,56,0,0
110579,-100,4,3,72,56,0,0
110749,-100,4,3,1,56,0,0
111942,-100,4,3,72,56,0,0
112113,-100,4,3,1,56,0,0
117397,-100,4,3,72,56,0,0
117567,-100,4,3,1,56,0,0
119954,-100,4,1,50,75,0,0
120295,-100,4,1,50,40,0,0
120636,-100,4,3,20,90,0,1
120721,-100,4,3,1,65,0,1
131459,-100,4,3,1,65,0,0
131545,-100,4,3,1,65,0,1
142454,-100,4,3,1,65,0,0
153363,-100,4,3,0,65,0,1
153448,-100,4,3,1,65,0,0
153533,-100,4,2,1,65,0,0
162908,-100,4,2,1,59,0,0
163079,-100,4,2,1,49,0,0
163249,-100,4,2,1,38,0,0
163420,-100,4,2,1,29,0,0
163590,-100,4,3,1,60,0,0
164272,-100,4,3,20,90,0,0
169726,-100,4,2,1,45,0,0
174499,-100,4,2,1,50,0,0
174840,-100,4,2,1,30,0,0
175181,-100,4,1,1,53,0,0
177226,-100,4,3,72,53,0,0
177397,-100,4,1,1,53,0,0
180806,-100,4,3,72,53,0,0
180976,-100,4,1,1,53,0,0
182170,-100,4,3,72,53,0,0
182340,-100,4,1,1,53,0,0
182681,-100,4,3,72,53,0,0
182851,-100,4,1,1,53,0,0
185408,-100,4,1,50,75,0,0
185749,-100,4,1,50,40,0,0
186090,-100,4,3,20,100,0,1
186175,-100,4,3,1,75,0,1
197255,-100,4,3,1,5,0,0
197340,-100,4,3,20,95,0,1
197425,-100,4,3,1,75,0,1
210124,-100,4,3,72,75,0,1
210295,-100,4,3,1,75,0,1
213363,-100,4,3,20,75,0,0
214045,-100,4,3,1,70,0,0
214726,-100,4,3,1,60,0,0
215408,-100,4,3,1,55,0,0
216090,-100,4,3,1,50,0,0
216772,-100,4,3,1,45,0,0
217454,-100,4,3,1,40,0,0
218136,-100,4,3,1,35,0,0
218732,-100,4,3,1,35,0,0
218817,-100,4,2,1,50,0,0
223761,-100,4,2,1,30,0,0
224272,-100,4,2,1,55,0,0
229897,-100,4,2,1,46,0,0
235181,-100,4,3,1,50,0,0
237908,-100,4,3,1,60,0,1
237993,-100,4,3,1,60,0,0

[Colours]
Combo1 : 232,210,113
Combo2 : 210,210,210
Combo3 : 111,157,227
Combo4 : 209,99,143

[HitObjects]
144,208,636,6,0,L|64:208,2,75.000002861023,4|0|0,0:0|0:0|0:0,0:0:0:0:
288,208,1658,1,4,0:0:0:0:
448,192,1999,1,0,0:0:0:0:
496,160,2170,1,0,0:0:0:0:
464,128,2340,2,0,P|416:112|384:128,1,75.0000028610231
112,192,3022,1,0,0:0:0:0:
352,192,3363,6,0,P|416:192|464:160,2,112.500004291535,4|4|4,0:0|0:0|0:0,0:0:0:0:
144,176,4726,1,8,0:0:0:0:
96,176,4897,1,8,0:0:0:0:
144,176,5067,1,8,0:0:0:0:
432,192,5749,5,4,0:0:0:0:
272,192,5920,1,4,0:0:0:0:
144,192,6090,2,0,L|48:192,1,75.0000028610231
208,192,6601,2,0,L|304:192,1,75.0000028610231
416,192,7113,1,0,0:0:0:0:
224,192,7454,5,0,0:0:0:0:
112,192,7624,2,0,L|32:192,2,75.0000028610231
224,112,8476,1,0,0:0:0:0:
336,128,8817,6,4,P|352:192|336:208,1,75.0000028610231
176,256,9329,2,0,P|160:192|176:176,1,75.0000028610231,4|0,0:0|0:0,0:0:0:0:
336,128,9840,1,0,0:0:0:0:
256,192,10181,12,0,11545,0:0:0:0:
352,192,11886,6,0,L|432:192,2,50,4|0|0,0:0|0:0|0:0,0:0:0:0:
160,192,12567,2,0,L|80:192,2,50,4|0|0,0:0|0:0|0:0,0:0:0:0:
352,192,13249,2,4,L|208:192,1,100
176,192,13761,1,4,0:0:0:0:
96,192,13931,1,4,0:0:0:0:
304,112,14272,6,4,L|464:112,2,150
208,112,15636,2,4,L|48:112,2,150
304,112,16829,1,0,0:0:0:0:
491,208,16999,6,4,L|464:112,1,100
256,112,17681,2,4,L|284:209,1,100
448,112,18363,1,4,0:0:0:0:
256,112,18704,1,4,0:0:0:0:
48,112,19045,1,4,0:0:0:0:
128,112,19215,1,0,0:0:0:0:
336,112,19386,1,4,0:0:0:0:
256,192,19726,12,12,21090,0:0:0:0:
256,192,21431,5,8,0:0:0:0:
208,192,21772,2,0,L|160:144,1,50
304,192,22113,2,0,L|352:144,1,50
176,160,22454,1,0,0:0:0:0:
304,128,22795,6,0,P|368:128|400:96,2,100,12|0|4,0:0|0:0|0:0,0:0:0:0:
208,128,23817,2,0,P|144:128|112:96,2,100,4|0|12,0:0|0:0|0:0,0:0:0:0:
320,128,24840,5,0,0:0:0:0:
112,160,25181,2,0,P|112:224|128:272,1,100,4|0,0:0|0:0,0:0:0:0:
390,258,25863,2,0,P|401:209|400:160,1,100,4|0,0:0|0:0,0:0:0:0:
176,112,26545,5,4,0:0:0:0:
284,112,26715,2,0,L|384:112,1,100,4|0,0:0|0:0,0:0:0:0:
480,112,27226,1,4,0:0:0:0:
336,112,27567,1,4,0:0:0:0:
160,128,27908,2,4,P|80:160|64:176,1,100
256,176,28590,5,4,0:0:0:0:
320,176,28761,1,4,0:0:0:0:
448,176,29101,1,4,0:0:0:0:
480,176,29272,2,4,L|384:144,1,100
128,176,29954,2,0,L|224:144,1,100
336,176,30636,6,0,L|400:176,2,50,4|0|4,0:0|0:0|0:0,0:0:0:0:
192,176,31147,1,0,0:0:0:0:
48,176,31488,1,0,0:0:0:0:
192,112,31829,1,4,0:0:0:0:
352,112,31999,6,0,L|320:144|272:192,1,100,4|0,0:0|0:0,0:0:0:0:
432,224,32681,2,0,L|464:256|512:304,2,100,0|8|4,0:0|0:0|0:0,0:0:0:0:
208,224,33704,2,8,L|144:224|96:224,2,100,0|4|0,0:0|0:0|0:0,0:0:0:0:
368,240,34726,5,4,0:0:0:0:
432,240,34897,1,4,0:0:0:0:
240,240,35238,1,4,0:0:0:0:
112,240,35579,1,4,0:0:0:0:
192,240,35749,2,0,L|320:240,2,100,0|4|0,0:0|0:0|0:0,0:0:0:0:
64,160,36772,6,0,P|144:144|176:128,1,100,4|0,0:0|0:0,0:0:0:0:
288,128,37454,1,4,0:0:0:0:
416,128,37795,2,0,L|480:128,2,50
224,128,38476,1,12,0:0:0:0:
112,128,38817,6,4,P|80:192|112:256,1,100
176,224,39329,1,12,0:0:0:0:
320,224,39670,1,8,0:0:0:0:
416,208,40011,2,0,L|512:160,2,100,12|12|0,0:0|0:0|0:0,0:0:0:0:
320,208,40863,1,0,0:0:0:0:
176,208,41204,1,0,0:0:0:0:
400,128,41545,5,12,0:0:0:0:
320,112,41715,1,12,0:0:0:0:
80,128,42056,1,12,0:0:0:0:
160,112,42226,1,12,0:0:0:0:
352,112,42567,1,0,0:0:0:0:
208,208,42908,6,0,L|48:208,1,150,4|8,0:0|0:0,0:0:0:0:
160,144,43590,2,0,L|336:144,1,150,4|8,0:0|0:0,0:0:0:0:
400,144,44272,1,4,0:0:0:0:
144,144,44613,1,8,0:0:0:0:
208,144,44783,1,8,0:0:0:0:
448,144,45124,5,4,0:0:0:0:
336,144,45295,2,0,L|240:208,2,100,8|0|8,0:0|0:0|0:0,0:0:0:0:
112,144,46317,2,0,L|48:144,2,50,0|4|8,0:0|0:0|0:0,0:0:0:0:
368,144,46999,5,12,0:0:0:0:
352,208,47170,1,12,0:0:0:0:
192,208,47511,1,4,0:0:0:0:
64,208,47851,1,4,0:0:0:0:
192,208,48192,5,4,0:0:0:0:
272,208,48363,2,8,L|384:144,1,100
480,144,49045,2,8,L|368:80,1,100,12|8,0:0|0:0,0:0:0:0:
256,96,49726,5,12,0:0:0:0:
144,96,50067,1,4,0:0:0:0:
32,96,50408,1,8,0:0:0:0:
144,96,50749,5,0,0:0:0:0:
192,96,50920,1,0,0:0:0:0:
240,96,51090,2,12,L|336:176,1,100
432,192,51772,2,12,L|336:272,1,100,12|8,0:0|0:0,0:0:0:0:
192,192,52454,6,4,L|0:192,2,150
352,192,53817,1,4,0:0:0:0:
256,192,54158,1,4,0:0:0:0:
160,192,54499,1,4,0:0:0:0:
256,192,54840,1,4,0:0:0:0:
480,96,55181,6,0,L|456:194,1,100,4|8,0:0|0:0,0:0:0:0:
296,194,55863,2,0,L|320:96,1,100,4|8,0:0|0:0,0:0:0:0:
160,192,56545,2,0,L|0:192,2,150,4|0|0,0:0|0:0|0:0,0:0:0:0:
320,192,57908,5,4,0:0:0:0:
384,192,58079,1,8,0:0:0:0:
192,256,58420,1,4,0:0:0:0:
128,256,58590,1,8,0:0:0:0:
336,256,58931,1,8,0:0:0:0:
96,256,59272,6,0,L|224:176,1,150,4|0,0:0|0:0,0:0:0:0:
288,176,59954,1,8,0:0:0:0:
128,192,60295,1,0,0:0:0:0:
80,192,60465,1,0,0:0:0:0:
128,192,60636,1,0,0:0:0:0:
240,256,60976,5,4,0:0:0:0:
288,256,61147,1,8,0:0:0:0:
432,208,61488,1,4,0:0:0:0:
384,208,61658,1,8,0:0:0:0:
208,208,61999,2,0,L|96:208,2,100
336,192,63022,5,0,0:0:0:0:
464,128,63363,2,0,P|384:112|352:144,2,100
368,176,64386,5,0,0:0:0:0:
256,176,64556,1,8,0:0:0:0:
96,176,64726,2,8,L|192:112,1,100,12|8,0:0|0:0,0:0:0:0:
432,128,65408,2,8,L|348:183,1,100,12|8,0:0|0:0,0:0:0:0:
96,160,66090,6,4,P|112:96|160:64,1,100,4|8,0:0|0:0,0:0:0:0:
288,80,66601,1,0,0:0:0:0:
416,80,66942,1,0,0:0:0:0:
288,80,67283,1,0,0:0:0:0:
144,80,67454,6,0,L|208:192,1,100,0|8,0:0|0:0,0:0:0:0:
400,192,68136,2,0,L|336:304,1,100,0|8,0:0|0:0,0:0:0:0:
160,256,68817,2,0,P|96:256|0:176,2,150,0|0|8,0:0|0:0|0:0,0:0:0:0:
400,272,70181,5,4,0:0:0:0:
480,272,70351,1,8,0:0:0:0:
240,272,70692,1,8,0:0:0:0:
336,272,70863,2,8,L|272:144,1,100
48,176,71545,6,8,L|160:176,1,100
224,176,72056,1,8,0:0:0:0:
384,272,72397,1,4,0:0:0:0:
464,272,72567,2,0,L|400:176,2,100,8|8|8,0:0|0:0|0:0,0:0:0:0:
384,272,73420,5,0,0:0:0:0:
224,272,73761,1,4,0:0:0:0:
144,272,73931,1,12,0:0:0:0:
32,192,74272,2,0,P|96:144|160:144,1,100,4|8,0:0|0:0,0:0:0:0:
304,48,74954,5,0,0:0:0:0:
384,96,75124,1,4,0:0:0:0:
416,192,75295,1,4,0:0:0:0:
384,288,75465,1,8,0:0:0:0:
304,336,75636,2,0,P|240:352|208:336,1,100
32,256,76317,2,8,P|112:224|144:224,1,100
416,192,76999,1,4,0:0:0:0:
256,192,86545,12,4,87908,0:0:0:0:
160,192,88249,5,0,0:0:0:0:
144,160,88420,1,8,0:0:0:0:
352,192,88761,1,4,0:0:0:0:
368,160,88932,1,8,0:0:0:0:
256,112,89272,2,4,L|112:112,1,100,4|0,0:0|0:0,0:0:0:0:
64,112,89783,1,8,0:0:0:0:
208,224,90124,5,4,0:0:0:0:
304,224,90295,2,8,L|432:224,1,100,8|0,0:0|0:0,0:0:0:0:
256,144,90976,1,0,0:0:0:0:
208,144,91147,1,8,0:0:0:0:
32,208,91488,1,4,0:0:0:0:
80,208,91659,1,8,0:0:0:0:
256,208,91999,6,0,P|320:144|336:112,1,100,4|0,0:0|0:0,0:0:0:0:
416,144,92511,1,8,0:0:0:0:
192,144,92851,1,4,0:0:0:0:
64,144,93022,2,0,P|80:208|112:224,1,100,8|4,0:0|0:0,0:0:0:0:
272,224,93704,5,0,0:0:0:0:
336,224,93874,1,8,0:0:0:0:
464,224,94215,1,4,0:0:0:0:
336,224,94556,5,4,0:0:0:0:
272,224,94726,2,0,L|192:144,1,100,12|0,0:0|0:0,0:0:0:0:
80,160,95408,2,0,L|160:80,1,100,0|8,0:0|0:0,0:0:0:0:
256,96,96090,5,4,0:0:0:0:
432,128,96431,1,0,0:0:0:0:
384,176,96601,1,8,0:0:0:0:
256,176,96942,1,4,0:0:0:0:
112,176,97283,1,0,0:0:0:0:
224,176,97624,1,4,0:0:0:0:
368,192,97965,6,8,L|224:192,1,100,8|12,0:0|0:0,0:0:0:0:
96,192,98476,2,8,P|144:144|192:128,1,100,8|12,0:0|0:0,0:0:0:0:
320,224,99158,5,0,0:0:0:0:
240,224,99329,2,0,L|128:224,1,100,8|4,0:0|0:0,0:0:0:0:
64,224,99840,1,8,0:0:0:0:
224,96,100181,1,4,0:0:0:0:
336,96,100351,2,0,L|400:208,1,100,8|0,0:0|0:0,0:0:0:0:
272,176,100863,1,8,0:0:0:0:
112,192,101204,5,0,0:0:0:0:
288,272,101545,1,8,0:0:0:0:
256,272,101715,1,4,0:0:0:0:
448,192,102056,1,8,0:0:0:0:
480,192,102226,1,4,0:0:0:0:
288,192,102567,1,8,0:0:0:0:
64,208,102908,5,4,0:0:0:0:
160,208,103079,2,0,L|224:320,1,100,8|4,0:0|0:0,0:0:0:0:
304,288,103590,1,8,0:0:0:0:
432,288,103931,1,4,0:0:0:0:
304,288,104272,2,0,P|256:272|208:224,1,100,4|4,0:0|0:0,0:0:0:0:
144,240,104783,1,8,0:0:0:0:
304,224,105124,6,0,P|400:208|416:176,1,100,8|0,0:0|0:0,0:0:0:0:
480,208,105636,1,12,0:0:0:0:
368,112,105976,1,0,0:0:0:0:
288,112,106317,2,0,L|192:144,1,100,0|8,0:0|0:0,0:0:0:0:
112,128,106999,5,4,0:0:0:0:
176,128,107170,1,8,0:0:0:0:
384,224,107511,1,8,0:0:0:0:
208,224,107852,1,4,0:0:0:0:
368,224,108192,5,4,0:0:0:0:
272,224,108363,2,0,L|320:112,1,100,8|0,0:0|0:0,0:0:0:0:
480,128,109045,2,0,L|432:16,1,100,12|0,0:0|0:0,0:0:0:0:
176,80,109726,2,0,P|128:96|64:160,1,100,12|0,0:0|0:0,0:0:0:0:
272,128,110408,1,0,0:0:0:0:
384,128,110749,5,0,0:0:0:0:
432,128,110920,1,0,0:0:0:0:
480,128,111090,2,0,P|432:192|416:192,1,100,12|0,0:0|0:0,0:0:0:0:
256,192,111772,5,0,0:0:0:0:
192,192,111942,2,0,L|96:112,1,100
224,96,112454,2,0,L|320:48,1,100,12|0,0:0|0:0,0:0:0:0:
400,48,112965,1,0,0:0:0:0:
256,192,113306,5,0,0:0:0:0:
176,192,113476,2,0,L|96:128,1,100,0|12,0:0|0:0,0:0:0:0:
256,96,114158,1,0,0:0:0:0:
320,96,114329,1,0,0:0:0:0:
384,96,114499,2,0,L|464:192,1,100
256,224,115181,6,0,L|96:224|80:224,1,150,12|0,0:0|0:0,0:0:0:0:
48,224,115863,1,0,0:0:0:0:
176,224,116204,1,0,0:0:0:0:
272,224,116545,2,0,L|432:224|448:224,1,150,12|0,0:0|0:0,0:0:0:0:
480,224,117227,1,0,0:0:0:0:
368,224,117567,1,0,0:0:0:0:
208,240,117908,6,0,P|112:224|256:160,1,400,12|12,0:0|0:0,0:0:0:0:
400,144,119613,1,8,0:0:0:0:
256,144,119954,1,0,0:0:0:0:
112,144,120295,1,0,0:0:0:0:
256,144,120636,5,6,0:0:0:0:
400,144,120806,2,0,L|320:224,1,100
176,208,121317,1,8,0:0:0:0:
320,208,121658,1,0,0:0:0:0:
448,208,121999,5,4,0:0:0:0:
368,208,122170,2,0,L|288:144,2,100,8|8|4,0:0|0:0|0:0,0:0:0:0:
272,208,123022,1,8,0:0:0:0:
112,208,123363,1,4,0:0:0:0:
48,208,123533,1,8,0:0:0:0:
224,208,123874,1,0,0:0:0:0:
352,208,124215,1,0,0:0:0:0:
480,208,124556,5,4,0:0:0:0:
400,208,124726,2,0,L|272:272,1,100,8|0,0:0|0:0,0:0:0:0:
128,256,125408,2,8,L|256:320,1,100
336,192,126090,5,4,0:0:0:0:
256,192,126261,2,0,L|128:160,1,100,8|4,0:0|0:0,0:0:0:0:
80,112,126772,1,8,0:0:0:0:
192,112,127113,1,0,0:0:0:0:
320,112,127454,1,4,0:0:0:0:
400,112,127624,2,0,L|432:208,1,100,8|4,0:0|0:0,0:0:0:0:
352,208,128136,1,8,0:0:0:0:
208,208,128476,5,0,0:0:0:0:
128,208,128817,2,0,P|64:128|64:80,2,150,12|0|12,0:0|0:0|0:0,0:0:0:0:
320,112,130181,5,4,0:0:0:0:
384,112,130351,1,8,0:0:0:0:
176,208,130692,1,4,0:0:0:0:
112,208,130862,1,8,0:0:0:0:
320,272,131204,5,8,0:0:0:0:
400,272,131374,1,8,0:0:0:0:
512,272,131545,2,0,L|432:160,1,100,12|0,0:0|0:0,0:0:0:0:
128,192,132226,2,0,L|208:80,1,100,12|0,0:0|0:0,0:0:0:0:
336,112,132908,5,12,0:0:0:0:
384,112,133079,1,0,0:0:0:0:
480,112,133420,1,0,0:0:0:0:
384,112,133761,1,0,0:0:0:0:
304,112,133931,1,0,0:0:0:0:
224,112,134101,1,0,0:0:0:0:
48,128,134272,6,0,L|32:256,1,100,4|0,0:0|0:0,0:0:0:0:
208,176,134954,2,0,L|304:224,1,100,12|0,0:0|0:0,0:0:0:0:
480,192,135636,5,12,0:0:0:0:
432,192,135806,1,0,0:0:0:0:
224,160,136147,1,0,0:0:0:0:
272,160,136317,1,12,0:0:0:0:
448,96,136658,1,0,0:0:0:0:
400,96,136828,1,0,0:0:0:0:
352,96,136999,6,0,L|224:96,1,100,12|0,0:0|0:0,0:0:0:0:
144,192,137681,2,0,L|272:192,1,100,12|0,0:0|0:0,0:0:0:0:
368,192,138363,2,12,P|464:176|480:128,2,150
160,192,139726,5,12,0:0:0:0:
256,192,139897,2,0,L|144:112,1,100
80,144,140408,2,0,L|128:48,1,100,12|0,0:0|0:0,0:0:0:0:
352,192,141090,5,12,0:0:0:0:
432,176,141261,2,8,L|320:96,1,100
256,112,141772,1,8,0:0:0:0:
144,112,142113,1,8,0:0:0:0:
368,112,142454,1,8,0:0:0:0:
256,192,150636,12,4,153363,0:0:0:0:
224,224,153704,6,0,L|64:224,1,150,8|2,0:0|0:0,0:0:0:0:
224,224,154386,1,8,0:0:0:0:
256,128,154726,1,0,0:0:0:0:
288,224,155067,2,0,L|448:224,1,150,8|2,0:0|0:0,0:0:0:0:
288,224,155749,1,8,0:0:0:0:
176,224,156090,6,0,P|128:160|128:96,1,100,0|8,0:0|0:0,0:0:0:0:
176,80,156601,1,0,0:0:0:0:
336,224,156772,2,0,P|384:160|384:96,1,100,0|8,0:0|0:0,0:0:0:0:
336,80,157283,1,0,0:0:0:0:
176,224,157454,6,0,P|128:192|112:144,1,100,0|8,0:0|0:0,0:0:0:0:
176,128,157965,1,0,0:0:0:0:
336,224,158136,2,0,P|384:192|400:144,1,100,0|8,0:0|0:0,0:0:0:0:
336,128,158647,1,0,0:0:0:0:
192,192,158817,6,0,L|16:192,2,150,0|8|8,0:0|0:0|0:0,0:0:0:0:
320,192,160181,2,0,L|496:192,2,150,0|8|8,0:0|0:0|0:0,0:0:0:0:
112,208,161545,2,0,L|80:80,1,100,0|8,0:0|0:0,0:0:0:0:
400,208,162226,2,0,L|432:80,1,100,0|8,0:0|0:0,0:0:0:0:
208,160,162908,5,0,0:0:0:0:
80,160,163249,1,8,0:0:0:0:
368,160,163590,2,0,L|144:160,1,200
256,192,169726,12,0,173817,0:0:0:0:
208,224,174499,6,2,L|176:176,1,50
304,224,174840,2,2,L|336:176,1,50
448,128,175181,6,0,L|272:128,1,150,4|0,0:0|0:0,0:0:0:0:
176,128,175863,1,0,0:0:0:0:
64,128,176204,1,0,0:0:0:0:
224,224,176545,2,0,L|416:224,1,150,4|0,0:0|0:0,0:0:0:0:
464,224,177226,1,0,0:0:0:0:
336,320,177567,1,0,0:0:0:0:
192,288,177908,6,0,L|96:176,1,100,4|0,0:0|0:0,0:0:0:0:
336,192,178590,2,0,L|432:80,1,100,4|0,0:0|0:0,0:0:0:0:
176,96,179272,5,0,0:0:0:0:
112,96,179442,1,8,0:0:0:0:
336,96,179783,1,0,0:0:0:0:
400,96,179953,1,8,0:0:0:0:
256,304,180295,1,0,0:0:0:0:
144,304,180466,1,8,0:0:0:0:
16,304,180636,6,0,L|96:240,1,100,4|0,0:0|0:0,0:0:0:0:
304,208,181317,2,0,L|224:144,1,100,4|0,0:0|0:0,0:0:0:0:
336,96,181999,2,0,L|512:96,2,150,4|8|8,0:0|0:0|0:0,0:0:0:0:
176,96,183363,6,0,P|112:128|64:176,1,100,12|0,0:0|0:0,0:0:0:0:
256,96,184045,2,0,P|320:128|368:176,1,100,12|0,0:0|0:0,0:0:0:0:
480,208,184726,1,8,0:0:0:0:
352,208,184897,1,8,0:0:0:0:
224,208,185067,2,0,L|96:208,1,100
416,224,186090,6,0,P|352:224|320:160,1,100,4|8,0:0|0:0,0:0:0:0:
240,208,186601,1,0,0:0:0:0:
112,128,186942,1,0,0:0:0:0:
336,128,187283,1,0,0:0:0:0:
448,128,187454,2,0,L|496:224,1,100,4|8,0:0|0:0,0:0:0:0:
352,224,187965,1,0,0:0:0:0:
240,208,188306,1,0,0:0:0:0:
112,208,188647,5,0,0:0:0:0:
240,208,188817,2,0,L|416:208,2,150,4|8|8,0:0|0:0|0:0,0:0:0:0:
160,144,190181,2,0,L|-16:144,2,150,4|8|8,0:0|0:0|0:0,0:0:0:0:
400,112,191545,6,0,P|464:208|448:240,1,150,4|4,0:0|0:0,0:0:0:0:
336,224,192226,1,8,0:0:0:0:
192,224,192567,1,0,0:0:0:0:
96,112,192908,6,0,P|32:208|48:240,1,150,4|4,0:0|0:0,0:0:0:0:
176,224,193589,1,8,0:0:0:0:
320,224,193931,1,0,0:0:0:0:
416,224,194272,2,0,P|496:144|496:96,1,150,4|4,0:0|0:0,0:0:0:0:
364,70,194954,2,0,L|320:160,1,100,8|0,0:0|0:0,0:0:0:0:
176,80,195636,5,4,0:0:0:0:
32,192,195976,1,8,0:0:0:0:
176,256,196317,1,4,0:0:0:0:
400,256,196658,2,0,L|432:160,1,100,0|4,0:0|0:0,0:0:0:0:
272,160,197340,2,0,L|208:160,1,50,4|8,0:0|0:0,0:0:0:0:
32,160,197851,2,0,L|96:160,1,50,4|8,0:0|0:0,0:0:0:0:
320,128,198363,6,0,L|416:176,1,100,4|4,0:0|0:0,0:0:0:0:
320,256,198874,1,8,0:0:0:0:
208,256,199215,1,4,0:0:0:0:
96,256,199556,1,8,0:0:0:0:
0,256,199726,2,4,P|48:192|112:176,1,100,4|12,0:0|0:0,0:0:0:0:
256,96,200408,1,0,0:0:0:0:
400,96,200749,1,0,0:0:0:0:
160,208,201090,5,4,0:0:0:0:
96,208,201261,1,8,0:0:0:0:
352,208,201601,1,4,0:0:0:0:
416,208,201772,1,8,0:0:0:0:
160,208,202113,1,4,0:0:0:0:
96,208,202284,1,8,0:0:0:0:
16,208,202454,6,0,P|48:128|96:96,1,100,4|8,0:0|0:0,0:0:0:0:
256,192,203136,2,0,P|224:272|176:304,1,100,4|8,0:0|0:0,0:0:0:0:
16,192,203817,2,0,P|64:208|192:176,1,150,4|0,0:0|0:0,0:0:0:0:
288,96,204670,5,4,0:0:0:0:
400,96,204840,1,8,0:0:0:0:
496,192,205181,2,0,P|464:240|368:256,1,150,4|4,0:0|0:0,0:0:0:0:
208,256,205863,1,8,0:0:0:0:
64,256,206204,1,0,0:0:0:0:
176,112,206545,6,4,P|336:96|256:256,1,400,4|12,0:0|0:0,0:0:0:0:
128,256,208249,1,0,0:0:0:0:
256,256,208590,1,0,0:0:0:0:
384,256,208931,1,0,0:0:0:0:
128,256,209272,2,4,L|32:224,2,100,4|0|4,0:0|0:0|0:0,0:0:0:0:
384,256,210295,1,0,0:0:0:0:
127,242,210636,6,0,L|240:144,1,150
80,128,211317,1,0,0:0:0:0:
256,320,211658,1,0,0:0:0:0:
384,242,211999,2,0,L|272:144,1,150
432,128,212681,1,0,0:0:0:0:
256,320,213022,1,0,0:0:0:0:
32,320,213363,6,0,P|80:224|192:192,1,200,4|0,0:0|0:0,0:0:0:0:
400,128,214386,1,0,0:0:0:0:
256,288,214726,2,0,L|176:288,1,50,4|8,0:0|0:0,0:0:0:0:
16,224,215238,2,0,L|80:224,1,50,4|8,0:0|0:0,0:0:0:0:
352,128,215749,2,0,L|272:128,1,50,4|8,0:0|0:0,0:0:0:0:
144,128,216090,6,4,L|224:272,1,150
304,256,216772,1,8,0:0:0:0:
432,256,217113,1,8,0:0:0:0:
304,208,217454,2,0,L|224:128,1,100,4|8,0:0|0:0,0:0:0:0:
64,160,218136,2,0,L|134:230,1,100,4|8,0:0|0:0,0:0:0:0:
352,288,218817,6,0,L|416:240,1,50,8|0,0:0|0:0,0:0:0:0:
160,288,219329,2,0,L|120:258,1,50,8|0,0:0|0:0,0:0:0:0:
352,144,219840,2,0,L|384:96,1,50,4|0,0:0|0:0,0:0:0:0:
288,64,220181,2,0,L|144:128,1,150,8|8,0:0|0:0,0:0:0:0:
32,176,220863,1,8,0:0:0:0:
256,176,221204,1,4,0:0:0:0:
416,192,221545,6,8,L|384:240,1,50
240,224,222056,2,8,L|267:182,1,50
96,192,222567,2,8,L|64:240,1,50,4|0,0:0|0:0,0:0:0:0:
144,304,222908,2,4,L|304:304,1,150,8|8,0:0|0:0,0:0:0:0:
368,304,223590,1,8,0:0:0:0:
480,224,223931,5,8,0:0:0:0:
368,224,224101,1,8,0:0:0:0:
256,224,224272,2,0,L|32:224,1,200,4|0,0:0|0:0,0:0:0:0:
256,192,225295,1,0,0:0:0:0:
32,192,225636,2,0,P|128:144|224:160,1,200,4|0,0:0|0:0,0:0:0:0:
384,192,226658,5,0,0:0:0:0:
160,192,226999,1,4,0:0:0:0:
112,192,227170,1,0,0:0:0:0:
288,128,227511,1,0,0:0:0:0:
432,128,227851,1,0,0:0:0:0:
256,128,228192,1,0,0:0:0:0:
112,128,228363,6,0,L|48:256,1,100,4|0,0:0|0:0,0:0:0:0:
320,224,229045,2,0,L|384:352,1,100,4|0,0:0|0:0,0:0:0:0:
48,192,229726,2,0,L|288:192,1,200,4|0,0:0|0:0,0:0:0:0:
416,192,230749,1,0,0:0:0:0:
240,192,231090,6,0,P|144:288|48:320,1,200,4|0,0:0|0:0,0:0:0:0:
368,304,232113,1,0,0:0:0:0:
48,192,232454,2,0,L|464:192,2,400,0|0|4,0:0|0:0|0:0,0:0:0:0:
256,192,235522,12,0,237908,0:0:0:0:
