osu file format v14

[General]
AudioFilename: Akatsuki No Tsuki.mp3
AudioLeadIn: 0
PreviewTime: 185408
Countdown: 0
SampleSet: None
StackLeniency: 0.7
Mode: 2
LetterboxInBreaks: 0
WidescreenStoryboard: 0

[Editor]
DistanceSpacing: 1.2
BeatDivisor: 4
GridSize: 4
TimelineZoom: 1.4

[Metadata]
Title:Akatsuki no Tsuki
TitleUnicode:暁ノ月
Artist:void feat. Komatsuna
ArtistUnicode:void feat. 小松菜
Creator:Spectator
Version:Frobe's Platter
Source:
Tags:GAMI Frobe [Superstar] remind a locus samurai dancehall electro planet mournfinale
BeatmapID:681402
BeatmapSetID:297668

[Difficulty]
HPDrainRate:4.7
CircleSize:4
OverallDifficulty:8
ApproachRate:8
SliderMultiplier:1.6
SliderTickRate:2

[Events]
//Background and Video events
0,0,"void.jpg",0,0
//Break Periods
2,77199,83067
2,142654,149886
2,164472,168976
//Storyboard Layer 0 (Background)
//Storyboard Layer 1 (Fail)
//Storyboard Layer 2 (Pass)
//Storyboard Layer 3 (Foreground)
//Storyboard Sound Samples

[TimingPoints]
636,340.909090909091,4,3,1,30,1,0
636,-133.333333333333,4,3,1,30,0,0
2170,-133.333333333333,4,3,1,20,0,0
2340,-133.333333333333,4,3,1,30,0,0
2596,-133.333333333333,4,3,1,7,0,0
3022,-133.333333333333,4,3,1,30,0,0
4897,-133.333333333333,4,3,1,20,0,0
5067,-133.333333333333,4,3,1,30,0,0
5238,-133.333333333333,4,3,1,15,0,0
5749,-133.333333333333,4,3,1,30,0,0
5920,-133.333333333333,4,3,1,15,0,0
6090,-133.333333333333,4,3,1,30,0,0
8136,-133.333333333333,4,3,1,15,0,0
8476,-133.333333333333,4,3,1,30,0,0
8817,-133.333333333333,4,3,1,15,0,0
9499,-133.333333333333,4,3,1,17,0,0
10011,-133.333333333333,4,3,1,21,0,0
10522,-133.333333333333,4,3,1,24,0,0
11033,-133.333333333333,4,3,1,26,0,0
11545,-100,4,3,1,45,0,0
21772,-100,4,1,1,50,0,0
22113,-100,4,1,1,35,0,0
22454,-100,4,3,1,48,0,0
24670,-100,4,3,72,48,0,0
24840,-100,4,3,1,48,0,0
30124,-100,4,3,72,48,0,0
30295,-100,4,3,1,48,0,0
32851,-100,4,3,1,35,0,0
33022,-100,4,3,1,45,0,0
33363,-100,4,3,1,50,0,0
35579,-100,4,3,72,50,0,0
35749,-100,4,3,1,50,0,0
43249,-100,4,3,1,49,0,0
43590,-100,4,3,1,52,0,0
43931,-100,4,3,1,54,0,0
44272,-100,4,3,1,53,0,0
45124,-100,4,3,72,53,0,0
45295,-100,4,3,1,53,0,0
46488,-100,4,3,72,53,0,0
46658,-100,4,3,1,53,0,0
49726,-100,4,3,1,55,0,0
51942,-100,4,3,72,55,0,0
52113,-100,4,3,1,55,0,0
54499,-100,4,1,50,75,0,0
54840,-100,4,1,50,40,0,0
55181,-100,4,3,20,90,0,1
55266,-100,4,3,1,65,0,1
59783,-100,4,3,1,80,0,1
60636,-100,4,3,1,65,0,1
63363,-100,4,3,1,70,0,1
66005,-100,4,3,1,70,0,0
66090,-100,4,3,1,65,0,1
76914,-100,4,3,1,65,0,0
76999,-100,4,3,1,65,0,1
77084,-100,4,3,1,65,0,0
83817,-100,4,3,1,30,0,0
86545,-100,4,1,1,30,0,0
86886,-100,4,1,1,35,0,0
87226,-100,4,1,1,40,0,0
87397,-100,4,1,1,45,0,0
87908,-100,4,3,1,51,0,0
98817,-100,4,3,1,53,0,0
108704,-100,4,3,1,54,0,0
109045,-100,4,3,1,55,0,0
109386,-100,4,3,1,56,0,0
110579,-100,4,3,72,56,0,0
110749,-100,4,3,1,56,0,0
111942,-100,4,3,72,56,0,0
112113,-100,4,3,1,56,0,0
117397,-100,4,3,72,56,0,0
117567,-100,4,3,1,56,0,0
119954,-100,4,1,50,75,0,0
120295,-100,4,1,50,40,0,0
120636,-100,4,3,20,90,0,1
120721,-100,4,3,1,65,0,1
131459,-100,4,3,1,65,0,0
131545,-100,4,3,1,65,0,1
142454,-100,4,3,1,65,0,0
153363,-100,4,3,1,65,0,1
153448,-100,4,3,1,65,0,0
153533,-100,4,2,1,65,0,0
162908,-100,4,2,1,59,0,0
163079,-100,4,2,1,49,0,0
163249,-100,4,2,1,38,0,0
163420,-100,4,2,1,29,0,0
163590,-100,4,3,1,60,0,0
164272,-100,4,3,20,90,0,0
169726,-100,4,2,1,40,0,0
174499,-100,4,2,1,50,0,0
174840,-100,4,2,1,30,0,0
175181,-100,4,1,1,53,0,0
177226,-100,4,3,72,53,0,0
177397,-100,4,1,1,53,0,0
180806,-100,4,3,72,53,0,0
180976,-100,4,1,1,53,0,0
182170,-100,4,3,72,53,0,0
182340,-100,4,1,1,53,0,0
182681,-100,4,3,72,53,0,0
182851,-100,4,1,1,53,0,0
185408,-100,4,1,50,75,0,0
185749,-100,4,1,50,40,0,0
186090,-100,4,3,20,100,0,1
186175,-100,4,3,1,75,0,1
197255,-100,4,3,1,5,0,0
197340,-100,4,3,20,95,0,1
197425,-100,4,3,1,75,0,1
210124,-100,4,3,72,75,0,1
210295,-100,4,3,1,75,0,1
213363,-100,4,3,20,75,0,0
214045,-100,4,3,1,70,0,0
214726,-100,4,3,1,60,0,0
215408,-100,4,3,1,55,0,0
216090,-100,4,3,1,50,0,0
216772,-100,4,3,1,45,0,0
217454,-100,4,3,1,40,0,0
218136,-100,4,3,1,35,0,0
218817,-100,4,2,1,50,0,0
223761,-100,4,2,1,30,0,0
224272,-100,4,2,1,55,0,0
229897,-100,4,2,1,46,0,0
235181,-100,4,3,1,50,0,0
237908,-100,4,3,1,60,0,1
237993,-100,4,3,1,60,0,0

[Colours]
Combo1 : 232,210,113
Combo2 : 210,210,210
Combo3 : 111,157,227
Combo4 : 209,99,143

[HitObjects]
168,162,636,6,0,P|110:150|44:176,1,120.000004577637,4|8,0:0|0:0,0:0:0:0:
177,255,1147,2,0,P|235:267|301:241,1,120.000004577637,4|0,0:0|0:0,0:0:0:0:
148,186,1658,1,0,0:0:0:0:
274,109,1999,2,0,L|300:164,1,60.0000022888184,4|8,0:0|0:0,0:0:0:0:
469,54,2340,2,0,L|423:165,2,120.000004577637,0|0|4,0:0|0:0|0:0,0:0:0:0:
234,95,3363,6,0,P|302:104|352:213,2,180.000006866455,4|0|4,0:0|0:0|0:0,0:0:0:0:
12,138,4726,2,0,L|71:194,1,60.0000022888184,4|8,0:0|0:0,0:0:0:0:
194,137,5067,2,0,L|135:193,1,60.0000022888184
91,137,5579,2,0,L|150:193,2,60.0000022888184,0|4|0,0:0|0:0|0:0,0:0:0:0:
249,75,6090,6,0,P|283:92|317:191,1,120.000004577637,4|8,0:0|0:0,0:0:0:0:
443,76,6601,2,0,P|409:93|375:192,1,120.000004577637,4|0,0:0|0:0,0:0:0:0:
201,162,7113,1,4,0:0:0:0:
408,241,7454,2,0,P|378:239|344:217,1,60.0000022888184,4|8,0:0|0:0,0:0:0:0:
200,268,7795,2,0,L|56:263,1,120.000004577637
312,268,8476,1,4,0:0:0:0:
256,192,8817,12,0,11204,0:0:0:0:
88,354,11545,6,0,L|23:295,2,80,4|0|0,1:0|0:0|1:0,0:0:0:0:
249,322,12056,1,0,0:0:0:0:
116,309,12226,2,0,P|101:235|158:183,1,160,0|0,0:0|1:0,0:0:0:0:
257,174,12738,1,0,0:0:0:0:
354,214,12908,6,0,P|400:219|441:122,1,160,0|0,0:0|1:2,0:0:0:0:
158,214,13590,2,0,P|112:219|71:122,1,160,0|0,0:0|1:0,0:0:0:0:
234,100,14272,6,0,L|254:184,1,80
436,170,14613,2,0,L|417:92,1,80,0|0,1:0|0:0,0:0:0:0:
264,201,14954,2,0,L|169:67,1,160,0|0,0:0|1:0,0:0:0:0:
380,200,15636,6,0,P|401:177|454:205,1,80
271,284,15976,2,0,P|250:307|197:279,1,80,0|0,1:0|0:0,0:0:0:0:
366,177,16317,2,0,P|400:153|479:224,1,160,0|0,0:0|1:0,0:0:0:0:
328,91,16829,1,0,0:0:0:0:
189,169,16999,6,0,P|141:177|61:90,1,160,0|0,0:0|1:0,0:0:0:0:
208,18,17511,2,0,P|142:13|153:97,1,160
236,76,18022,1,0,1:0:0:0:
418,131,18363,6,0,L|350:286,1,160,0|0,0:0|1:0,0:0:0:0:
94,131,19045,2,0,L|162:286,1,160,0|0,0:0|1:0,0:0:0:0:
414,284,19726,6,0,L|448:356,3,80,0|0|0|0,0:0|0:0|1:0|0:0,0:0:0:0:
290,287,20408,2,0,L|261:363,3,80,0|0|0|0,0:0|0:0|1:0|0:0,0:0:0:0:
426,286,21090,5,4,0:0:0:0:
441,241,21175,1,0,0:0:0:0:
426,195,21261,1,4,0:0:0:0:
385,169,21346,1,0,0:0:0:0:
349,162,21431,1,4,0:0:0:0:
302,151,21516,1,0,0:0:0:0:
261,125,21601,1,4,0:0:0:0:
246,79,21687,1,0,0:0:0:0:
261,34,21772,5,0,0:0:0:0:
389,52,21942,1,4,0:0:0:0:
261,34,22113,2,0,L|252:83,1,40,4|0,0:3|0:0,0:0:0:0:
200,81,22283,2,0,L|209:130,1,40
282,161,22454,6,0,L|253:321,1,160,4|8,1:2|1:0,0:0:0:0:
84,164,22965,2,0,L|112:327,1,160,0|4,0:0|0:0,0:0:0:0:
339,307,23476,1,8,1:0:0:0:
211,322,23817,6,0,L|140:284,2,80,0|0|8,0:0|0:0|1:0,0:0:0:0:
81,331,24329,1,0,0:0:0:0:
236,344,24499,2,0,P|308:313|380:346,1,160,8|8,0:0|1:0,0:0:0:0:
165,109,25181,6,0,P|193:159|285:147,1,160,0|8,0:0|1:0,0:0:0:0:
431,125,25692,2,0,P|403:175|308:169,1,160,0|4,0:0|0:0,0:0:0:0:
59,91,26204,1,8,1:0:0:0:
285,149,26545,6,0,P|351:185|336:286,1,160,0|8,0:0|1:0,0:0:0:0:
206,307,27056,1,0,0:0:0:0:
68,346,27226,2,0,L|17:284,3,80,0|4|8|4,0:0|0:0|1:0|0:0,0:0:0:0:
277,351,27908,6,0,P|333:308|346:214,1,160,0|8,0:0|1:0,0:0:0:0:
175,346,28420,2,0,P|119:303|105:208,1,160,0|4,0:0|0:0,0:0:0:0:
289,197,28931,2,0,L|248:127,1,80,8|0,1:0|0:0,0:0:0:0:
81,206,29272,6,0,L|138:37,1,160,0|8,0:0|1:0,0:0:0:0:
431,206,29954,2,0,L|374:37,1,160,8|8,0:0|1:0,0:0:0:0:
182,156,30636,6,0,P|245:149|296:230,1,160,0|8,0:0|1:0,0:0:0:0:
127,291,31147,2,0,P|166:338|257:326,1,160,0|4,0:0|0:0,0:0:0:0:
386,305,31658,1,8,1:0:0:0:
273,270,31829,6,0,L|302:190,1,80,0|4,0:0|0:0,0:0:0:0:
459,270,32170,2,0,L|434:190,1,80,4|8,0:0|1:0,0:0:0:0:
257,198,32511,2,0,L|337:51,1,160,4|4,0:0|0:0,0:0:0:0:
205,39,33022,1,0,1:0:0:0:
344,24,33192,1,4,1:3:0:0:
110,146,33363,6,0,P|52:135|21:47,1,160,4|8,1:2|1:0,0:0:0:0:
187,129,33874,2,0,P|193:198|108:231,1,160,0|4,0:0|0:0,0:0:0:0:
297,266,34386,1,8,1:0:0:0:
408,309,34726,5,0,0:0:0:0:
104,309,35067,2,0,L|150:241,1,80,8|0,1:0|0:0,0:0:0:0:
321,174,35408,2,0,P|279:177|198:99,1,160,8|8,0:0|1:0,0:0:0:0:
408,50,36090,6,0,P|355:41|268:107,1,160,0|8,0:0|1:0,0:0:0:0:
104,50,36601,2,0,P|157:41|244:107,1,160,0|4,0:0|0:0,0:0:0:0:
76,124,37113,1,8,1:0:0:0:
256,179,37454,6,0,L|189:329,1,160,0|8,0:0|1:0,0:0:0:0:
243,346,37965,1,0,0:0:0:0:
86,352,38136,2,0,L|119:269,1,80,0|4,0:0|0:0,0:0:0:0:
261,282,38476,2,0,L|293:200,1,80,8|0,1:0|0:0,0:0:0:0:
449,128,38817,6,0,P|481:149|490:265,1,160,0|8,0:0|1:0,0:0:0:0:
357,201,39329,2,0,P|325:222|318:339,1,160,0|4,0:0|0:0,0:0:0:0:
412,351,39840,1,8,1:0:0:0:
256,200,40011,1,0,0:0:0:0:
100,351,40181,6,0,L|137:195,1,160,0|8,0:0|1:0,0:0:0:0:
340,179,40863,2,0,L|396:117,2,80,8|4|8,0:0|0:0|1:0,0:0:0:0:
457,189,41374,1,0,0:0:0:0:
303,229,41545,6,0,L|332:50,1,160,0|8,0:0|0:1,0:0:0:0:
209,229,42056,2,0,L|180:50,1,160,0|4,0:0|0:0,0:0:0:0:
254,69,42567,1,8,0:1:0:0:
42,93,42908,6,0,L|79:166,2,80,4|4|8,0:0|0:0|0:1,0:0:0:0:
200,117,43420,1,4,0:0:0:0:
72,183,43590,1,4,0:0:0:0:
200,117,43761,1,0,0:0:0:0:
209,103,43846,1,4,0:0:0:0:
218,89,43931,1,0,0:0:0:0:
113,76,44101,1,4,0:0:0:0:
447,199,44272,6,0,P|500:222|465:318,1,160,4|8,1:2|1:0,0:0:0:0:
65,199,44954,2,0,P|12:222|47:318,1,160,0|8,0:0|1:0,0:0:0:0:
139,317,45465,1,0,0:0:0:0:
46,340,45636,6,0,P|92:360|186:311,1,160,8|8,0:0|1:0,0:0:0:0:
466,340,46317,2,0,P|420:360|326:311,1,160,0|8,0:0|1:0,0:0:0:0:
410,244,46829,1,0,0:0:0:0:
297,157,46999,6,0,L|283:324,1,160,4|8,1:2|1:0,0:0:0:0:
395,336,47681,1,0,0:0:0:0:
117,336,48022,1,8,1:0:0:0:
258,305,48192,1,0,0:0:0:0:
177,254,48363,6,0,P|166:205|237:135,1,160,8|8,0:0|1:0,0:0:0:0:
161,97,48874,1,8,0:0:0:0:
387,90,49215,2,0,L|329:32,2,80,8|4|4,0:0|0:0|0:0,0:0:0:0:
144,110,49726,6,0,L|116:268,1,160,0|8,1:0|1:0,0:0:0:0:
256,304,50238,1,0,0:0:0:0:
396,268,50408,2,0,L|339:208,2,80,4|4|8,0:0|0:0|1:0,0:0:0:0:
232,200,51090,5,4,1:2:0:0:
463,297,51431,2,0,L|418:227,1,80,8|0,1:0|0:0,0:0:0:0:
256,237,51772,2,0,L|349:107,1,160,0|8,0:0|1:0,0:0:0:0:
138,100,52454,6,0,L|75:48,3,80,4|4|8|4,1:2|0:0|1:0|0:0,0:0:0:0:
221,37,53136,6,0,P|257:80|317:75,1,120,4|4,1:2|1:2,0:0:0:0:
122,160,53647,1,4,1:2:0:0:
378,178,53817,6,0,L|396:283,1,80,12|12,0:0|0:0,0:0:0:0:
460,358,54158,2,0,P|435:322|402:315,1,80,4|12,0:1|0:0,0:0:0:0:
244,366,54499,6,0,P|238:313|328:250,1,160,2|0,0:0|0:0,0:0:0:0:
353,246,54925,1,0,0:0:0:0:
379,215,55011,1,0,0:0:0:0:
361,178,55096,1,0,0:0:0:0:
290,161,55181,6,0,P|252:125|306:33,1,160,0|10,0:0|0:2,0:0:0:0:
438,43,55692,2,0,L|484:134,1,80,0|4,0:0|0:0,0:0:0:0:
308,47,56033,2,4,L|262:138,2,80,4|10|0,0:0|0:2|0:0,0:0:0:0:
86,143,56715,5,0,0:0:0:0:
192,191,56886,2,0,P|146:186|100:148,1,80,10|4,0:2|0:0,0:0:0:0:
239,98,57226,1,0,0:0:0:0:
117,168,57397,2,0,L|93:128,1,40,4|0,0:0|0:0,0:0:0:0:
48,126,57567,2,0,L|24:86,2,40,10|0|0,0:2|0:0|0:0,0:0:0:0:
302,220,57908,6,0,L|254:372,1,160,8|10,0:0|0:2,0:0:0:0:
109,329,58420,1,0,0:0:0:0:
228,280,58590,2,0,L|196:193,1,80,4|4,0:0|0:0,0:0:0:0:
70,238,58931,2,0,L|102:151,1,80,10|0,0:2|0:0,0:0:0:0:
238,122,59272,6,0,P|310:97|321:18,1,160,0|10,0:0|0:2,0:0:0:0:
231,32,59783,2,0,L|201:74,2,40,8|0|4,0:0|0:0|0:0,0:0:0:0:
369,26,60124,1,4,0:0:0:0:
448,35,60295,1,10,0:2:0:0:
476,110,60465,1,4,0:0:0:0:
225,214,60636,6,0,L|64:203,1,160,4|10,0:1|0:2,0:0:0:0:
176,119,61147,2,0,L|15:108,1,160,0|4,0:0|0:0,0:0:0:0:
122,27,61658,1,10,0:2:0:0:
287,214,61999,6,0,L|448:203,1,160,4|10,0:1|0:2,0:0:0:0:
336,119,62510,2,0,L|497:108,1,160,0|4,0:0|0:0,0:0:0:0:
390,27,63021,1,10,0:2:0:0:
486,59,63192,1,4,0:0:0:0:
372,64,63363,5,4,0:1:0:0:
140,64,63704,1,10,0:2:0:0:
388,96,64045,2,0,L|377:177,1,80,4|4,0:0|0:0,0:0:0:0:
217,198,64386,2,0,L|206:279,1,80,10|0,0:2|0:0,0:0:0:0:
369,333,64726,6,0,P|414:302|389:187,1,160,8|10,0:0|0:2,0:0:0:0:
143,333,65408,2,0,P|98:302|123:187,1,160,8|0,0:0|0:0,0:0:0:0:
120,169,65834,1,0,0:0:0:0:
149,141,65920,1,0,0:0:0:0:
264,167,66090,5,4,1:2:0:0:
57,217,66431,2,0,L|125:282,1,80,10|0,0:2|0:0,0:0:0:0:
263,305,66772,2,0,P|220:347|112:340,1,160,4|10,0:0|0:2,0:0:0:0:
395,369,67283,2,0,L|456:309,2,80
452,312,67795,5,10,0:2:0:0:
299,234,67965,2,0,P|220:218|113:236,1,160,4|4,0:0|0:0,0:0:0:0:
78,222,68391,2,0,L|61:181,3,40,0|10|0|0,0:0|0:2|0:0|0:0,0:0:0:0:
294,121,68817,6,0,P|360:161|433:135,1,160,8|10,0:0|0:2,0:0:0:0:
384,52,69329,1,0,0:0:0:0:
217,121,69499,2,0,P|151:161|79:135,1,160,4|10,0:0|0:2,0:0:0:0:
117,63,70011,1,0,0:0:0:0:
14,50,70181,5,4,0:0:0:0:
233,201,70522,1,10,0:2:0:0:
291,146,70692,1,8,0:0:0:0:
279,107,70778,1,0,0:0:0:0:
242,90,70863,1,12,0:0:0:0:
126,84,71033,1,12,0:0:0:0:
138,45,71119,1,0,0:0:0:0:
175,28,71204,1,10,0:2:0:0:
81,18,71374,1,8,0:0:0:0:
343,117,71545,6,0,P|396:108|434:11,1,160,4|10,0:1|0:2,0:0:0:0:
175,77,72226,2,0,L|227:159,2,80,4|4|10,0:0|0:0|0:2,0:0:0:0:
321,109,72738,1,0,0:0:0:0:
176,202,72908,6,0,P|123:193|85:96,1,160,4|10,0:1|0:2,0:0:0:0:
252,49,73590,2,0,L|274:147,1,80,4|4,0:0|0:0,0:0:0:0:
412,124,73931,2,0,L|434:222,1,80,10|0,0:2|0:0,0:0:0:0:
276,273,74272,6,0,L|108:259,1,160,4|10,0:1|0:2,0:0:0:0:
247,186,74954,2,0,L|339:167,1,80,4|4,0:0|0:0,0:0:0:0:
197,114,75295,2,0,L|105:95,1,80,10|0,0:2|0:0,0:0:0:0:
268,44,75636,5,4,0:0:0:0:
342,72,75806,1,4,0:0:0:0:
362,149,75976,1,10,0:2:0:0:
223,197,76147,1,4,0:0:0:0:
370,255,76317,2,0,P|311:275|289:344,2,120,12|12|12,0:0|0:0|0:0,0:0:0:0:
25,161,76999,5,4,1:2:0:0:
256,192,83817,12,0,86204,0:0:0:0:
129,314,86545,6,0,L|94:240,1,80,4|4,0:3|0:3,0:0:0:0:
205,316,86886,2,8,L|240:242,1,80,4|4,0:3|0:3,0:3:0:0:
128,314,87226,6,0,L|109:277,1,40,12|8,0:3|2:3,0:0:0:0:
159,242,87397,2,0,L|178:205,1,40,4|0,0:3|2:0,0:0:0:0:
128,167,87567,2,0,L|109:130,1,40,4|0,0:3|2:0,0:0:0:0:
159,95,87738,2,0,L|178:58,1,40,4|0,0:3|2:0,0:0:0:0:
240,63,87908,6,0,P|203:121|217:229,1,160,4|8,1:2|1:0,0:0:0:0:
345,64,88420,2,0,P|382:122|370:232,1,160,0|4,0:0|0:0,0:0:0:0:
219,254,88931,1,8,1:0:0:0:
303,315,89272,6,0,L|237:248,2,80,0|0|8,0:0|0:0|1:0,0:0:0:0:
184,322,89783,1,0,0:0:0:0:
315,320,89954,2,0,L|289:244,1,80,0|4,0:0|0:0,0:0:0:0:
44,279,90295,1,8,1:0:0:0:
237,253,90636,6,0,P|280:240|308:125,1,160,0|8,0:0|1:0,0:0:0:0:
163,158,91147,2,0,L|229:5,1,160,0|4,0:0|0:0,0:0:0:0:
375,17,91658,1,8,1:0:0:0:
133,157,91999,5,0,0:0:0:0:
401,241,92340,2,0,L|366:164,1,80,8|0,1:0|0:0,0:0:0:0:
229,249,92681,2,0,L|176:171,2,80,0|4|8,0:0|0:0|1:0,0:0:0:0:
368,248,93192,1,4,0:0:0:0:
230,291,93363,6,0,P|187:317|92:279,1,160,0|8,0:0|1:0,0:0:0:0:
240,342,93874,2,0,L|266:180,1,160,0|4,0:0|0:0,0:0:0:0:
139,208,94386,1,8,1:0:0:0:
260,193,94556,1,0,0:0:0:0:
88,280,94726,6,0,L|109:122,1,160,0|8,0:0|1:0,0:0:0:0:
348,139,95408,2,0,L|316:52,1,80,0|4,0:0|0:0,0:0:0:0:
160,163,95749,2,0,L|182:5,1,160,8|0,1:0|0:0,0:0:0:0:
457,185,96431,5,8,1:0:0:0:
407,241,96601,1,0,0:0:0:0:
172,227,96942,1,0,0:0:0:0:
222,283,97112,1,8,1:0:0:0:
117,282,97283,6,0,L|79:198,1,80,0|4,0:0|0:0,0:0:0:0:
242,286,97624,2,0,L|280:205,1,80,4|8,0:0|1:0,0:0:0:0:
118,298,97965,2,0,P|173:231|185:158,1,160,4|4,0:0|0:0,0:0:0:0:
76,123,98476,1,4,1:3:0:0:
163,43,98647,1,4,1:3:0:0:
411,75,98817,6,0,L|436:240,1,160,4|8,1:2|1:0,0:0:0:0:
270,117,99329,2,0,L|246:282,1,160,0|4,0:0|0:0,0:0:0:0:
424,307,99840,1,8,1:0:0:0:
160,349,100181,5,0,0:0:0:0:
389,357,100522,2,0,L|459:282,1,80,8|0,1:0|0:0,0:0:0:0:
304,355,100863,2,0,L|236:280,2,80,8|4|8,0:0|0:0|1:0,0:0:0:0:
174,302,101545,6,0,P|134:295|90:192,1,160,0|8,0:0|1:0,0:0:0:0:
254,105,102056,2,0,L|236:280,1,160,0|4,0:0|0:0,0:0:0:0:
396,280,102567,1,8,1:0:0:0:
116,104,102908,5,0,0:0:0:0:
236,108,103249,2,0,L|236:224,1,80,8|0,1:0|0:0,0:0:0:0:
301,242,103590,2,0,P|332:192|310:98,1,160,0|8,0:0|1:0,0:0:0:0:
230,93,104101,1,4,0:0:0:0:
396,27,104272,6,0,L|426:207,1,160,0|8,0:0|1:0,0:0:0:0:
276,258,104783,2,0,P|208:272|162:204,1,160,0|4,0:0|0:0,0:0:0:0:
192,136,105295,1,8,1:0:0:0:
336,116,105465,6,0,L|170:89,1,160
410,62,105976,1,8,1:0:0:0:
181,149,106317,2,0,L|206:241,1,80,8|4,0:0|0:0,0:0:0:0:
363,283,106658,2,0,P|418:240|383:158,1,160,8|0,1:0|0:0,0:0:0:0:
108,231,107340,6,0,L|81:156,1,80,8|0,1:0|0:0,0:0:0:0:
403,231,107851,2,0,L|431:156,1,80,4|8,0:0|1:0,0:0:0:0:
305,124,108192,1,0,0:0:0:0:
448,134,108363,1,4,0:0:0:0:
474,63,108533,1,4,0:0:0:0:
411,20,108704,5,0,0:0:0:0:
255,82,108874,2,0,L|231:175,1,80,4|12,0:0|0:0,0:0:0:0:
376,131,109215,1,0,0:0:0:0:
386,169,109300,1,12,0:0:0:0:
396,203,109386,1,0,0:0:0:0:
264,259,109556,1,12,0:0:0:0:
496,357,109726,6,0,L|332:335,1,160,4|8,1:2|1:0,0:0:0:0:
81,358,110408,2,0,L|249:333,1,160,0|8,0:0|1:0,0:0:0:0:
280,286,110920,1,0,0:0:0:0:
119,258,111090,6,0,P|88:217|126:125,1,160,8|8,0:0|1:0,0:0:0:0:
386,125,111772,2,0,P|427:189|393:258,1,160,0|8,0:0|1:0,0:0:0:0:
318,259,112283,1,0,0:0:0:0:
439,326,112454,5,4,1:2:0:0:
352,324,112795,1,8,1:0:0:0:
73,326,113136,2,0,L|137:279,1,80,0|4,0:0|0:0,0:0:0:0:
280,327,113476,2,0,L|215:280,1,80,8|0,1:0|0:0,0:0:0:0:
51,288,113817,6,0,L|30:128,1,160,8|8,0:0|1:0,0:0:0:0:
94,97,114329,1,8,0:0:0:0:
324,191,114670,2,0,L|242:171,2,80,8|4|4,0:0|0:0|0:0,0:0:0:0:
94,97,115181,6,0,L|73:255,1,160,4|8,1:2|1:0,0:0:0:0:
191,287,115692,1,0,0:0:0:0:
72,255,115863,2,0,L|151:242,2,80,4|4|8,0:0|0:0|1:0,0:0:0:0:
43,185,116374,1,0,0:0:0:0:
212,186,116545,6,0,P|258:205|348:155,1,160,0|8,1:2|1:0,0:0:0:0:
470,315,117226,2,0,P|424:334|335:280,1,160,0|8,0:0|1:0,0:0:0:0:
299,210,117738,1,0,0:0:0:0:
472,152,117908,6,0,L|508:76,3,80,4|4|8|4,1:2|0:0|1:0|0:0,0:0:0:0:
368,107,118590,5,4,1:2:0:0:
168,175,118846,2,0,L|30:154,1,120,4|4,1:2|1:2,0:0:0:0:
293,21,119272,6,0,P|289:74|267:106,1,80,12|12,0:0|0:0,0:0:0:0:
140,327,119613,2,0,P|144:274|167:241,1,80,4|12,0:1|0:0,0:0:0:0:
319,313,119954,6,0,P|348:253|316:161,1,160,2|0,0:0|0:0,0:0:0:0:
286,148,120380,1,0,0:0:0:0:
258,118,120465,1,0,0:0:0:0:
265,78,120550,1,0,0:0:0:0:
324,24,120636,6,0,P|366:29|404:128,1,160,0|10,0:0|0:2,0:0:0:0:
286,148,121147,1,0,0:0:0:0:
404,127,121317,1,4,0:0:0:0:
270,195,121488,2,0,L|237:121,1,80,4|10,0:0|0:2,0:0:0:0:
354,63,121829,1,0,0:0:0:0:
204,190,122170,6,0,L|171:116,1,80,0|10,0:0|0:2,0:0:0:0:
18,122,122511,2,0,L|94:278,1,160,4|4,0:0|0:0,0:0:0:0:
108,267,122937,1,0,0:0:0:0:
165,269,123022,1,10,0:2:0:0:
146,268,123107,1,0,0:0:0:0:
126,267,123192,1,0,0:0:0:0:
356,337,123363,6,0,P|394:288|354:204,1,160,8|10,0:0|0:2,0:0:0:0:
233,188,123874,1,0,0:0:0:0:
391,153,124045,2,0,L|435:245,1,80,4|4,0:0|0:0,0:0:0:0:
289,119,124386,2,0,L|245:211,1,80,10|0,0:2|0:0,0:0:0:0:
102,124,124726,6,0,L|206:261,1,160,0|10,0:0|0:2,0:0:0:0:
57,330,125238,2,0,L|20:295,2,40,8|0|4,0:0|0:0|0:0,0:0:0:0:
221,365,125579,1,4,0:0:0:0:
293,332,125749,1,10,0:2:0:0:
307,253,125920,1,4,0:0:0:0:
54,211,126090,6,0,L|54:49,1,160,4|10,0:1|0:2,0:0:0:0:
201,51,126601,1,0,0:0:0:0:
85,66,126772,1,0,0:0:0:0:
228,70,126942,2,0,L|170:138,2,80,4|10|0,0:0|0:2|0:0,0:0:0:0:
84,165,127454,6,0,P|118:227|215:248,1,160,4|10,0:1|0:2,0:0:0:0:
67,315,127965,2,0,L|0:257,2,80,0|0|4,0:0|0:0|0:0,0:0:0:0:
200,315,128476,1,10,0:2:0:0:
87,315,128647,1,0,0:0:0:0:
333,339,128817,6,0,P|398:280|366:208,1,160,4|10,0:1|0:2,0:0:0:0:
109,235,129499,2,0,L|168:157,1,80,4|4,0:0|0:0,0:0:0:0:
314,173,129840,2,0,L|373:95,1,80,10|0,0:2|0:0,0:0:0:0:
123,137,130181,6,0,P|81:140|29:41,1,160,8|10,0:0|0:2,0:0:0:0:
195,139,130863,2,0,L|240:55,1,80,8|0,0:0|0:0,0:0:0:0:
166,39,131118,1,0,0:0:0:0:
126,49,131204,1,0,0:0:0:0:
108,84,131289,1,0,0:0:0:0:
130,117,131374,1,0,0:0:0:0:
362,165,131545,6,0,P|404:168|456:69,1,160,4|10,1:2|0:2,0:0:0:0:
340,88,132056,1,0,0:0:0:0:
479,225,132226,2,0,L|446:146,1,80,4|4,0:0|0:0,0:0:0:0:
281,152,132567,1,10,0:2:0:0:
406,212,132738,1,0,0:0:0:0:
435,286,132908,5,0,0:0:0:0:
388,351,133079,1,0,0:0:0:0:
312,326,133249,1,10,0:2:0:0:
147,362,133420,2,0,L|172:198,1,160,4|4,0:0|0:0,0:0:0:0:
270,163,133931,1,10,0:2:0:0:
144,155,134101,1,0,0:0:0:0:
400,238,134272,6,0,P|323:222|271:164,1,160,8|10,0:0|0:2,0:0:0:0:
403,18,134783,1,0,0:0:0:0:
270,163,134954,2,0,P|322:221|400:238,1,160,0|10,0:0|0:2,0:0:0:0:
500,193,135465,1,0,0:0:0:0:
399,238,135636,5,4,0:0:0:0:
141,253,135976,1,10,0:2:0:0:
269,258,136147,1,8,0:0:0:0:
298,238,136232,1,0,0:0:0:0:
315,206,136317,1,12,0:0:0:0:
165,169,136488,1,12,0:0:0:0:
136,149,136573,1,0,0:0:0:0:
119,117,136658,1,10,0:2:0:0:
265,37,136829,1,8,0:0:0:0:
24,220,136999,6,0,P|85:299|157:296,1,160,4|10,0:1|0:2,0:0:0:0:
334,229,137681,2,0,L|277:159,2,80,4|4|10,0:0|0:0|0:2,0:0:0:0:
208,167,138192,1,0,0:0:0:0:
479,134,138363,6,0,L|473:326,1,160,4|10,0:1|0:2,0:0:0:0:
250,326,139045,2,0,L|227:223,1,80,4|4,0:0|0:0,0:0:0:0:
86,328,139386,2,0,L|109:225,1,80,10|0,0:2|0:0,0:0:0:0:
256,133,139726,6,0,P|300:147|423:98,1,160,4|10,0:1|0:2,0:0:0:0:
253,220,140408,2,0,P|212:204|161:220,1,80,4|4,0:0|0:0,0:0:0:0:
325,28,140749,2,0,P|366:44|417:28,1,80,10|0,0:2|0:0,0:0:0:0:
249,129,141090,5,4,0:0:0:0:
219,54,141261,1,4,0:0:0:0:
337,119,141431,1,10,0:2:0:0:
367,44,141602,1,0,0:0:0:0:
218,203,141772,2,0,L|179:170,1,40,4|4,0:0|0:0,0:0:0:0:
308,225,142028,2,0,L|352:214,1,40,4|10,0:0|0:2,0:0:0:0:
467,304,142283,1,4,0:0:0:0:
411,158,142454,5,4,0:1:0:0:
256,192,150636,12,0,153022,2:0:0:0:
246,278,153363,6,0,L|411:241,1,160,4|2,0:1|1:2,0:0:0:0:
429,167,153874,1,0,0:0:0:0:
294,142,154045,2,0,L|216:94,1,80,4|4,0:3|0:3,0:0:0:0:
365,82,154386,2,0,L|443:34,1,80,2|0,1:2|0:0,0:0:0:0:
196,245,154726,6,0,L|31:208,1,160,4|2,0:1|1:2,0:0:0:0:
182,162,155238,2,0,L|347:125,1,160,4|4,0:3|0:3,0:0:0:0:
78,87,155749,1,2,1:2:0:0:
297,37,156090,6,0,P|319:85|294:187,1,160,4|2,0:1|1:2,0:0:0:0:
141,346,156601,2,0,P|114:272|139:197,1,160,4|4,0:3|0:3,0:0:0:0:
303,225,157113,1,2,1:2:0:0:
126,336,157454,6,0,L|199:262,2,80,4|4|2,0:1|0:3|1:2,0:0:0:0:
258,307,157965,1,4,0:3:0:0:
107,334,158136,2,0,L|180:260,1,80,8|0,0:3|1:0,0:0:0:0:
316,270,158476,2,0,L|389:196,1,80,2|0,1:2|1:0,0:0:0:0:
141,243,158817,6,0,P|96:226|91:118,1,160,4|2,0:1|1:2,0:0:0:0:
368,239,159499,1,4,0:3:0:0:
437,198,159670,1,4,0:3:0:0:
452,119,159840,1,2,1:2:0:0:
226,163,160181,6,0,L|160:117,2,80,4|0|2,0:1|0:0|1:2,0:0:0:0:
77,199,160692,2,0,L|120:361,1,160,0|4,0:0|0:3,0:0:0:0:
287,358,161204,1,2,1:2:0:0:
186,358,161545,6,0,L|108:320,1,80,4|0,0:1|0:0,0:0:0:0:
233,291,161886,2,0,L|191:220,1,80,2|0,1:2|0:0,0:0:0:0:
326,358,162226,2,0,L|404:320,1,80,4|4,0:3|0:3,0:0:0:0:
279,291,162567,2,0,L|321:220,1,80,2|0,1:2|0:0,0:0:0:0:
158,210,162908,5,4,3:1:0:0:
114,142,163079,1,8,3:3:0:0:
144,68,163249,1,0,3:3:0:0:
214,30,163420,1,8,3:3:0:0:
367,75,163590,5,0,0:0:0:0:
223,173,163761,1,0,0:0:0:0:
207,136,163846,1,0,0:0:0:0:
191,99,163931,1,0,0:0:0:0:
301,133,164101,1,0,0:0:0:0:
13,244,164272,1,0,0:0:0:0:
256,192,169726,12,0,173817,0:0:0:0:
282,318,174499,5,0,3:0:0:0:
320,330,174584,1,0,3:0:0:0:
359,323,174670,1,0,3:0:0:0:
389,297,174755,1,0,3:0:0:0:
406,261,174840,2,0,L|387:215,1,40,4|4,3:3|3:3,3:0:0:0:
327,225,175011,2,0,L|308:179,1,40,4|4,3:3|3:3,3:0:0:0:
249,188,175181,6,0,L|214:104,1,80,4|4,0:2|0:3,0:0:0:0:
320,62,175522,1,2,0:3:0:0:
181,80,175692,2,0,L|233:16,2,80,4|4|2,0:2|0:3|0:3,0:0:0:0:
335,83,176204,2,0,L|283:19,1,80,4|4,0:2|0:3,0:0:0:0:
425,83,176545,6,0,L|477:19,2,80,4|4|2,0:2|0:3|0:3,0:0:0:0:
255,172,177056,2,0,L|254:10,1,160,4|2,0:2|0:3,0:0:0:0:
486,268,177567,2,0,L|486:156,1,80,4|4,0:2|0:3,0:0:0:0:
347,293,177908,6,0,L|410:228,1,80,0|4,0:2|0:3,0:0:0:0:
271,192,178249,1,2,0:3:0:0:
402,235,178420,1,4,0:2:0:0:
271,192,178590,2,0,P|204:225|126:186,1,160,4|4,0:3|0:2,0:0:0:0:
202,127,179101,1,4,0:3:0:0:
57,248,179272,6,0,L|136:288,2,80,4|4|2,0:2|0:3|0:3,0:0:0:0:
212,248,179783,1,4,3:2:0:0:
193,212,179868,1,0,3:0:0:0:
174,176,179954,1,4,3:0:0:0:
283,181,180124,2,0,L|336:108,1,80,2|4,0:3|3:2,0:0:0:0:
232,78,180465,1,4,3:0:0:0:
465,25,180636,6,0,L|479:189,1,160,4|2,0:2|0:3,0:0:0:0:
410,227,181147,1,4,0:2:0:0:
244,296,181317,2,0,L|168:257,1,80,4|2,0:3|0:3,0:0:0:0:
286,219,181658,2,0,L|210:180,1,80,0|4,0:2|0:3,0:0:0:0:
38,185,181999,6,0,L|180:90,1,160,4|2,0:2|0:3,0:0:0:0:
474,185,182511,2,0,L|332:90,1,160,4|2,0:2|0:3,0:0:0:0:
170,96,183022,2,0,L|253:46,1,80,4|4,0:2|0:3,0:0:0:0:
401,94,183363,6,0,L|435:17,1,80,4|4,0:2|0:3,0:0:0:0:
312,55,183704,1,4,0:3:0:0:
433,20,183874,1,0,0:0:0:0:
277,88,184045,6,0,L|243:11,1,80,4|4,0:2|0:3,0:0:0:0:
419,126,184386,2,0,L|453:49,1,80,4|4,0:2|0:3,0:0:0:0:
102,230,184726,6,0,L|136:153,1,80,12|12,3:0|3:0,0:0:0:0:
220,105,185067,1,4,3:1:0:0:
258,118,185153,1,0,2:0:0:0:
279,151,185238,1,12,3:0:0:0:
264,188,185323,1,0,2:0:0:0:
186,249,185408,6,0,P|113:257|77:178,1,160,2|0,0:0|0:0,0:0:0:0:
59,152,185834,1,0,0:0:0:0:
42,115,185920,1,0,0:0:0:0:
25,78,186005,1,0,0:0:0:0:
94,32,186090,6,0,L|254:39,1,160,0|10,0:0|0:2,0:0:0:0:
169,137,186601,2,0,L|114:67,1,80,0|4,0:0|0:0,0:0:0:0:
374,158,186942,2,0,L|429:88,2,80,4|10|0,0:0|0:2|0:0,0:0:0:0:
101,225,187624,5,0,0:0:0:0:
196,182,187795,2,0,L|148:98,1,80,10|4,0:2|0:0,0:0:0:0:
26,115,188136,1,0,0:0:0:0:
195,120,188306,1,4,0:3:0:0:
205,82,188391,1,4,0:0:0:0:
215,44,188476,1,10,0:2:0:0:
111,42,188647,1,4,0:0:0:0:
411,302,188817,6,0,L|343:147,1,160,8|10,0:0|0:2,0:0:0:0:
185,155,189329,2,0,L|228:66,1,80,0|4,0:0|0:0,0:0:0:0:
135,83,189670,1,4,0:0:0:0:
302,82,189840,2,0,L|345:-7,1,80,10|0,0:2|0:0,0:0:0:0:
163,177,190181,6,0,P|97:154|77:71,1,160,0|10,0:0|0:2,0:0:0:0:
242,94,190692,1,8,0:0:0:0:
261,129,190778,1,0,0:0:0:0:
280,164,190863,1,4,0:0:0:0:
149,166,191033,2,0,L|108:214,1,40,12|0,0:0|0:0,0:0:0:0:
48,244,191204,2,0,L|15:282,2,40,10|0|0,0:2|0:0|0:0,0:0:0:0:
421,327,191545,6,0,P|338:303|278:236,1,160,4|10,0:1|0:2,0:0:0:0:
394,203,192056,2,0,P|311:179|252:111,1,160,0|4,0:0|0:0,0:0:0:0:
365,67,192567,1,10,0:2:0:0:
91,327,192908,6,0,P|174:303|234:236,1,160,4|10,0:1|0:2,0:0:0:0:
118,203,193420,2,0,P|201:179|260:111,1,160,0|4,0:0|0:0,0:0:0:0:
147,67,193931,2,0,L|90:145,1,80,10|0,0:2|0:0,0:0:0:0:
388,213,194272,5,4,0:1:0:0:
124,213,194613,1,10,0:2:0:0:
356,251,194954,2,0,L|402:342,1,80,4|4,0:0|0:0,0:0:0:0:
156,251,195295,2,0,L|110:342,1,80,10|0,0:2|0:0,0:0:0:0:
372,266,195636,6,0,P|408:206|386:109,1,160,8|10,0:0|0:2,0:0:0:0:
117,120,196317,2,0,P|102:197|140:266,1,160,8|0,0:0|0:0,0:0:0:0:
172,241,196743,1,0,0:0:0:0:
169,200,196829,1,0,0:0:0:0:
137,175,196914,1,0,0:0:0:0:
62,222,196999,6,0,P|123:237|161:333,2,160,0|2|0,0:0|0:0|0:0,0:0:0:0:
196,195,197851,2,0,L|239:113,1,80,4|10,0:0|0:2,0:0:0:0:
114,76,198192,1,0,0:0:0:0:
141,151,198363,5,0,0:0:0:0:
212,186,198533,1,4,0:0:0:0:
291,173,198704,1,10,0:2:0:0:
164,270,198874,2,0,L|89:240,1,80,4|0,0:0|0:0,0:0:0:0:
241,197,199215,2,0,L|278:172,2,40,4|4|10,0:0|0:0|0:2,0:0:0:0:
154,124,199556,1,4,0:0:0:0:
422,243,199726,6,0,L|379:85,1,160,8|10,0:0|0:2,0:0:0:0:
223,119,200238,2,0,L|136:86,1,80,0|4,0:0|0:0,0:0:0:0:
161,52,200493,1,0,0:0:0:0:
196,32,200579,1,4,0:0:0:0:
335,75,200749,1,10,0:2:0:0:
196,32,200920,1,0,0:0:0:0:
335,75,201090,5,4,0:0:0:0:
400,121,201261,1,0,0:0:0:0:
421,197,201431,1,10,0:2:0:0:
294,284,201601,2,0,L|254:257,2,40,8|0|12,0:0|0:0|0:0,0:0:0:0:
435,305,201942,2,0,L|475:278,2,40,12|0|10,0:0|0:0|0:2,0:0:0:0:
313,286,202283,1,8,0:0:0:0:
65,348,202454,6,0,L|111:177,1,160,4|10,0:1|0:2,0:0:0:0:
351,201,203136,2,0,L|304:129,1,80,0|4,0:0|0:0,0:0:0:0:
133,177,203476,2,0,P|217:195|297:156,1,160,10|4,0:2|0:1,0:0:0:0:
188,74,203988,6,0,L|251:12,2,80,0|10|4,0:0|0:2|0:0,0:0:0:0:
434,43,204499,2,0,L|455:215,1,160,0|10,0:0|0:2,0:0:0:0:
161,297,205181,6,0,L|212:213,1,80,4|0,0:1|0:0,0:0:0:0:
332,226,205522,2,0,L|281:142,1,80,10|0,0:2|0:0,0:0:0:0:
164,140,205863,1,4,0:0:0:0:
120,72,206033,1,4,0:0:0:0:
289,33,206204,2,0,L|398:46,1,80,10|0,0:2|0:0,0:0:0:0:
134,72,206545,6,0,L|54:62,1,80,4|0,0:0|0:0,0:0:0:0:
228,78,206886,2,0,L|290:157,1,80,10|0,0:2|0:0,0:0:0:0:
125,63,207226,2,0,L|63:142,1,80,12|12,0:0|0:0,0:0:0:0:
94,152,207482,1,0,2:0:0:0:
165,148,207567,2,0,L|238:226,1,80,12|12,0:0|0:0,0:0:0:0:
460,261,207908,5,0,0:0:0:0:
181,331,208249,1,10,0:2:0:0:
460,261,208590,2,0,L|391:182,1,80,4|4,0:0|0:0,0:0:0:0:
246,205,208931,2,0,L|326:47,1,160,10|4,0:2|0:2,0:0:0:0:
89,207,209613,6,0,L|31:148,1,80,10|0,0:2|0:0,0:0:0:0:
272,212,209954,2,0,L|352:54,1,160,4|10,0:0|0:2,0:0:0:0:
68,176,210636,6,0,L|41:101,3,80,4|0|10|0,0:2|0:0|0:2|0:0,0:0:0:0:
111,64,211317,1,4,0:0:0:0:
262,52,211488,1,4,0:0:0:0:
288,127,211658,1,10,0:2:0:0:
132,214,211829,1,0,0:0:0:0:
290,296,211999,6,0,L|312:243,3,40,12|0|0|0,0:0|0:0|0:0|0:0,0:0:0:0:
238,215,212340,1,10,0:2:0:0:
199,185,212425,1,0,0:0:0:0:
185,138,212511,1,0,0:0:0:0:
202,93,212596,1,0,0:0:0:0:
243,69,212681,5,12,0:0:0:0:
480,154,212851,1,4,0:0:0:0:
345,177,213022,2,0,L|306:157,1,40,10|0,0:2|0:0,0:0:0:0:
255,139,213192,2,0,L|216:119,1,40
161,119,213363,1,4,0:1:0:0:
256,192,213533,12,0,218476,0:0:0:0:
263,282,218817,6,0,L|214:212,1,80,4|0,1:0|0:0,0:0:0:0:
83,282,219158,2,0,L|132:212,1,80,2|0,0:0|0:0,0:0:0:0:
476,273,219499,2,0,L|374:139,1,160,8|2,0:3|0:0,0:0:0:0:
429,82,220011,1,0,0:0:0:0:
285,131,220181,6,0,L|248:55,1,80,4|0,1:0|0:0,0:0:0:0:
398,107,220522,2,0,L|361:31,1,80,2|0,0:0|0:0,0:0:0:0:
51,191,220863,2,0,L|221:211,1,160,8|2,0:3|0:0,0:0:0:0:
99,271,221374,1,0,0:0:0:0:
254,324,221545,6,0,L|193:249,2,80,4|0|2,1:0|0:0|0:0,0:0:0:0:
138,353,222056,1,0,0:0:0:0:
454,348,222226,2,0,L|468:255,1,80,8|0,0:3|0:0,0:0:0:0:
343,269,222567,2,0,L|329:176,1,80,2|0,0:0|0:0,0:0:0:0:
454,36,222908,6,0,L|468:129,1,80,4|0,1:0|0:0,0:0:0:0:
343,115,223249,2,0,L|329:208,1,80,2|0,0:0|0:0,0:0:0:0:
203,285,223590,2,0,L|68:237,1,120,12|4,0:3|0:3,0:0:0:0:
168,215,223931,2,0,L|257:184,1,80,2|4,0:0|0:3,0:0:0:0:
92,142,224272,6,0,L|45:78,2,80,4|0|2,0:0|0:0|0:0,0:0:0:0:
214,115,224783,1,0,0:0:0:0:
378,221,224954,1,8,0:3:0:0:
452,193,225124,1,0,0:0:0:0:
486,121,225295,1,2,0:0:0:0:
455,48,225465,1,0,0:0:0:0:
317,95,225636,6,0,L|352:178,3,80,0|0|2|0,0:0|0:0|0:0|0:0,0:0:0:0:
190,255,226317,1,8,0:3:0:0:
116,227,226487,1,0,0:0:0:0:
82,155,226658,1,2,0:0:0:0:
113,82,226828,1,0,0:0:0:0:
283,44,226999,6,0,L|343:110,1,80
204,42,227340,2,0,L|144:108,1,80,2|0,0:0|0:0,0:0:0:0:
283,44,227681,2,0,L|343:110,1,80,8|0,0:3|0:0,0:0:0:0:
204,42,228022,2,0,L|144:108,1,80,2|0,0:0|0:0,0:0:0:0:
283,44,228363,6,0,P|333:67|357:173,1,160,0|2,0:0|0:0,0:0:0:0:
313,226,228874,1,0,0:0:0:0:
463,286,229045,2,0,L|413:195,3,80,8|0|2|0,0:3|0:0|0:0|0:0,0:0:0:0:
497,139,229726,6,0,P|343:240|195:36,1,480
318,42,231090,2,0,P|211:232|15:139,1,480
186,384,232454,2,0,P|307:206|177:-2,1,480
45,124,233817,6,0,L|86:286,1,160
164,287,234329,1,0,0:0:0:0:
325,295,234499,2,0,L|355:192,1,80
236,151,234840,2,0,L|190:142,1,40
167,101,235011,1,0,0:0:0:0:
162,82,235053,1,0,0:0:0:0:
163,61,235096,1,0,0:0:0:0:
168,41,235138,1,0,0:0:0:0:
180,24,235181,1,4,0:1:0:0:
256,192,235351,12,4,237908,0:1:0:0:
